VERSION	0.00.00	1.04.00
FES_MODE	0
BPM_DEF	190.000	190.000	190.000	190.000
MET_DEF	4	4
RESOLUTION	384
CLK_DEF	384
COMPATIBLE_CODE	MA2

BPM	0	0	190.000
MET	0	0	4	4
MET	9	0	4	4
MET	10	0	4	3
MET	10	288	4	4
MET	11	288	4	6
MET	13	96	4	4
MET	16	96	4	2
MET	16	288	4	4

EXTAP	2	0	4
EXTAP	2	0	6
EXTAP	2	72	4
EXTAP	2	72	6
EXTAP	2	144	3
EXTAP	2	144	5
EXTAP	2	240	2
EXTAP	2	240	4
EXHLD	2	336	1	144
EXHLD	2	336	3	144
EXSTR	3	144	0
NMSI_	3	144	0	96	48	4
BXTAP	3	240	5
NMHLD	4	0	3	288
NMHLD	4	0	6	288
EXSTR	4	360	4
NMSCL	4	360	4	96	120	1
EXSTR	4	360	7
NMSCL	4	360	7	96	120	4
NMHLD	6	0	4	72
NMHLD	6	72	5	72
NMTAP	6	144	6
NMHLD	6	192	3	72
NMHLD	6	264	2	72
NMTAP	6	336	1
NMHLD	7	0	5	72
NMHLD	7	72	6	72
NMTAP	7	144	7
NMTAP	7	192	0
NMTAP	7	288	1
NMTAP	7	288	3
NMTAP	8	0	2
NMTAP	8	0	4
NMTAP	8	96	3
NMTAP	8	96	5
NMTAP	8	192	4
NMTAP	8	192	6
EXTAP	8	288	5
EXTAP	8	288	7
BXSTR	9	0	0
NMSI_	9	0	0	96	48	6
BXTAP	9	0	2
BXSTR	9	192	0
NMSI_	9	192	0	96	48	5
BXTAP	9	192	3
BXSTR	10	0	0
NMSCR	10	0	0	96	96	5
BXHLD	10	0	4	192
BXTAP	10	288	5
BXSTR	10	288	7
NMSI_	10	288	7	96	48	1
BXTAP	11	96	4
BXSTR	11	96	7
NMSI_	11	96	7	96	48	2
BXHLD	11	288	3	384
BXSTR	11	288	7
NMSCL	11	288	7	96	96	2
CNSUL	12	96	2	0	192	1
NMTAP	13	0	0
NMTAP	13	0	7
BXSTR	13	96	0
NMSI_	13	96	0	96	48	6
BXTAP	13	96	2
BXSTR	13	288	0
NMSI_	13	288	0	96	48	5
BXTAP	13	288	3
BXSTR	14	96	0
NMSCR	14	96	0	96	96	5
BXHLD	14	96	4	192
NMTAP	15	0	6
NMTAP	15	0	7
NMTAP	15	96	0
NMTAP	15	144	0
NMTAP	15	192	0
NMHLD	15	240	0	192
NMTAP	15	336	3
NMTAP	16	48	4
BXSTR	16	144	4
NMSI_	16	144	4	96	48	0
BXTAP	16	144	5
NMTAP	16	288	7
NMTAP	16	336	7
NMTAP	17	0	7
NMTAP	17	48	7
NMTAP	17	144	0
NMTAP	17	144	5
NMTAP	17	240	0
NMTAP	17	240	5
EXSTR	17	336	7
BRSF_	17	336	7	96	144	3
NMTTP	18	288	7	E	0	M1
NMTTP	19	0	6	E	0	M1
NMTTP	19	192	3	B	0	M1
NMTTP	19	192	4	B	0	M1
NMTTP	19	288	1	E	0	M1
NMTTP	20	0	2	E	0	M1
NMTTP	20	192	3	B	0	M1
NMTTP	20	192	4	B	0	M1
NMTTP	20	288	7	E	0	M1
NMTTP	21	0	6	E	0	M1
NMTTP	21	192	2	E	0	M1
NMTTP	21	192	3	E	0	M1
NMTTP	21	288	5	E	0	M1
NMTTP	21	288	6	E	0	M1
NMTTP	22	96	0	C	0	M1
NMTAP	22	288	7
NMTAP	22	336	7
NMTAP	23	0	1
NMTAP	23	48	1
NMTTP	23	96	0	E	0	M1
NMTTP	23	120	7	B	0	M1
NMTTP	23	144	6	B	0	M1
NMTTP	23	168	6	E	0	M1
NMTTP	23	192	5	A	0	M1
NMTAP	23	288	0
NMTAP	23	336	0
NMTAP	24	0	6
NMTAP	24	48	6
NMTTP	24	96	0	E	0	M1
NMTTP	24	120	0	B	0	M1
NMTTP	24	144	1	B	0	M1
NMTTP	24	168	2	E	0	M1
NMTTP	24	192	2	A	0	M1
NMSTR	24	288	6
NMSUL	24	288	6	96	96	2
NMSTR	25	96	1
NMSUR	25	96	1	96	96	5
NMTAP	25	288	6
NMTAP	25	336	7
NMSTR	26	48	6
NMSI_	26	48	6	96	48	3
NMSTR	26	48	7
NMSI_	26	48	7	96	48	3
NMHLD	26	288	2	288
NMTTP	27	96	3	A	0	M1
NMTTP	27	120	3	B	0	M1
NMTTP	27	144	0	C	0	M1
NMTTP	27	168	7	B	0	M1
NMTTP	27	192	7	A	0	M1
NMHLD	27	288	1	288
NMTTP	28	96	0	A	0	M1
NMTTP	28	120	0	B	0	M1
NMTTP	28	144	0	C	0	M1
NMTTP	28	168	4	B	0	M1
NMTTP	28	192	4	A	0	M1
NMHLD	28	288	5	288
NMTTP	29	96	4	A	0	M1
NMTTP	29	120	4	B	0	M1
NMTTP	29	144	0	C	0	M1
NMTTP	29	168	0	B	0	M1
NMTTP	29	192	0	A	0	M1
NMHLD	29	288	6	288
NMTTP	30	96	7	A	0	M1
NMTTP	30	120	7	B	0	M1
NMTTP	30	144	0	C	0	M1
NMTTP	30	168	3	B	0	M1
NMTTP	30	192	3	A	0	M1
EXTAP	30	288	5
NMTAP	31	0	6
NMHLD	31	96	7	144
NMTAP	31	192	3
NMTAP	31	240	3
NMTAP	31	336	4
NMTAP	31	336	5
NMTAP	32	48	6
NMTAP	32	48	7
NMTAP	32	144	0
NMTAP	32	144	1
EXHLD	32	240	2	96
EXTAP	32	240	3
NMTAP	32	336	5
EXTAP	33	48	4
EXHLD	33	48	6	96
NMTAP	33	144	1
EXHLD	33	240	0	192
EXTAP	33	240	3
NMTAP	33	336	7
NMTAP	34	0	7
NMSTR	34	48	7
NMSCL	34	48	7	96	96	3
EXTAP	34	288	2
NMTAP	34	336	2
NMTAP	35	0	3
NMTAP	35	48	3
NMTAP	35	96	4
NMTAP	35	144	4
NMTAP	35	192	5
NMTAP	35	288	4
NMHLD	35	288	6	288
NMTTP	36	0	7	E	0	M1
NMTTP	36	24	6	B	0	M1
NMTTP	36	96	0	D	0	M1
NMTTP	36	120	0	E	0	M1
NMTTP	36	192	1	E	0	M1
NMTTP	36	216	1	B	0	M1
EXTAP	36	288	5
NMTAP	36	336	5
NMTAP	37	0	4
NMTAP	37	48	4
NMTAP	37	96	3
NMTAP	37	144	3
NMTAP	37	192	2
NMTAP	37	240	2
EXTAP	37	336	1
EXTAP	37	336	3
EXTAP	38	24	1
EXTAP	38	24	3
EXTAP	38	96	2
EXTAP	38	96	4
EXTAP	38	168	2
EXTAP	38	168	4
EXTAP	38	240	3
EXTAP	38	240	5
NMTAP	38	288	6
NMTAP	38	336	6
NMTAP	39	0	3
NMTAP	39	48	3
NMTTP	39	96	0	E	0	M1
NMTTP	39	120	7	E	0	M1
NMTTP	39	144	6	E	0	M1
NMTTP	39	168	5	E	0	M1
NMTTP	39	192	4	E	0	M1
NMTAP	39	288	0
NMTAP	39	336	0
NMTAP	40	0	6
NMTAP	40	48	6
NMTTP	40	96	0	E	0	M1
NMTTP	40	120	1	E	0	M1
NMTTP	40	144	2	E	0	M1
NMTTP	40	168	3	E	0	M1
NMTTP	40	192	4	E	0	M1
NMTAP	40	288	5
NMTAP	40	336	5
NMTAP	41	0	0
NMTAP	41	48	0
NMTAP	41	96	3
NMTAP	41	144	3
NMHLD	41	192	3	96
NMTAP	41	288	2
NMTAP	41	336	2
NMTAP	42	0	7
NMTAP	42	48	7
NMTAP	42	96	4
NMTAP	42	144	4
NMHLD	42	192	4	96
NMTAP	42	288	5
BRTAP	43	0	0
BRTAP	43	0	7
NMTAP	43	96	5
NMTAP	43	144	4
NMTAP	43	192	3
NMTAP	43	240	2
NMTAP	43	288	1
NMHLD	44	0	6	240
NMTAP	44	0	7
NMTAP	44	96	5
NMTAP	44	192	7
NMTAP	44	240	7
BRTAP	45	0	0
BRTAP	45	0	7
NMTAP	45	96	2
NMTAP	45	144	3
NMTAP	45	192	4
NMTAP	45	240	5
NMTAP	45	288	6
NMTAP	46	0	0
NMHLD	46	0	1	192
NMTAP	46	96	2
NMTAP	46	192	0
BRSTR	46	288	5
NMSCL	46	288	5	96	288	0
NMTAP	47	96	7
NMTAP	47	288	6
NMTAP	48	96	1
NMTAP	48	96	6
NMTAP	48	192	2
NMTAP	48	192	5
EXTAP	48	288	3
EXHLD	48	288	4	96
NMTAP	49	0	5
NMSTR	49	48	6
NMSI_	49	48	6	96	48	2
NMSTR	49	240	0
NMSI_	49	240	0	96	48	4
NMSTR	50	48	7
NMSI_	50	48	7	96	48	2
EXSTR	50	240	0
NMSI_	50	240	0	96	48	5
EXTAP	50	240	1
EXTAP	51	48	6
EXSTR	51	48	7
NMSI_	51	48	7	96	48	2
EXSTR	51	240	0
NMSI_	51	240	0	96	48	5
EXSTR	51	240	1
NMSI_	51	240	1	96	48	4
EXSTR	52	48	6
NMSI_	52	48	6	96	48	3
EXSTR	52	48	7
NMSI_	52	48	7	96	48	2
BXTAP	52	288	0
BXTAP	52	288	5
BXSTR	52	336	0
NMSCL	52	336	0	96	48	6
BXHLD	52	336	5	528
CNSI_	53	96	6	0	48	2
CNSCR	53	144	2	0	336	4
BRTAP	54	144	6
BXTAP	54	288	2
BXTAP	54	288	7
BXHLD	54	336	2	528
BXSTR	54	336	7
NMSCR	54	336	7	96	48	1
CNSI_	55	96	1	0	48	5
CNSCL	55	144	5	0	336	3
BRTAP	56	144	1
BXTAP	56	288	2
BXTAP	56	288	5
NMTAP	57	0	4
NMTAP	57	0	5
NMTAP	57	48	5
NMTAP	57	96	4
NMTAP	57	96	5
NMTAP	57	144	5
NMTAP	57	192	4
NMTAP	57	192	5
NMTAP	57	240	5
NMSTR	57	288	4
NMSI_	57	288	4	96	48	2
NMTAP	57	288	5
NMTAP	58	0	7
NMSTR	58	96	4
NMSI_	58	96	4	96	48	2
NMTAP	58	96	5
NMTAP	58	192	7
BXTAP	58	288	2
BXTAP	58	288	5
NMTAP	59	0	2
NMTAP	59	0	3
NMTAP	59	48	2
NMTAP	59	96	2
NMTAP	59	96	3
NMTAP	59	144	2
NMTAP	59	192	2
NMTAP	59	192	3
NMTAP	59	240	2
NMTAP	59	288	2
NMSTR	59	288	3
NMSI_	59	288	3	96	48	5
NMTAP	60	0	0
NMTAP	60	96	4
NMTAP	60	96	5
BXTAP	60	192	3
BXTAP	60	192	7
EXTAP	60	288	0
EXTAP	60	288	1
EXTAP	60	336	0
EXTAP	60	336	1
NMTAP	61	0	7
NMTAP	61	48	7
NMTAP	61	96	4
NMTAP	61	144	4
NMSTR	61	192	5
NMSCL	61	192	5	96	48	2
NMSTR	61	288	6
NMSCR	61	288	6	96	48	1
NMTAP	62	0	4
EXTAP	62	96	0
EXTAP	62	96	4
BXTAP	62	144	0
BXTAP	62	144	4
BXTAP	62	192	0
BXTAP	62	192	4
EXTAP	62	288	6
EXTAP	62	288	7
EXTAP	62	336	6
EXTAP	62	336	7
NMTAP	63	0	0
NMTAP	63	48	0
NMTAP	63	96	3
NMTAP	63	144	3
NMSTR	63	192	2
NMSCR	63	192	2	96	48	5
NMSTR	63	288	1
NMSCL	63	288	1	96	48	6
NMTAP	64	0	3
NMTAP	64	96	4
NMTAP	64	144	3
NMTAP	64	192	2
NMTAP	64	240	1
BXSTR	64	288	0
NMSI_	64	288	0	96	48	4
NMTAP	65	0	6
NMSTR	65	48	6
NMSI_	65	48	6	96	48	2
NMTAP	65	144	7
EXHLD	65	192	7	192
NMTAP	66	0	0
NMTAP	66	96	1
NMTAP	66	96	6
NMTAP	66	192	2
NMTAP	66	192	3
NMHLD	66	240	2	144
NMTAP	66	240	3
NMTAP	66	336	1
NMTAP	67	0	1
NMTAP	67	96	5
NMTAP	67	96	6
NMTAP	67	192	0
NMTAP	67	192	7
EXHLD	67	240	0	336
EXTAP	67	240	7
NMHLD	68	96	2	288
NMHLD	68	288	4	288
NMHLD	69	96	6	96
BRTAP	69	240	1
BRTAP	69	240	6
NMTAP	69	336	0
NMTAP	69	360	7
NMTAP	70	0	0
NMTAP	70	24	7
NMTAP	70	48	0
NMTAP	70	72	7
NMTAP	70	96	0
NMTAP	70	120	7
NMTAP	70	144	0
NMTAP	70	168	7
NMTAP	70	192	0
NMTAP	70	216	7
EXSTR	70	240	0
NMSXL	70	240	0	96	336	3
NMSXR	70	240	0	96	336	5
BRTAP	72	240	0
BRTAP	72	240	4
NMTAP	72	336	6
NMSTR	73	0	6
NMSI_	73	0	6	96	48	2
NMSTR	73	96	1
NMSI_	73	96	1	96	48	7
NMTAP	73	192	5
NMTAP	73	288	3
NMTAP	73	336	4
NMTAP	74	0	5
NMTAP	74	48	6
NMTAP	74	96	7
NMTAP	74	144	6
NMTAP	74	192	5
NMTAP	74	240	4
NMTAP	74	336	0
NMTAP	74	336	1
NMTAP	75	0	0
NMSTR	75	0	1
NMSI_	75	0	1	96	48	5
NMSTR	75	96	6
NMSI_	75	96	6	96	48	0
NMTAP	75	192	2
NMTAP	75	288	4
NMTAP	75	336	3
NMTAP	76	0	2
NMTAP	76	48	1
NMTAP	76	96	0
NMTAP	76	144	7
NMTAP	76	192	6
BRTAP	76	240	5
NMTAP	76	336	0
NMTAP	76	336	2
NMTAP	77	0	0
NMSTR	77	0	2
NMSI_	77	0	2	96	48	6
NMSTR	77	96	7
NMSI_	77	96	7	96	48	1
NMTAP	77	192	3
NMTAP	77	288	4
NMTAP	77	336	3
NMTAP	78	0	2
NMTAP	78	48	1
NMTAP	78	96	0
NMTAP	78	144	1
NMTAP	78	192	2
NMTAP	78	240	3
NMTAP	78	336	5
NMTAP	78	336	7
NMSTR	79	0	5
NMSI_	79	0	5	96	48	1
NMTAP	79	0	7
NMTAP	79	96	0
NMTAP	79	192	7
EXTAP	79	240	7
EXTAP	79	336	4
EXTAP	79	336	6
EXTAP	80	48	1
EXTAP	80	48	3
EXTAP	80	144	2
EXTAP	80	144	7
BXSTR	80	240	0
NMSCR	80	240	0	96	144	5
BXTAP	80	240	5
NMTAP	81	96	7
NMTAP	81	192	0
NMTAP	81	192	6
EXTAP	81	240	0
EXTAP	81	240	6
EXTAP	81	336	1
EXTAP	81	336	3
EXTAP	82	48	4
EXTAP	82	48	6
EXTAP	82	144	0
EXTAP	82	144	5
BXTAP	82	240	2
BXTAP	82	240	7
NMTAP	82	336	3
NMTAP	82	336	5
NMHLD	83	0	3	192
NMTAP	83	0	5
NMTAP	83	96	2
NMHLD	83	192	4	192
NMTAP	83	288	5
NMHLD	84	0	3	192
NMTAP	84	96	2
NMTAP	84	192	0
BRTAP	84	240	0
NMTAP	84	336	6
NMTAP	85	0	5
NMTAP	85	48	4
NMTAP	85	96	3
NMTAP	85	144	2
NMTAP	85	192	1
NMTAP	85	240	0
NMTAP	85	288	7
NMTAP	85	336	6
NMTAP	86	0	5
NMTAP	86	48	4
NMTAP	86	96	3
NMTAP	86	144	2
NMTAP	86	192	1
EXTAP	86	240	0
EXTAP	86	240	5
NMTAP	86	336	2
NMTAP	86	336	3
NMTAP	87	0	2
NMTAP	87	0	3
NMTAP	87	96	4
NMTAP	87	96	6
NMTAP	87	192	0
NMTAP	87	192	5
EXSTR	87	240	0
BRSCR	87	240	0	96	240	7
EXHLD	87	240	5	336
BXTAP	88	240	0
BXTAP	88	240	5
NMTAP	88	336	1
NMHLD	89	0	1	96
NMHLD	89	96	2	96
NMHLD	89	192	3	96
NMHLD	89	288	4	96
NMHLD	90	0	5	96
NMTAP	90	96	6
BXTAP	90	192	0
BXTAP	90	192	6
BXTAP	90	240	0
BXTAP	90	240	6
NMTAP	90	336	6
NMHLD	91	0	6	96
NMHLD	91	96	5	96
NMHLD	91	192	4	96
NMHLD	91	288	3	96
NMHLD	92	0	2	96
BXTAP	92	96	1
BXTAP	92	144	1
BXTAP	92	192	1
BXTAP	92	240	0
BXTAP	92	240	7
NMTAP	92	336	6
NMSTR	93	0	6
NMSI_	93	0	6	96	48	0
NMSTR	93	96	2
NMSI_	93	96	2	96	48	4
NMSTR	93	192	6
NMSI_	93	192	6	96	48	0
NMSTR	93	288	2
NMSI_	93	288	2	96	48	4
NMSTR	94	0	6
NMSI_	94	0	6	96	48	0
NMTAP	94	96	2
BXTAP	94	192	0
BXTAP	94	192	4
BXTAP	94	240	0
BXTAP	94	240	4
NMTAP	94	336	1
NMSTR	95	0	1
NMSI_	95	0	1	96	48	4
NMSTR	95	96	5
NMSI_	95	96	5	96	48	0
NMSTR	95	192	1
NMSI_	95	192	1	96	48	4
NMSTR	95	288	5
NMSI_	95	288	5	96	48	0
NMSTR	96	0	1
NMSI_	96	0	1	96	48	4
NMTAP	96	96	5
BXTAP	96	192	3
BXTAP	96	192	7
BXTAP	96	240	3
BXTAP	96	240	7
NMTAP	96	336	6
NMTAP	97	0	5
NMTAP	97	48	4
NMTAP	97	96	3
NMTAP	97	144	2
NMTAP	97	192	1
BRTAP	97	240	0
BRTAP	97	240	5
NMTAP	97	336	1
NMTAP	98	0	2
NMTAP	98	48	3
NMTAP	98	96	4
NMTAP	98	144	5
NMTAP	98	192	6
BRTAP	98	240	2
BRTAP	98	240	7
NMTAP	98	336	0
NMTAP	98	336	1
NMTAP	99	0	0
NMSTR	99	0	1
NMSI_	99	0	1	96	48	4
NMSTR	99	96	6
NMSI_	99	96	6	96	48	3
NMSTR	99	192	0
NMSCR	99	192	0	96	144	5
NMHLD	99	288	7	192
EXTAP	100	96	6
NMTAP	100	192	0
NMTAP	100	192	5
NMTAP	100	240	0
NMTAP	100	240	5
NMTAP	100	336	2
NMTAP	100	336	3
NMTAP	101	0	2
NMTAP	101	0	3
NMTAP	101	96	4
NMSTR	101	96	6
NMSI_	101	96	6	96	48	2
NMSTR	101	192	1
NMSI_	101	192	1	96	48	5
NMSTR	101	288	7
NMSI_	101	288	7	96	48	3
EXTAP	102	0	0
EXTAP	102	96	1
EXTAP	102	96	4
EXTAP	102	168	3
EXTAP	102	168	6
EXTAP	102	240	0
EXTAP	102	240	4
BRHLD	103	0	1	672
BRSTR	103	0	7
NMSCL	103	0	7	96	384	0
NMTHO	104	288	0	576	C	0	M1
NMSTR	106	96	0
BRSF_	106	96	0	96	48	4

T_REC_TAP	278
T_REC_BRK	16
T_REC_XTP	65
T_REC_BXX	44
T_REC_HLD	37
T_REC_XHO	9
T_REC_BHO	1
T_REC_BXH	5
T_REC_STR	40
T_REC_BST	2
T_REC_XST	12
T_REC_XBS	14
T_REC_TTP	61
T_REC_THO	1
T_REC_SLD	66
T_REC_BSL	3
T_REC_ALL	654
T_NUM_TAP	456
T_NUM_BRK	85
T_NUM_HLD	47
T_NUM_SLD	66
T_NUM_ALL	654
T_JUDGE_TAP	532
T_JUDGE_HLD	225
T_JUDGE_SLD	69
T_JUDGE_ALL	826
TTM_EACHPAIRS	127
TTM_SCR_TAP	228000
TTM_SCR_BRK	221000
TTM_SCR_HLD	47000
TTM_SCR_SLD	99000
TTM_SCR_ALL	595000
TTM_SCR_S	568950
TTM_SCR_SS	586500
TTM_RAT_ACV	10144

