VERSION	0.00.00	1.04.00
FES_MODE	0
BPM_DEF	190.000	190.000	190.000	190.000
MET_DEF	4	4
RESOLUTION	384
CLK_DEF	384
COMPATIBLE_CODE	MA2

BPM	0	0	190.000
MET	0	0	4	4
MET	9	0	4	4
MET	10	0	4	3
MET	10	288	4	4
MET	11	288	4	6
MET	13	96	4	4
MET	16	96	4	2
MET	16	288	4	4

NMHLD	4	0	3	360
NMHLD	4	0	4	360
NMTAP	6	0	2
NMTAP	6	96	2
NMTAP	6	192	2
NMTAP	6	192	3
NMTAP	7	0	5
NMTAP	7	96	5
NMTAP	7	192	4
NMTAP	7	192	5
NMTAP	8	0	3
NMTAP	8	0	4
NMTAP	8	96	3
NMTAP	8	96	4
BRTAP	8	192	3
BRTAP	8	192	4
NMHLD	9	0	2	192
NMHLD	9	192	3	192
NMTAP	10	0	4
EXTAP	10	192	5
EXHLD	10	288	5	192
NMHLD	11	96	4	192
NMHLD	11	288	3	192
NMTAP	12	96	2
EXTAP	12	288	1
EXTAP	13	0	1
EXHLD	13	96	1	192
NMHLD	13	288	0	192
NMTAP	14	96	7
NMTAP	14	288	6
NMTAP	15	0	6
EXHLD	15	96	4	240
EXHLD	15	96	5	240
BXTAP	16	144	4
BXTAP	16	144	5
EXHLD	16	288	2	240
EXHLD	16	288	3	240
BXTAP	17	336	2
BXTAP	17	336	3
NMSTR	18	288	1
NMSI_	18	288	1	96	192	4
NMSTR	19	288	6
NMSI_	19	288	6	96	192	3
NMSTR	20	288	1
NMSI_	20	288	1	96	192	5
NMHLD	21	288	6	192
NMTAP	22	96	7
NMSTR	22	288	6
NMSI_	22	288	6	96	192	3
NMSTR	23	288	1
NMSI_	23	288	1	96	192	4
NMSTR	24	288	6
NMSI_	24	288	6	96	192	2
NMHLD	25	288	1	192
NMTAP	26	96	0
NMTAP	26	288	6
NMTAP	26	288	7
NMTAP	27	96	6
NMTAP	27	96	7
NMTAP	27	288	4
NMTAP	27	288	5
NMTAP	28	96	4
NMTAP	28	96	5
NMTAP	28	288	2
NMTAP	28	288	3
NMTAP	29	96	2
NMTAP	29	96	3
NMTAP	29	288	0
NMTAP	29	288	1
NMTAP	30	96	0
NMTAP	30	96	1
NMTAP	30	288	7
NMTAP	31	0	7
NMTAP	31	96	7
EXTAP	31	192	0
EXTAP	31	240	0
EXTAP	32	48	0
EXTAP	32	48	1
EXTAP	32	240	2
EXTAP	32	240	3
EXTAP	33	48	4
EXTAP	33	48	5
EXTAP	33	240	6
EXTAP	33	240	7
BXTAP	34	48	0
BXTAP	34	48	7
NMTAP	34	288	1
NMTAP	35	0	1
NMTAP	35	96	2
NMTAP	35	192	2
NMTAP	35	288	3
NMTAP	36	0	3
NMTAP	36	96	4
NMTAP	36	96	5
NMTAP	36	288	6
NMTAP	37	0	6
NMTAP	37	96	5
NMTAP	37	192	5
NMTAP	37	288	4
NMTAP	38	0	4
NMTAP	38	96	2
NMTAP	38	96	3
NMTAP	38	288	2
NMTAP	39	0	2
NMTAP	39	96	1
NMTAP	39	192	1
NMTAP	39	288	0
NMTAP	40	0	0
NMTAP	40	96	6
NMTAP	40	96	7
NMTAP	40	288	5
NMTAP	41	0	5
NMTAP	41	96	6
NMTAP	41	192	6
NMTAP	41	288	7
NMTAP	42	0	7
NMTAP	42	96	0
NMTAP	42	96	7
NMTTP	42	288	0	B	0	L1
NMTTP	43	0	1	B	0	L1
NMTTP	43	96	2	B	0	L1
NMTTP	43	192	3	B	0	L1
NMTTP	43	288	4	B	0	L1
NMTTP	44	0	5	B	0	L1
NMTTP	44	96	0	C	0	L1
NMTTP	44	288	7	B	0	L1
NMTTP	45	0	6	B	0	L1
NMTTP	45	96	5	B	0	L1
NMTTP	45	192	4	B	0	L1
NMTTP	45	288	3	B	0	L1
NMTTP	46	0	2	B	0	L1
NMTTP	46	96	0	C	0	L1
NMSTR	46	288	0
NMSI_	46	288	0	96	192	5
NMSTR	46	288	1
NMSI_	46	288	1	96	192	4
NMSTR	47	288	6
NMSI_	47	288	6	96	192	3
NMSTR	47	288	7
NMSI_	47	288	7	96	192	2
EXHLD	48	288	0	144
EXHLD	48	288	1	144
EXHLD	49	240	2	192
EXHLD	49	240	3	192
EXHLD	50	240	4	192
EXHLD	50	240	5	192
EXHLD	51	240	6	192
EXHLD	51	240	7	192
NMTAP	52	288	0
NMTAP	52	288	1
NMTAP	52	336	0
NMTAP	52	336	1
NMSTR	53	96	0
NMSCL	53	96	0	96	288	5
NMSTR	53	96	1
NMSCR	53	96	1	96	288	4
NMTAP	54	288	6
NMTAP	54	288	7
NMTAP	54	336	6
NMTAP	54	336	7
NMSTR	55	96	6
NMSCL	55	96	6	96	288	3
NMSTR	55	96	7
NMSCR	55	96	7	96	288	2
NMTAP	56	288	1
NMTAP	57	0	2
NMTAP	57	96	3
NMTAP	57	192	4
NMTAP	57	288	5
NMTAP	58	0	6
NMTAP	58	96	0
NMTAP	58	96	7
NMTAP	58	288	6
NMTAP	59	0	5
NMTAP	59	96	4
NMTAP	59	192	3
NMTAP	59	288	2
NMTAP	60	0	1
NMTAP	60	96	0
NMTAP	60	96	7
NMTAP	60	288	6
NMTAP	60	288	7
NMTAP	60	336	6
NMTAP	60	336	7
NMSTR	61	96	6
NMSCL	61	96	6	96	288	3
NMSTR	61	96	7
NMSCR	61	96	7	96	288	2
NMTAP	62	288	0
NMTAP	62	288	1
NMTAP	62	336	0
NMTAP	62	336	1
NMSTR	63	96	0
NMSCL	63	96	0	96	288	5
NMSTR	63	96	1
NMSCR	63	96	1	96	288	4
EXHLD	64	288	3	144
EXHLD	64	288	4	144
EXHLD	65	192	3	288
EXHLD	65	192	5	288
EXHLD	66	240	2	240
EXHLD	66	240	4	240
NMTHO	67	240	0	1152	C	1	L1
BRTAP	71	288	0
NMTAP	72	288	0
NMTAP	72	288	1
NMTAP	73	0	0
NMTAP	73	0	1
NMTAP	73	96	2
NMTAP	73	192	3
NMTAP	73	288	4
NMTAP	74	0	5
NMTAP	74	96	4
NMTAP	74	96	5
NMTAP	74	288	6
NMTAP	74	288	7
NMTAP	75	0	6
NMTAP	75	0	7
NMTAP	75	96	5
NMTAP	75	192	4
NMTAP	75	288	3
NMTAP	76	0	2
NMTAP	76	96	2
NMTAP	76	96	3
NMTAP	76	288	0
NMTAP	76	288	1
NMTAP	77	0	0
NMTAP	77	0	1
NMTAP	77	96	2
NMTAP	77	192	3
NMTAP	77	288	4
NMTAP	78	0	5
NMTAP	78	96	4
NMTAP	78	96	5
NMHLD	78	288	6	192
NMHLD	78	288	7	192
BRTAP	79	240	4
BRTAP	79	240	5
BRTAP	79	336	4
BRTAP	79	336	5
BRTAP	80	48	2
BRTAP	80	48	3
BRTAP	80	144	2
BRTAP	80	144	3
NMHLD	80	240	0	240
NMHLD	80	240	1	240
BRTAP	81	240	2
BRTAP	81	240	3
BRTAP	81	336	2
BRTAP	81	336	3
BRTAP	82	48	4
BRTAP	82	48	5
BRTAP	82	144	4
BRTAP	82	144	5
NMHLD	82	240	6	240
NMHLD	82	240	7	240
NMHLD	83	288	0	192
NMHLD	83	288	7	192
NMTAP	84	288	1
NMTAP	84	336	1
NMTAP	85	0	1
NMTAP	85	96	2
NMTAP	85	144	2
NMTAP	85	192	2
NMTAP	85	288	3
NMTAP	85	336	3
NMTAP	86	0	3
NMTAP	86	96	4
NMTAP	86	96	5
NMTAP	86	288	6
NMTAP	86	336	6
NMTAP	87	0	6
NMTAP	87	96	5
NMTAP	87	144	5
NMTAP	87	192	5
NMTAP	87	288	4
NMTAP	87	336	4
NMTAP	88	0	4
BRTAP	88	96	2
BRTAP	88	96	3
NMTAP	88	288	1
NMTAP	89	0	1
NMTAP	89	96	0
NMTAP	89	96	1
NMTAP	89	192	0
NMTAP	89	192	1
NMTAP	89	288	2
NMTAP	90	0	2
NMTAP	90	96	3
NMTAP	90	96	4
NMTAP	90	192	3
NMTAP	90	192	4
NMTAP	90	288	5
NMTAP	91	0	5
NMTAP	91	96	6
NMTAP	91	96	7
NMTAP	91	192	6
NMTAP	91	192	7
NMTAP	91	288	4
NMTAP	91	288	5
NMTAP	92	0	4
NMTAP	92	0	5
NMTAP	92	96	3
NMTAP	92	96	6
NMTAP	92	288	6
NMTAP	93	0	6
NMTAP	93	96	6
NMTAP	93	96	7
NMTAP	93	192	6
NMTAP	93	192	7
NMTAP	93	288	5
NMTAP	94	0	5
NMTAP	94	96	3
NMTAP	94	96	4
NMTAP	94	192	3
NMTAP	94	192	4
NMTAP	94	288	2
NMTAP	95	0	2
NMTAP	95	96	0
NMTAP	95	96	1
NMTAP	95	192	0
NMTAP	95	192	1
NMTAP	95	288	2
NMTAP	95	288	3
NMTAP	96	0	2
NMTAP	96	0	3
NMTAP	96	96	1
NMTAP	96	96	4
NMTAP	96	288	0
NMTAP	96	336	0
NMTAP	97	0	0
NMTAP	97	96	1
NMTAP	97	144	1
NMTAP	97	192	1
NMTAP	97	288	2
NMTAP	97	336	2
NMTAP	98	0	2
NMTAP	98	96	3
NMTAP	98	144	3
NMTAP	98	192	3
NMTAP	98	288	4
NMTAP	98	336	4
NMTAP	99	0	4
NMTAP	99	96	5
NMTAP	99	144	5
NMTAP	99	192	5
NMTAP	99	288	6
NMTAP	99	336	6
NMTAP	100	0	6
NMTAP	100	96	7
NMTAP	100	144	7
NMTAP	100	192	7
NMTAP	100	288	0
NMTAP	100	288	7
NMTAP	101	0	1
NMTAP	101	0	6
NMTAP	101	96	2
NMTAP	101	96	5
NMHLD	101	192	3	192
NMHLD	101	192	4	192
EXTAP	102	96	3
EXTAP	102	96	4
EXTAP	102	168	3
EXTAP	102	168	4
EXTAP	102	240	3
EXTAP	102	240	4
EXHLD	103	0	2	1056
EXHLD	103	0	5	1056
BXTAP	106	96	3
BXTAP	106	96	4
BXTAP	106	168	3
BXTAP	106	168	4
BXTAP	106	240	3
BXTAP	106	240	4

T_REC_TAP	230
T_REC_BRK	21
T_REC_XTP	19
T_REC_BXX	12
T_REC_HLD	19
T_REC_XHO	22
T_REC_BHO	0
T_REC_BXH	0
T_REC_STR	18
T_REC_BST	0
T_REC_XST	0
T_REC_XBS	0
T_REC_TTP	14
T_REC_THO	1
T_REC_SLD	18
T_REC_BSL	0
T_REC_ALL	374
T_NUM_TAP	281
T_NUM_BRK	33
T_NUM_HLD	42
T_NUM_SLD	18
T_NUM_ALL	374
T_JUDGE_TAP	314
T_JUDGE_HLD	242
T_JUDGE_SLD	18
T_JUDGE_ALL	574
TTM_EACHPAIRS	102
TTM_SCR_TAP	140500
TTM_SCR_BRK	85800
TTM_SCR_HLD	42000
TTM_SCR_SLD	27000
TTM_SCR_ALL	295300
TTM_SCR_S	283250
TTM_SCR_SS	292000
TTM_RAT_ACV	10113

