VERSION	0.00.00	1.04.00
FES_MODE	0
BPM_DEF	190.000	190.000	190.000	190.000
MET_DEF	4	4
RESOLUTION	384
CLK_DEF	384
COMPATIBLE_CODE	MA2

BPM	0	0	190.000
MET	0	0	4	4

NMTAP	1	360	1
NMTAP	1	372	2
NMHLD	2	0	3	384
NMTAP	2	96	4
NMTAP	2	192	5
NMTAP	2	288	6
NMTAP	2	360	7
NMTAP	2	372	6
NMHLD	3	0	5	384
NMTAP	3	192	2
NMTAP	3	288	3
NMHLD	4	0	4	384
NMTAP	4	288	2
NMHLD	5	0	3	384
BRSTR	6	0	7
NMSI_	6	0	7	96	192	3
EXSTR	7	0	1
NMSI_	7	0	1	96	48	4
EXTAP	7	0	5
NMTAP	7	96	1
NMTAP	7	96	7
EXSTR	7	144	0
NMSI_	7	144	0	96	48	5
NMTAP	7	240	0
NMTAP	7	240	2
EXSTR	7	288	1
NMSI_	7	288	1	96	48	4
EXTAP	8	0	1
EXSTR	8	0	6
NMSI_	8	0	6	96	48	3
NMTAP	8	96	0
NMTAP	8	96	6
EXSTR	8	144	7
NMSI_	8	144	7	96	48	2
NMTAP	8	240	5
NMTAP	8	240	7
EXSTR	8	288	6
NMSI_	8	288	6	96	48	3
EXSTR	9	0	1
NMSCR	9	0	1	96	48	4
EXTAP	9	0	6
NMTAP	9	96	1
NMTAP	9	96	7
EXSTR	9	144	0
NMSCL	9	144	0	96	48	5
NMTAP	9	240	0
NMTAP	9	240	2
EXSTR	9	288	1
NMSCR	9	288	1	96	48	4
EXTAP	10	0	1
EXSTR	10	0	6
NMSCL	10	0	6	96	48	3
NMTAP	10	96	0
NMTAP	10	96	6
EXTAP	10	144	7
NMTAP	10	240	0
EXTAP	10	288	1
EXTAP	10	288	7
BRHLD	11	0	2	96
BRHLD	11	0	3	96
NMTAP	11	144	1
NMTAP	11	144	4
NMTAP	11	192	0
NMTAP	11	192	5
NMTAP	11	240	6
NMTAP	11	256	7
NMTAP	11	272	6
NMTAP	11	288	7
NMTAP	11	336	5
NMHLD	12	0	4	96
NMHLD	12	0	5	96
NMTAP	12	144	7
NMTAP	12	168	6
NMSTR	12	192	5
NMSI_	12	192	5	96	48	2
NMTAP	12	288	2
NMHLD	13	0	0	96
NMHLD	13	0	1	96
NMTAP	13	144	2
NMTAP	13	144	7
NMTAP	13	192	3
NMTAP	13	192	6
NMTAP	13	240	5
NMTAP	13	256	4
NMTAP	13	272	5
NMTAP	13	288	4
NMTAP	13	336	3
NMHLD	14	0	2	96
NMTAP	14	48	3
NMHLD	14	96	4	96
NMTAP	14	144	3
NMTAP	14	192	2
NMTAP	14	240	0
NMTAP	14	256	7
NMTAP	14	272	0
NMTAP	14	288	7
NMTAP	14	336	6
BRHLD	15	0	6	96
BRHLD	15	0	7	96
NMTAP	15	144	0
NMTAP	15	144	5
NMTAP	15	192	1
NMTAP	15	192	4
NMTAP	15	240	2
NMTAP	15	256	3
NMTAP	15	272	2
NMTAP	15	288	3
NMTAP	15	336	4
NMHLD	16	0	4	96
NMHLD	16	0	5	96
NMTAP	16	144	7
NMTAP	16	168	6
NMSTR	16	192	5
NMSI_	16	192	5	96	48	2
NMTAP	16	288	2
NMHLD	17	0	0	96
NMHLD	17	0	1	96
NMTAP	17	144	2
NMTAP	17	192	3
NMTAP	17	240	4
NMTAP	17	288	2
NMTAP	17	288	5
NMTAP	18	0	6
NMTAP	18	24	4
NMTAP	18	48	6
NMTAP	18	72	4
NMTAP	18	96	6
NMTAP	18	120	3
NMTAP	18	144	6
NMTAP	18	168	3
NMTAP	18	192	6
NMTAP	18	216	2
NMTAP	18	240	6
NMTAP	18	264	2
NMTAP	18	288	6
NMTAP	18	336	1
NMTAP	18	336	7
BRTAP	19	0	2
BRSTR	19	0	6
NMSCR	19	0	6	96	192	2
NMSTR	19	192	2
NMSCR	19	192	2	96	192	6
NMSTR	20	0	6
NMSLR	20	0	6	96	192	2
NMSTR	20	192	2
NMSLR	20	192	2	96	192	6
NMSTR	21	0	6
NMSI_	21	0	6	96	96	2
NMHLD	21	96	7	48
NMHLD	21	192	0	48
NMSTR	21	288	1
NMSCR	21	288	1	96	192	5
NMHLD	22	0	0	48
NMHLD	22	96	7	48
NMTAP	22	192	6
NMSTR	23	0	1
NMSCL	23	0	1	96	192	5
NMSTR	23	192	5
NMSCL	23	192	5	96	192	1
NMSTR	24	0	1
NMSLL	24	0	1	96	192	5
NMSTR	24	192	5
NMSLL	24	192	5	96	192	1
NMSTR	25	0	1
NMSI_	25	0	1	96	96	5
NMHLD	25	96	0	48
NMHLD	25	192	7	48
NMSTR	25	288	6
NMSCL	25	288	6	96	192	2
NMTAP	26	0	0
NMTAP	26	48	1
NMSTR	26	96	2
NMSUR	26	96	2	96	96	6
NMTAP	26	144	1
NMSTR	26	192	0
NMSI_	26	192	0	96	48	3
EXTAP	27	0	4
EXTAP	27	0	5
NMTAP	27	96	6
NMTAP	27	96	7
NMTAP	27	192	2
NMTAP	27	192	3
NMTAP	27	240	2
NMTAP	27	288	0
NMTAP	27	288	1
NMTAP	28	0	4
NMTAP	28	0	5
NMTAP	28	96	6
NMTAP	28	96	7
NMTAP	28	192	2
NMTAP	28	192	3
NMTAP	28	240	2
NMTAP	28	288	0
NMTAP	28	288	1
NMTAP	28	336	1
NMTAP	29	0	0
NMTAP	29	0	7
NMTAP	29	96	5
NMTAP	29	96	6
NMTAP	29	192	3
NMTAP	29	192	4
NMTAP	29	288	1
NMTAP	29	288	2
NMHLD	30	0	0	48
NMHLD	30	48	7	48
NMHLD	30	96	6	48
NMHLD	30	144	5	48
NMHLD	30	192	4	48
NMHLD	30	240	3	48
NMHLD	30	288	2	48
NMHLD	30	336	1	48
NMSTR	31	0	0
NMSI_	31	0	0	96	48	5
NMTAP	31	96	0
NMTAP	31	96	7
NMSTR	31	192	4
NMSI_	31	192	4	96	48	1
NMTAP	31	192	6
NMTAP	31	288	3
NMTAP	31	288	4
NMSTR	32	0	0
NMSV_	32	0	0	96	48	5
NMTAP	32	0	2
NMTAP	32	96	0
NMTAP	32	96	7
NMSTR	32	192	4
NMSV_	32	192	4	96	48	1
NMTAP	32	192	6
NMTAP	32	288	3
NMTAP	32	288	4
NMSTR	33	0	0
NMSI_	33	0	0	96	48	4
NMTAP	33	48	7
NMTAP	33	96	6
NMTAP	33	144	5
EXTAP	33	192	3
EXTAP	33	192	4
NMTAP	33	240	2
NMTAP	33	288	1
NMHLD	33	336	0	48
NMHLD	33	336	3	48
NMTAP	34	48	1
NMTAP	34	48	4
NMTAP	34	96	2
NMTAP	34	96	5
NMTAP	34	144	3
NMTAP	34	144	6
BRSTR	34	192	4
NMSI_	34	192	4	96	48	0
BRSTR	34	192	7
NMSI_	34	192	7	96	48	3
EXTAP	35	0	1
EXHLD	35	0	5	960
NMTTP	35	336	2	E	0	M1
NMTTP	35	360	3	E	0	M1
NMTTP	36	0	4	E	0	M1
NMTTP	36	144	1	E	0	M1
NMTTP	36	168	0	E	0	M1
NMTTP	36	192	7	E	0	M1
NMTTP	36	336	2	E	0	M1
NMTTP	36	360	3	E	0	M1
NMTTP	37	0	4	E	0	M1
NMSTR	37	192	6
NMSCR	37	192	6	96	288	1
NMSTR	38	0	5
NMSUR	38	0	5	96	96	2
EXHLD	39	0	2	768
EXTAP	39	0	6
NMTTP	39	144	7	E	0	M1
NMTTP	39	168	0	E	0	M1
NMTTP	39	192	1	E	0	M1
NMTTP	39	336	6	E	0	M1
NMTTP	39	360	5	E	0	M1
NMTTP	40	0	4	E	0	M1
NMTTP	40	144	7	E	0	M1
NMTTP	40	168	0	E	0	M1
NMTTP	40	192	1	E	0	M1
NMHLD	41	0	3	240
NMTAP	41	144	1
NMTAP	41	168	0
NMTAP	41	192	7
NMTAP	41	216	6
NMTAP	41	240	5
NMTAP	41	264	4
NMTAP	41	288	3
NMTAP	41	312	2
NMTAP	41	336	1
NMTAP	41	360	0
EXTAP	42	0	4
EXHLD	42	0	7	288
NMSTR	42	192	6
NMSI_	42	192	6	96	48	2
EXSTR	43	0	0
NMSI_	43	0	0	96	48	4
EXTAP	43	0	4
NMTAP	43	96	6
NMTAP	43	192	3
NMSTR	43	192	7
NMSI_	43	192	7	96	48	3
NMTAP	43	288	1
NMSTR	44	0	0
NMSUR	44	0	0	96	48	4
NMTAP	44	0	4
NMTAP	44	96	6
NMTAP	44	192	3
NMSTR	44	192	7
NMSUL	44	192	7	96	48	3
NMTAP	44	288	1
NMTAP	44	336	0
EXSTR	45	0	1
NMSI_	45	0	1	96	48	5
EXTAP	45	0	5
NMTAP	45	96	7
NMTAP	45	192	2
NMSTR	45	192	6
NMSI_	45	192	6	96	48	2
NMTAP	45	288	0
NMSTR	46	0	1
NMSUR	46	0	1	96	48	5
NMTAP	46	0	5
NMTAP	46	96	7
NMTAP	46	192	2
NMTAP	46	192	6
NMTAP	46	288	4
NMTAP	46	288	5
NMTAP	46	336	3
EXTAP	47	0	2
EXSTR	47	0	4
NMSI_	47	0	4	96	96	1
NMSTR	47	96	1
NMSI_	47	96	1	96	96	6
NMSTR	47	192	6
NMSI_	47	192	6	96	96	3
NMSTR	47	288	3
NMSI_	47	288	3	96	96	0
EXSTR	48	0	0
NMSCL	48	0	0	96	96	5
NMSTR	48	96	5
NMSCL	48	96	5	96	96	2
NMSTR	48	192	2
NMSCL	48	192	2	96	96	7
NMSTR	48	288	7
NMSCL	48	288	7	96	96	4
NMTAP	49	0	4
NMTAP	49	48	3
NMTAP	49	96	2
NMTAP	49	144	1
BRTAP	49	192	0
BRTAP	49	192	4
BRTAP	49	240	1
BRTAP	49	240	5
BRTAP	49	288	2
BRTAP	49	288	6
BRTAP	49	336	3
BRTAP	49	336	7
BRSTR	50	0	0
NMSLL	50	0	0	96	192	4
BRSTR	50	0	4
NMSLL	50	0	4	96	192	0
NMSTR	51	0	3
NMSCL	51	0	3	96	48	0
NMTAP	51	0	4
NMTAP	51	96	3
NMSTR	51	96	5
NMSI_	51	96	5	96	48	1
NMTAP	51	192	5
NMSTR	51	192	7
NMSCR	51	192	7	96	48	2
NMSTR	51	288	3
NMSI_	51	288	3	96	48	0
NMSI_	51	288	3	96	48	6
NMTAP	51	288	7
NMTAP	52	0	3
EXTAP	52	96	6
EXTAP	52	96	7
NMTAP	52	144	5
NMTAP	52	192	3
NMTAP	52	192	4
NMTAP	52	240	2
NMTAP	52	288	0
NMTAP	52	288	1
NMTAP	52	336	7
NMSTR	53	0	0
NMSCR	53	0	0	96	48	3
NMTAP	53	0	6
NMTAP	53	96	0
NMSTR	53	96	6
NMSI_	53	96	6	96	48	2
NMSTR	53	192	4
NMSCL	53	192	4	96	48	1
NMTAP	53	192	6
NMSTR	53	288	0
NMSI_	53	288	0	96	48	3
NMSI_	53	288	0	96	48	5
NMTAP	53	288	4
NMTAP	54	0	0
EXTAP	54	96	4
EXTAP	54	96	5
NMTAP	54	144	6
NMTAP	54	192	0
NMTAP	54	192	7
NMTAP	54	240	1
NMTAP	54	288	2
NMTAP	54	288	3
NMTAP	54	336	4
EXSTR	55	0	0
NMSCL	55	0	0	96	48	5
EXTAP	55	0	5
BRTAP	55	96	0
BRTAP	55	96	1
NMTAP	55	144	2
NMTAP	55	168	2
NMSTR	55	192	3
NMSI_	55	192	3	96	48	6
BRTAP	55	288	3
BRTAP	55	288	4
EXTAP	56	0	0
EXSTR	56	0	7
NMSCR	56	0	7	96	48	2
BRTAP	56	96	6
BRTAP	56	96	7
NMTAP	56	144	5
NMTAP	56	168	5
NMSTR	56	192	4
NMSI_	56	192	4	96	48	0
NMSI_	56	192	4	96	48	1
BRTAP	56	288	4
EXTAP	57	0	1
EXTAP	57	0	3
NMTAP	57	48	2
NMTAP	57	96	4
NMTAP	57	96	6
NMTAP	57	144	5
NMTAP	57	192	0
NMTAP	57	192	3
NMTAP	57	240	2
NMTAP	57	288	4
NMTAP	57	288	7
NMTAP	57	336	5
NMTAP	58	0	1
NMTAP	58	0	3
NMSTR	58	96	4
NMSXR	58	96	4	96	144	0
NMTAP	58	96	5
NMTAP	58	144	6
NMSTR	58	192	7
NMSI_	58	192	7	96	48	5
NMTAP	59	0	1
NMSTR	59	0	3
NMSI_	59	0	3	96	48	7
NMTAP	59	48	1
NMTAP	59	96	1
NMTAP	59	144	1
NMSTR	59	192	0
NMSI_	59	192	0	96	48	4
NMTAP	59	192	1
NMTAP	59	240	1
NMTAP	59	288	1
NMTAP	59	336	1
NMSTR	60	0	3
NMSI_	60	0	3	96	48	7
NMTAP	60	0	5
NMTAP	60	48	5
NMTAP	60	96	5
NMTAP	60	144	5
NMTAP	60	192	5
NMSTR	60	192	6
NMSI_	60	192	6	96	48	1
NMTAP	60	240	5
NMTAP	60	288	5
NMTAP	60	336	5
NMTAP	61	0	2
BRTAP	61	0	6
NMTAP	61	48	2
NMTAP	61	96	2
BRTAP	61	96	3
NMTAP	61	144	2
BRTAP	61	192	1
NMTAP	61	192	2
NMTAP	61	240	2
NMTAP	61	288	2
BRTAP	61	288	5
NMTAP	61	336	2
NMTAP	62	0	2
BRSTR	62	0	7
NMSI_	62	0	7	96	48	5
NMTAP	62	48	2
NMTAP	62	96	2
NMSTR	62	96	7
NMSI_	62	96	7	96	48	1
NMTAP	62	144	2
NMTAP	62	192	2
NMSTR	62	192	7
NMSI_	62	192	7	96	48	4
NMTAP	62	240	2
NMTAP	62	288	2
NMTAP	62	288	7
BXTAP	63	0	0
EXHLD	63	0	6	96
NMTAP	63	12	1
NMTAP	63	24	2
NMTAP	63	36	3
NMTAP	63	48	4
EXHLD	63	144	1	96
BXTAP	63	144	7
NMTAP	63	156	6
NMTAP	63	168	5
NMTAP	63	180	4
NMTAP	63	192	3
BXTAP	63	288	2
BXTAP	63	288	5
BXTAP	64	0	0
EXHLD	64	0	6	96
NMTAP	64	12	1
NMTAP	64	24	2
NMTAP	64	36	3
NMTAP	64	48	4
EXHLD	64	144	1	96
BXTAP	64	144	7
NMTAP	64	156	6
NMTAP	64	168	5
NMTAP	64	180	4
NMTAP	64	192	3
BXTAP	64	288	0
BXTAP	64	288	7
BRSTR	65	0	3
NMSXR	65	0	3	96	288	3
BRTAP	65	0	4
NMTAP	66	192	0
NMTAP	66	216	1
NMTAP	66	240	2
NMTAP	66	264	3
NMTAP	66	288	4
NMTAP	66	312	5
NMTAP	66	336	6
NMTAP	66	360	7
EXTAP	67	0	0
EXTAP	67	0	4
NMTAP	67	144	6
NMTAP	67	144	7
NMTAP	67	192	6
NMTAP	67	240	4
NMTAP	67	240	5
NMTAP	67	288	3
NMTAP	67	336	2
NMTAP	67	336	4
NMHLD	68	48	1	48
NMHLD	68	96	3	48
NMHLD	68	144	2	48
NMHLD	68	192	4	48
NMHLD	68	240	3	48
NMHLD	68	288	5	48
NMHLD	68	336	4	48
NMTAP	69	0	7
NMTAP	69	144	0
NMTAP	69	144	6
NMTAP	69	192	1
NMTAP	69	240	0
NMTAP	69	240	2
NMTAP	69	288	7
NMTAP	69	336	0
NMTAP	69	336	6
NMTTP	70	0	6	D	0	M1
NMTTP	70	24	5	A	0	M1
NMTTP	70	48	5	D	0	M1
NMTTP	70	72	4	A	0	M1
NMTTP	70	96	0	D	0	M1
NMTTP	70	120	0	A	0	M1
NMTTP	70	144	1	D	0	M1
NMTTP	70	168	1	A	0	M1
NMTAP	70	192	6
NMTAP	70	216	5
NMTAP	70	240	4
NMTAP	70	264	3
NMTAP	70	288	2
NMTAP	70	312	1
NMTAP	70	336	0
NMTAP	70	360	7
NMTAP	71	0	2
NMTAP	71	0	6
NMTAP	71	144	0
NMTAP	71	144	7
NMTAP	71	192	1
NMTAP	71	240	2
NMTAP	71	240	3
NMTAP	71	288	1
NMTAP	71	336	0
NMTAP	71	336	7
NMTAP	72	48	6
NMTAP	72	48	7
NMSTR	72	96	0
NMSI_	72	96	0	96	48	4
NMTAP	72	96	5
NMTAP	72	192	0
NMSTR	72	192	5
NMSI_	72	192	5	96	48	1
NMTAP	72	288	2
NMTAP	72	288	5
NMHLD	73	0	3	48
NMHLD	73	48	5	48
NMHLD	73	96	4	48
NMHLD	73	144	5	48
NMHLD	73	192	6	48
NMHLD	73	240	5	48
NMHLD	73	288	7	48
NMHLD	73	336	5	48
NMTAP	74	0	0
NMHLD	74	48	0	48
NMTAP	74	96	2
NMHLD	74	144	2	48
NMTAP	74	192	4
NMHLD	74	240	4	48
NMTAP	74	288	6
NMHLD	74	336	6	48
EXSTR	75	0	0
NMSCL	75	0	0	96	48	6
NMTAP	75	96	5
NMTAP	75	144	5
NMSTR	75	192	4
NMSI_	75	192	4	96	48	0
NMTAP	75	240	4
NMSTR	75	288	3
NMSI_	75	288	3	96	48	1
NMTAP	75	336	3
NMTAP	76	0	7
NMTAP	76	48	6
NMTAP	76	96	5
NMTAP	76	144	4
NMTAP	76	160	3
NMTAP	76	176	4
NMHLD	76	192	2	144
NMTAP	76	336	6
NMTAP	76	360	0
EXSTR	77	0	6
NMSV_	77	0	6	96	48	1
NMTAP	77	96	2
NMTAP	77	144	2
NMSTR	77	192	3
NMSI_	77	192	3	96	48	7
NMTAP	77	240	3
NMSTR	77	288	4
NMSI_	77	288	4	96	48	6
NMTAP	77	336	4
NMTAP	78	0	0
NMTAP	78	48	0
NMTAP	78	64	1
NMTAP	78	80	2
NMTAP	78	96	3
NMTAP	78	96	7
NMTAP	78	144	6
NMSTR	78	192	2
NMSI_	78	192	2	96	48	6
NMSTR	78	192	5
NMSI_	78	192	5	96	48	3
BXTAP	79	0	4
BXSTR	79	0	7
NMSCR	79	0	7	96	96	3
NMTAP	79	96	4
NMTAP	79	144	6
BXSTR	79	192	0
NMSCL	79	192	0	96	96	4
NMTAP	79	288	3
NMTAP	79	312	2
NMTAP	79	336	1
NMTAP	79	360	0
BXSTR	80	0	7
NMSCR	80	0	7	96	96	3
NMTAP	80	96	4
NMTAP	80	144	6
BXTAP	80	192	0
NMTAP	80	288	3
NMTAP	80	288	6
NMTAP	80	312	2
NMTAP	80	336	1
NMTAP	80	360	0
BXTAP	81	0	7
NMTAP	81	24	5
NMTAP	81	48	7
NMTAP	81	72	5
NMTAP	81	96	7
NMTAP	81	120	5
NMTAP	81	144	7
NMTAP	81	168	5
NMTAP	81	192	7
NMTAP	81	216	3
NMTAP	81	240	7
NMTAP	81	264	3
NMTAP	81	288	7
NMTAP	81	312	3
NMTAP	81	336	7
NMTAP	81	360	3
BXTAP	82	0	0
NMTAP	82	12	1
NMTAP	82	24	2
NMTAP	82	36	3
NMTAP	82	48	4
NMTAP	82	60	5
NMTAP	82	72	6
NMTAP	82	84	7
NMTAP	82	96	0
NMTAP	82	108	1
NMTAP	82	120	2
NMTAP	82	132	3
NMTAP	82	144	4
NMTAP	82	156	5
NMTAP	82	168	6
NMTAP	82	180	7
NMSTR	82	192	0
NMSI_	82	192	0	96	48	4
BXTAP	82	192	4
EXTAP	83	0	2
EXHLD	83	0	6	1344
NMHLD	85	0	7	1344
NMHLD	87	0	0	768
NMHLD	89	0	1	240
NMTAP	89	144	7
NMTAP	89	168	6
NMTAP	89	192	5
NMTAP	89	216	4
NMTAP	89	240	3
NMTAP	89	264	2
NMTAP	89	288	1
NMTAP	89	312	0
NMTAP	89	336	7
NMTAP	89	360	6
BXSTR	90	0	1
NMSCR	90	0	1	96	192	4
BXSTR	90	0	5
NMSCR	90	0	5	96	192	0
EXSTR	91	0	3
NMSI_	91	0	3	96	48	7
EXTAP	91	0	7
NMTAP	91	96	5
NMTAP	91	192	0
NMSTR	91	192	4
NMSI_	91	192	4	96	48	0
NMTAP	91	288	2
NMSTR	92	0	3
NMSUL	92	0	3	96	48	7
NMTAP	92	0	7
NMTAP	92	96	5
NMTAP	92	192	0
NMSTR	92	192	4
NMSUR	92	192	4	96	48	0
NMTAP	92	288	2
NMTAP	92	336	3
EXSTR	93	0	2
NMSI_	93	0	2	96	48	6
EXTAP	93	0	6
NMTAP	93	96	4
NMTAP	93	192	1
NMSTR	93	192	5
NMSI_	93	192	5	96	48	1
NMTAP	93	288	3
NMSTR	94	0	2
NMSUL	94	0	2	96	48	6
NMTAP	94	0	6
NMTAP	94	96	4
NMTAP	94	192	0
NMTAP	94	192	7
NMTAP	94	288	4
NMTAP	94	288	5
NMTAP	94	336	3
NMTAP	94	336	4
EXSTR	95	0	2
NMSI_	95	0	2	96	96	5
EXTAP	95	0	3
NMSTR	95	96	5
NMSI_	95	96	5	96	96	0
NMSTR	95	192	0
NMSI_	95	192	0	96	96	3
NMSTR	95	288	3
NMSI_	95	288	3	96	96	6
EXSTR	96	0	6
NMSCR	96	0	6	96	96	1
NMSTR	96	96	1
NMSCR	96	96	1	96	96	4
NMSTR	96	192	4
NMSCR	96	192	4	96	96	7
NMSTR	96	288	7
NMSCR	96	288	7	96	96	2
EXSTR	97	0	2
NMSUR	97	0	2	96	96	6
NMSTR	97	96	6
NMSUR	97	96	6	96	96	2
NMSTR	97	192	2
NMSLR	97	192	2	96	96	6
NMSTR	97	288	6
NMSLR	97	288	6	96	96	2
EXSTR	98	0	2
NMSCR	98	0	2	96	96	6
NMSTR	98	96	6
NMSCR	98	96	6	96	96	2
NMSTR	98	192	2
NMSI_	98	192	2	96	48	6
NMTAP	98	288	6
NMSTR	99	0	4
NMSI_	99	0	4	96	48	0
NMTAP	99	96	4
NMTAP	99	96	5
NMSTR	99	192	3
NMSI_	99	192	3	96	48	7
NMTAP	99	288	2
NMTAP	99	288	3
NMSTR	100	0	4
NMSI_	100	0	4	96	48	1
NMSTR	100	0	5
NMSI_	100	0	5	96	48	0
NMTAP	100	96	4
NMTAP	100	96	5
NMSTR	100	192	2
NMSI_	100	192	2	96	48	7
NMSTR	100	192	3
NMSI_	100	192	3	96	48	6
NMTAP	100	288	2
NMTAP	100	288	3
EXTAP	101	0	0
NMTAP	101	24	4
NMTAP	101	48	0
NMTAP	101	72	4
NMTAP	101	96	0
NMTAP	101	120	4
NMTAP	101	144	0
NMTAP	101	168	4
BRTAP	101	192	0
NMTAP	101	216	5
BRTAP	101	240	1
NMTAP	101	264	6
BRTAP	101	288	2
NMTAP	101	312	7
BRTAP	101	336	3
NMSTR	101	360	0
NMSLL	101	360	0	96	216	4
BRSTR	102	0	4
NMSLL	102	0	4	96	192	0
NMSTR	103	0	1
NMSI_	103	0	1	96	480	4
NMSTR	104	0	6
NMSI_	104	0	6	96	480	3
NMSTR	105	0	2
NMSI_	105	0	2	96	480	7
NMSTR	106	0	5
NMSI_	106	0	5	96	96	2
NMTAP	107	0	3
NMSTR	107	0	4
NMSI_	107	0	4	96	48	1
NMTAP	107	96	4
NMTTP	107	96	5	B	0	M1
NMTTP	107	96	6	B	0	M1
NMTTP	107	96	6	D	1	M1
NMSTR	107	192	0
NMSI_	107	192	0	96	72	5
NMTAP	107	192	7
NMTAP	107	288	0
NMTTP	107	288	1	B	0	M1
NMTTP	107	288	2	B	0	M1
NMTTP	107	288	2	D	1	M1
NMTAP	108	0	3
NMSTR	108	0	4
NMSI_	108	0	4	96	48	1
NMTAP	108	96	4
NMTTP	108	96	5	B	0	M1
NMTTP	108	96	6	B	0	M1
NMTTP	108	96	6	D	1	M1
NMSTR	108	192	0
NMSI_	108	192	0	96	48	5
NMTAP	108	192	7
NMTAP	108	288	0
NMTTP	108	288	1	B	0	M1
NMTTP	108	288	2	B	0	M1
NMTTP	108	288	2	D	1	M1
EXTAP	109	0	4
EXTAP	109	0	6
NMTAP	109	48	5
NMTAP	109	96	1
NMTAP	109	96	3
NMTAP	109	144	2
NMTAP	109	192	4
NMTAP	109	192	7
NMTAP	109	240	5
NMTAP	109	288	0
NMTAP	109	288	3
NMTAP	109	336	2
NMTAP	110	0	4
NMTAP	110	0	6
NMTAP	110	96	2
NMSTR	110	96	3
NMSXL	110	96	3	96	144	7
NMTAP	110	144	1
NMSTR	110	192	0
NMSI_	110	192	0	96	48	2
EXTAP	111	0	1
EXTAP	111	0	5
NMTAP	111	48	1
NMTAP	111	48	5
NMTAP	111	96	0
NMTAP	111	96	5
NMTAP	111	144	0
NMTAP	111	144	5
NMTAP	111	192	5
NMTAP	111	192	7
NMTAP	111	240	5
NMTAP	111	240	7
NMTAP	111	264	0
NMTAP	111	288	1
NMTAP	111	288	5
NMTAP	111	336	1
NMTAP	111	336	5
NMTAP	112	0	2
NMTAP	112	0	6
NMTAP	112	48	2
NMTAP	112	48	6
NMTAP	112	96	2
NMTAP	112	96	7
NMTAP	112	144	2
NMTAP	112	144	7
NMTAP	112	192	0
NMTAP	112	192	2
NMTAP	112	240	0
NMTAP	112	240	2
NMTAP	112	264	7
NMTAP	112	288	2
NMTAP	112	288	6
NMTAP	112	336	2
NMTAP	112	336	6
NMTAP	113	0	5
NMTAP	113	24	3
NMTAP	113	48	5
NMTAP	113	72	3
NMTAP	113	96	5
NMTAP	113	120	3
NMTAP	113	144	5
NMTAP	113	168	3
NMTAP	113	192	5
NMTAP	113	216	4
NMTAP	113	240	5
NMTAP	113	264	4
NMTAP	113	288	5
NMTAP	113	312	4
NMTAP	113	336	5
NMTAP	113	360	4
NMTAP	114	0	5
NMTAP	114	24	6
NMTAP	114	48	5
NMTAP	114	72	7
NMTAP	114	96	5
NMTAP	114	120	0
NMTAP	114	144	5
NMTAP	114	168	1
NMTAP	114	192	5
NMTAP	114	216	2
NMTAP	114	240	5
NMTAP	114	288	3
NMTAP	114	288	4
NMSTR	115	0	2
NMSI_	115	0	2	96	48	6
NMTAP	115	24	3
NMTAP	115	48	2
NMTAP	115	72	1
BRTAP	115	96	2
NMSTR	115	192	5
NMSI_	115	192	5	96	48	1
NMTAP	115	216	4
NMTAP	115	240	5
NMTAP	115	264	6
BRTAP	115	288	5
NMSTR	116	0	2
NMSI_	116	0	2	96	48	6
NMTAP	116	24	3
NMTAP	116	48	2
NMTAP	116	72	1
BRTAP	116	96	2
NMSTR	116	192	5
NMSI_	116	192	5	96	48	1
NMTAP	116	216	4
NMTAP	116	240	5
NMTAP	116	264	6
BRTAP	116	288	5
BRSTR	117	0	3
NMSLR	117	0	3	96	480	0
BRSTR	117	0	4
NMSLL	117	0	4	96	480	7
NMTAP	119	0	1
NMTAP	119	12	2
NMHLD	119	24	3	1416
NMTAP	121	0	6
NMTAP	121	12	5
NMHLD	121	24	4	744
NMTAP	123	0	1
NMTAP	123	12	0
NMSTR	123	24	7
NMSF_	123	24	7	96	744	3

T_REC_TAP	527
T_REC_BRK	29
T_REC_XTP	36
T_REC_BXX	13
T_REC_HLD	56
T_REC_XHO	8
T_REC_BHO	4
T_REC_BXH	0
T_REC_STR	99
T_REC_BST	11
T_REC_XST	24
T_REC_XBS	5
T_REC_TTP	38
T_REC_THO	0
T_REC_SLD	142
T_REC_BSL	0
T_REC_ALL	992
T_NUM_TAP	724
T_NUM_BRK	62
T_NUM_HLD	64
T_NUM_SLD	142
T_NUM_ALL	992
T_JUDGE_TAP	782
T_JUDGE_HLD	276
T_JUDGE_SLD	142
T_JUDGE_ALL	1200
TTM_EACHPAIRS	181
TTM_SCR_TAP	362000
TTM_SCR_BRK	161200
TTM_SCR_HLD	64000
TTM_SCR_SLD	213000
TTM_SCR_ALL	800200
TTM_SCR_S	770200
TTM_SCR_SS	794000
TTM_RAT_ACV	10078

