VERSION	0.00.00	1.04.00
FES_MODE	0
BPM_DEF	190.000	190.000	190.000	190.000
MET_DEF	4	4
RESOLUTION	384
CLK_DEF	384
COMPATIBLE_CODE	MA2

BPM	0	0	190.000
MET	0	0	4	4

NMHLD	2	0	1	384
NMHLD	3	0	3	384
NMHLD	4	0	4	384
NMHLD	5	0	6	384
NMTTP	6	0	0	E	0	M1
NMHLD	7	0	2	96
NMHLD	7	0	3	96
NMHLD	7	144	4	96
NMHLD	7	144	6	96
NMTAP	7	288	0
NMTAP	7	288	1
NMHLD	8	0	4	96
NMHLD	8	0	5	96
NMHLD	8	144	1	96
NMHLD	8	144	3	96
NMTAP	8	288	6
NMTAP	8	288	7
NMHLD	9	0	2	96
NMHLD	9	0	3	96
NMHLD	9	144	5	96
NMHLD	9	144	7	96
NMTAP	9	288	0
NMTAP	9	288	1
NMHLD	10	0	4	96
NMHLD	10	0	5	96
NMHLD	10	144	0	96
NMHLD	10	144	2	96
NMTAP	10	288	6
NMTAP	10	288	7
NMTAP	11	0	5
NMTAP	11	96	4
NMTAP	11	96	5
NMTAP	11	192	2
NMTAP	11	288	1
NMTAP	11	288	3
NMTAP	12	0	0
NMTAP	12	96	1
NMTAP	12	96	7
NMSTR	12	192	6
NMSCL	12	192	6	96	48	3
NMTAP	12	288	2
NMTAP	13	0	1
NMTAP	13	96	0
NMTAP	13	96	1
NMTAP	13	192	2
NMTAP	13	288	1
NMTAP	13	288	3
NMTAP	14	0	4
NMTAP	14	96	4
NMTAP	14	96	5
NMTAP	14	192	1
NMTAP	14	192	3
NMSTR	14	288	6
NMSCL	14	288	6	96	144	0
NMTAP	14	288	7
NMTAP	15	192	7
NMTAP	15	288	5
NMTAP	16	0	3
NMTAP	16	96	2
NMTAP	16	96	4
NMSTR	16	192	1
NMSCR	16	192	1	96	48	4
NMTAP	16	288	5
NMTAP	17	0	6
NMTAP	17	96	6
NMTAP	17	96	7
NMTAP	17	192	5
NMTAP	17	288	4
NMTAP	17	288	6
NMTAP	18	0	2
NMTAP	18	48	3
NMTAP	18	96	4
NMTAP	18	144	5
NMTAP	18	192	6
NMTAP	18	240	7
NMTAP	18	288	0
NMHLD	19	0	2	768
NMTAP	19	0	6
NMTTP	19	192	5	B	0	M1
NMTTP	19	192	6	E	0	M1
NMTTP	20	0	3	B	0	M1
NMTTP	20	0	4	E	0	M1
NMTTP	20	192	1	B	0	M1
NMTTP	20	192	2	E	0	M1
NMHLD	21	0	6	48
NMHLD	21	96	5	48
NMHLD	21	192	4	48
NMHLD	21	288	3	48
NMHLD	22	0	2	48
NMHLD	22	96	1	48
NMHLD	22	192	0	48
NMHLD	22	288	7	48
NMTAP	23	0	1
NMHLD	23	0	5	768
NMTTP	23	192	2	B	0	M1
NMTTP	23	192	2	E	0	M1
NMTTP	24	0	4	B	0	M1
NMTTP	24	0	4	E	0	M1
NMTTP	24	192	6	B	0	M1
NMTTP	24	192	6	E	0	M1
NMHLD	25	0	1	48
NMHLD	25	96	2	48
NMHLD	25	192	3	48
NMHLD	25	288	4	48
NMTAP	26	0	3
NMTAP	26	0	5
NMTTP	26	96	2	E	0	M1
NMTTP	26	144	1	E	0	M1
NMTTP	26	192	0	E	0	M1
NMTTP	26	240	7	E	0	M1
NMTTP	26	288	6	E	0	M1
NMTAP	27	0	3
NMTAP	27	96	3
NMSTR	27	192	3
NMSI_	27	192	3	96	48	7
NMSTR	28	0	5
NMSI_	28	0	5	96	48	3
NMSTR	28	192	1
NMSI_	28	192	1	96	48	5
NMTAP	29	0	7
NMTAP	29	96	0
NMTAP	29	96	1
NMTAP	29	192	2
NMTAP	29	192	7
NMTAP	29	288	3
NMSTR	29	288	6
NMSUL	29	288	6	96	192	3
NMTAP	30	192	2
NMTAP	30	288	4
NMTAP	31	0	6
NMTAP	31	0	7
EXTAP	31	96	2
EXTAP	31	96	4
NMTAP	31	192	0
NMTAP	31	192	1
EXTAP	31	288	3
EXTAP	31	288	5
NMTAP	32	0	0
NMTAP	32	0	6
EXTAP	32	96	2
EXTAP	32	96	3
NMTAP	32	192	1
NMTAP	32	192	7
EXTAP	32	288	4
EXTAP	32	288	5
NMTAP	33	0	0
NMTAP	33	0	7
NMHLD	33	96	1	96
NMHLD	33	192	3	96
NMTAP	33	288	2
NMTAP	33	336	2
NMTAP	34	48	5
NMTAP	34	96	5
NMTAP	34	144	4
NMSTR	34	192	6
BRSI_	34	192	6	96	48	2
NMHLD	35	0	1	384
NMHLD	36	0	2	384
NMSTR	37	0	3
NMSCL	37	0	3	96	192	0
NMHLD	38	0	7	384
NMHLD	39	0	6	384
NMHLD	40	0	5	384
NMSTR	41	0	4
NMSI_	41	0	4	96	192	0
NMHLD	42	0	0	288
NMHLD	42	0	7	288
NMSTR	43	0	3
NMSI_	43	0	3	96	48	1
NMSTR	43	0	4
NMSI_	43	0	4	96	48	6
NMTAP	43	192	0
NMTAP	43	192	7
NMTAP	43	288	1
NMTAP	44	0	2
NMTAP	44	0	3
NMTAP	44	96	6
NMTAP	44	192	4
NMTAP	44	192	5
NMTAP	44	288	1
NMTAP	45	0	0
NMTAP	45	0	2
NMTAP	45	96	1
NMTAP	45	96	7
NMTAP	45	192	0
NMTAP	45	192	6
NMSTR	45	288	4
NMSF_	45	288	4	96	192	0
NMTAP	45	288	5
NMTAP	46	288	2
NMTAP	46	288	6
EXTAP	47	0	1
EXTAP	47	0	7
NMTAP	47	96	4
NMTAP	47	96	5
NMTAP	47	192	1
NMTAP	47	192	3
NMTAP	47	288	7
EXTAP	48	0	0
EXTAP	48	0	6
NMTAP	48	96	2
NMTAP	48	96	3
NMTAP	48	192	4
NMTAP	48	192	6
NMTAP	48	288	0
EXTAP	49	0	1
EXTAP	49	0	7
NMTAP	49	96	2
NMTAP	49	96	6
NMTAP	49	192	5
NMTAP	49	240	4
NMTAP	49	288	3
NMTAP	49	336	2
BRTAP	50	0	1
BRTAP	50	0	6
NMTAP	50	96	3
NMTAP	50	96	4
NMTAP	50	192	0
NMTAP	50	192	1
NMSTR	50	288	6
NMSCL	50	288	6	96	96	3
NMTAP	50	288	7
NMSTR	51	0	3
NMSXL	51	0	3	96	192	1
NMTAP	52	0	0
NMTAP	52	0	7
NMSTR	52	96	6
NMSI_	52	96	6	96	48	4
NMSTR	52	192	0
NMSI_	52	192	0	96	48	2
NMSTR	52	288	7
NMSI_	52	288	7	96	48	3
NMTAP	53	0	0
NMHLD	53	96	1	96
NMHLD	53	192	3	96
NMHLD	53	288	4	96
NMHLD	54	0	6	96
NMTAP	54	96	7
NMTAP	54	192	0
NMTAP	54	192	1
NMTAP	54	288	3
NMTAP	54	288	4
NMTAP	55	0	0
NMTAP	55	0	7
NMTAP	55	48	1
EXTAP	55	96	2
EXTAP	55	96	3
NMTAP	55	192	0
NMTAP	55	192	7
NMTAP	55	240	6
EXTAP	55	288	4
EXTAP	55	288	5
NMTAP	56	0	6
NMTAP	56	0	7
NMTAP	56	48	0
EXTAP	56	96	1
EXTAP	56	96	3
NMTAP	56	192	0
NMTAP	56	192	1
NMTAP	56	240	7
EXTAP	56	288	4
EXTAP	56	288	6
NMTAP	57	0	0
NMTAP	57	0	7
NMTAP	57	96	2
NMTAP	57	144	3
NMTAP	57	192	1
NMTAP	57	240	5
NMTAP	57	288	4
NMTAP	57	336	6
NMSTR	58	0	0
NMSCR	58	0	0	96	48	3
NMSTR	58	0	7
NMSCL	58	0	7	96	48	4
BXTAP	58	192	1
BXTAP	58	192	6
NMTAP	58	288	3
NMTAP	58	288	4
NMSTR	59	0	0
NMSI_	59	0	0	96	48	4
NMTAP	59	96	5
NMTAP	59	192	7
NMTAP	59	288	1
NMTAP	59	288	3
NMSTR	60	0	7
NMSI_	60	0	7	96	48	3
NMTAP	60	96	2
NMTAP	60	192	0
NMTAP	60	288	4
NMTAP	60	288	6
NMHLD	61	0	0	96
NMHLD	61	96	2	96
NMHLD	61	192	4	96
NMSTR	61	288	6
NMSCL	61	288	6	96	192	1
NMTAP	62	288	0
NMTAP	62	288	7
EXTAP	63	0	2
NMTAP	63	48	2
NMTAP	63	96	3
EXTAP	63	144	1
NMTAP	63	192	1
NMTAP	63	240	7
EXTAP	63	288	0
EXTAP	63	288	6
EXTAP	64	0	5
NMTAP	64	48	5
NMTAP	64	96	4
EXTAP	64	144	6
NMTAP	64	192	6
NMTAP	64	240	0
EXTAP	64	288	1
EXTAP	64	288	7
BRSTR	65	0	2
NMSXR	65	0	2	96	288	3
BRSTR	65	0	6
NMSXR	65	0	6	96	288	7
NMTTP	66	192	4	E	0	M1
NMTTP	66	288	0	C	0	M1
NMTTP	67	0	0	E	1	M1
EXTAP	67	96	1
EXTAP	67	96	6
NMTAP	67	192	3
NMTAP	67	288	5
NMHLD	67	336	5	96
NMTAP	68	48	4
NMTAP	68	96	3
NMTAP	68	96	5
NMTAP	68	192	1
NMTAP	68	192	4
NMTAP	68	288	2
NMTAP	68	288	6
NMTAP	69	0	0
NMTAP	69	0	4
NMTAP	69	96	6
NMTAP	69	96	7
NMTAP	69	192	4
NMSTR	69	288	2
NMSXR	69	288	2	96	192	4
NMTAP	69	336	2
NMTAP	70	192	5
NMTAP	70	288	4
NMTAP	70	288	6
NMTAP	71	0	3
NMTAP	71	0	7
NMTAP	71	96	0
NMTAP	71	96	1
NMTAP	71	192	5
NMTAP	71	240	5
NMTAP	71	288	4
NMHLD	71	336	6	96
NMTAP	72	48	0
NMHLD	72	96	0	96
NMHLD	72	192	1	96
NMHLD	72	288	2	96
NMTAP	73	0	3
NMTAP	73	48	2
NMTAP	73	96	4
NMTAP	73	144	3
NMTAP	73	192	5
NMTAP	73	240	4
NMSTR	73	288	6
NMSXL	73	288	6	96	192	3
NMTAP	73	336	6
NMTAP	74	192	2
NMTAP	74	288	0
NMTAP	74	288	1
BRHLD	75	0	3	96
BRHLD	75	0	6	96
NMTAP	75	192	1
NMTAP	75	240	1
NMTAP	75	288	3
NMTAP	75	336	2
NMTAP	76	0	5
NMTAP	76	48	5
NMTAP	76	96	4
NMTAP	76	144	6
NMHLD	76	192	3	96
NMTAP	76	288	4
NMHLD	77	0	5	96
NMTAP	77	96	4
NMHLD	77	192	1	96
NMTAP	77	288	3
NMTAP	78	0	4
NMTAP	78	0	6
NMSTR	78	96	2
NMSCL	78	96	2	96	144	4
NMTAP	78	96	3
EXHLD	79	0	0	96
EXHLD	79	0	6	96
NMTAP	79	144	1
NMTAP	79	144	5
NMTAP	79	192	1
NMTAP	79	192	5
NMTAP	79	288	3
NMTAP	79	288	4
EXHLD	80	0	1	96
EXHLD	80	0	7	96
NMTAP	80	144	2
NMTAP	80	144	6
NMTAP	80	192	2
NMTAP	80	192	6
NMTAP	80	288	3
NMTAP	80	288	4
NMTAP	81	0	1
NMTAP	81	48	1
NMTAP	81	96	3
NMTAP	81	144	3
NMTAP	81	192	4
NMTAP	81	240	4
NMTAP	81	288	6
NMTAP	81	336	6
NMSTR	82	0	0
NMSI_	82	0	0	96	48	3
NMSTR	82	0	7
NMSI_	82	0	7	96	48	4
BRHLD	82	192	1	96
BRHLD	82	192	6	96
NMTTP	83	0	0	B	0	M1
NMTTP	83	0	0	C	1	M1
NMTTP	83	0	0	E	0	M1
NMTTP	83	0	4	B	0	M1
NMTTP	83	0	4	E	0	M1
NMTTP	83	336	1	E	0	M1
NMTTP	83	360	2	E	0	M1
NMTTP	84	0	3	E	0	M1
NMTTP	84	144	7	E	0	M1
NMTTP	84	168	6	E	0	M1
NMTTP	84	192	5	E	0	M1
NMTTP	84	336	0	E	0	M1
NMTTP	84	360	0	C	0	M1
NMTTP	85	0	4	E	0	M1
NMHLD	86	0	5	192
NMHLD	86	192	4	192
NMTAP	87	0	3
NMTTP	87	144	1	E	0	M1
NMTTP	87	168	2	E	0	M1
NMTTP	87	192	3	E	0	M1
NMTTP	87	336	7	E	0	M1
NMTTP	87	360	6	E	0	M1
NMTTP	88	0	5	E	0	M1
NMTTP	88	144	1	D	0	M1
NMTTP	88	168	2	D	0	M1
NMTTP	88	192	3	D	0	M1
NMTTP	88	336	7	D	0	M1
NMTTP	88	360	6	D	0	M1
NMTTP	89	0	5	D	0	M1
NMTHO	90	0	0	288	C	0	M1
EXTAP	91	0	0
EXTAP	91	0	7
NMTAP	91	96	1
NMTAP	91	96	6
NMHLD	91	192	5	96
NMTAP	91	288	4
NMHLD	92	0	2	96
NMTAP	92	96	3
NMHLD	92	192	4	96
NMTAP	92	288	3
NMTAP	93	0	4
NMTAP	93	0	5
NMTAP	93	96	6
NMTAP	93	96	7
NMTAP	93	192	0
NMTAP	93	192	1
NMSTR	93	288	2
NMSCL	93	288	2	96	144	5
NMSTR	93	288	3
NMSUL	93	288	3	96	144	4
NMTAP	94	288	0
NMTAP	94	288	7
NMTAP	95	0	1
NMTAP	95	96	0
NMTAP	95	96	1
NMTAP	95	192	2
NMTAP	95	288	1
NMTAP	95	288	3
NMTAP	96	0	2
NMTAP	96	48	2
NMTAP	96	96	3
NMTAP	96	192	4
NMTAP	96	288	3
NMTAP	96	288	5
NMTAP	97	0	6
NMTAP	97	96	6
NMTAP	97	96	7
NMTAP	97	192	5
NMTAP	97	288	4
NMTAP	97	288	6
NMTAP	98	0	5
NMTAP	98	48	5
NMTAP	98	96	4
NMTAP	98	192	3
NMTAP	98	288	2
NMTAP	98	288	4
NMSTR	99	0	1
NMSI_	99	0	1	96	48	3
NMTAP	99	96	6
NMSTR	99	192	7
NMSI_	99	192	7	96	48	5
NMTAP	99	288	1
NMSTR	100	0	0
NMSI_	100	0	0	96	48	4
NMTAP	100	96	5
NMTAP	100	192	6
NMTAP	100	192	7
NMTAP	100	288	0
NMTAP	100	288	1
NMTAP	101	0	2
NMTAP	101	48	2
NMTAP	101	96	0
NMTAP	101	144	0
NMTAP	101	192	7
NMTAP	101	240	7
NMTAP	101	288	5
NMTAP	101	336	5
BRTAP	102	0	1
BRTAP	102	0	6
NMHLD	103	0	2	384
NMTTP	103	192	3	D	0	M1
NMHLD	104	0	3	384
NMTTP	104	192	4	D	0	M1
NMHLD	105	0	4	384
NMTTP	105	192	4	D	0	M1
NMHLD	106	0	5	384
NMTTP	106	192	5	D	0	M1
NMSTR	107	0	4
BRSI_	107	0	4	96	48	0
NMSTR	107	192	3
BRSI_	107	192	3	96	48	7
NMSTR	108	0	4
BRSI_	108	0	4	96	48	0
NMSTR	108	0	5
BRSI_	108	0	5	96	48	7
NMSTR	108	192	2
BRSI_	108	192	2	96	48	0
NMSTR	108	192	3
BRSI_	108	192	3	96	48	7
NMTAP	109	0	4
NMTAP	109	48	3
NMTAP	109	96	6
NMTAP	109	144	4
NMTAP	109	192	5
NMTAP	109	240	1
NMTAP	109	288	3
NMTAP	109	336	2
NMSTR	110	0	0
BRSCR	110	0	0	96	48	3
NMSTR	110	0	7
BRSCL	110	0	7	96	48	4
NMTTP	110	192	0	C	1	M1
NMTTP	110	192	2	B	0	M1
NMTTP	110	192	2	E	0	M1
NMTTP	110	192	6	B	0	M1
NMTTP	110	192	6	E	0	M1
EXTAP	111	0	0
NMTAP	111	48	0
NMTAP	111	96	6
NMTAP	111	144	4
EXTAP	111	192	5
NMTAP	111	240	5
NMTAP	111	288	2
NMTAP	111	336	3
EXTAP	112	0	1
NMTAP	112	48	1
NMTAP	112	96	7
NMTAP	112	144	0
EXTAP	112	192	6
NMTAP	112	240	6
NMTAP	112	288	4
NMTAP	112	336	5
EXTAP	113	0	2
NMTAP	113	48	2
NMTAP	113	96	3
NMTAP	113	144	1
EXTAP	113	192	7
NMTAP	113	240	7
EXSTR	113	288	0
NMSCR	113	288	0	96	192	6
EXTAP	113	288	6
NMTAP	113	336	0
NMTAP	113	336	6
EXTAP	114	288	3
EXTAP	114	288	4
NMTAP	115	0	0
NMTAP	115	0	1
NMTAP	115	48	0
NMTAP	115	48	1
EXTAP	115	96	2
EXTAP	115	96	7
NMTAP	115	192	6
NMTAP	115	192	7
NMTAP	115	240	6
NMTAP	115	240	7
EXTAP	115	288	0
EXTAP	115	288	5
NMTAP	116	0	2
NMTAP	116	0	3
NMTAP	116	48	2
NMTAP	116	48	3
EXTAP	116	96	0
EXTAP	116	96	4
NMTAP	116	192	4
NMTAP	116	192	5
NMTAP	116	240	4
NMTAP	116	240	5
EXTAP	116	288	3
EXTAP	116	288	7
BRSTR	117	0	1
NMSXL	117	0	1	96	480	0
BRSTR	117	0	6
NMSXR	117	0	6	96	480	7
NMTTP	119	0	0	E	0	M1
NMTTP	119	0	0	D	0	M1
NMTTP	119	192	1	E	0	M1
NMTTP	119	192	1	D	0	M1
NMTTP	120	0	2	E	0	M1
NMTTP	120	0	2	D	0	M1
NMTTP	121	0	0	E	0	M1
NMTTP	121	0	0	D	0	M1
NMTTP	121	192	7	E	0	M1
NMTTP	121	192	7	D	0	M1
NMTTP	122	0	6	E	0	M1
NMTTP	122	0	6	D	0	M1
NMTAP	122	192	3
NMSTR	122	288	4
NMSCR	122	288	4	96	960	3

T_REC_TAP	333
T_REC_BRK	4
T_REC_XTP	51
T_REC_HLD	71
T_REC_XHO	4
T_REC_STR	42
T_REC_BST	4
T_REC_XST	1
T_REC_TTP	68
T_REC_THO	1
T_REC_SLD	47
T_REC_ALL	626
T_NUM_TAP	495
T_NUM_BRK	8
T_NUM_HLD	76
T_NUM_SLD	47
T_NUM_ALL	626
T_JUDGE_TAP	503
T_JUDGE_HLD	262
T_JUDGE_SLD	47
T_JUDGE_ALL	812
TTM_EACHPAIRS	139
TTM_SCR_TAP	247500
TTM_SCR_BRK	20800
TTM_SCR_HLD	76000
TTM_SCR_SLD	70500
TTM_SCR_ALL	414800
TTM_SCR_S	401600
TTM_SCR_SS	414000
TTM_RAT_ACV	10019

