VERSION	0.00.00	1.04.00
FES_MODE	0
BPM_DEF	190.000	190.000	190.000	190.000
MET_DEF	4	4
RESOLUTION	384
CLK_DEF	384
COMPATIBLE_CODE	MA2

BPM	0	0	190.000
MET	0	0	4	4

NMHLD	2	0	2	384
NMHLD	3	0	3	384
NMHLD	4	0	4	384
NMHLD	5	0	5	384
BRTAP	6	0	6
EXHLD	7	0	4	144
EXHLD	7	0	5	144
EXHLD	8	0	2	144
EXHLD	8	0	3	144
EXHLD	9	0	4	144
EXHLD	9	0	5	144
EXHLD	10	0	2	144
EXHLD	10	0	3	144
NMTAP	11	0	1
NMTAP	11	96	1
NMTAP	11	192	1
NMTAP	12	0	2
NMTAP	12	96	2
NMTAP	12	192	2
NMTAP	13	0	3
NMTAP	13	96	3
NMTAP	13	192	3
NMTAP	14	0	4
NMTAP	14	96	4
NMTAP	14	192	4
NMTAP	14	192	5
NMTAP	15	0	6
NMTAP	15	96	6
NMTAP	15	192	6
NMTAP	16	0	5
NMTAP	16	96	5
NMTAP	16	192	5
NMTAP	17	0	4
NMTAP	17	96	4
NMTAP	17	192	4
NMTAP	18	0	3
NMTAP	18	96	3
NMTAP	18	192	2
NMTAP	18	192	3
NMSTR	19	0	0
NMSI_	19	0	0	96	288	5
NMSTR	19	0	1
NMSI_	19	0	1	96	288	4
NMSTR	21	0	6
NMSI_	21	0	6	96	288	3
NMSTR	21	0	7
NMSI_	21	0	7	96	288	2
NMSTR	23	0	0
NMSI_	23	0	0	96	288	5
NMSTR	23	0	1
NMSI_	23	0	1	96	288	4
NMSTR	25	0	5
NMSCR	25	0	5	96	480	2
NMTAP	27	0	1
NMTAP	27	96	1
NMTAP	27	192	0
NMTAP	27	192	1
NMTAP	28	0	2
NMTAP	28	96	2
NMTAP	28	192	2
NMTAP	28	192	3
NMTAP	29	0	4
NMTAP	29	96	4
NMTAP	29	192	4
NMTAP	29	192	5
NMTAP	30	0	6
NMTAP	30	96	6
NMTAP	30	192	6
NMTAP	30	192	7
NMTAP	31	0	6
NMTAP	31	0	7
NMTAP	31	192	4
NMTAP	31	192	5
NMTAP	32	0	2
NMTAP	32	0	3
NMTAP	32	192	0
NMTAP	32	192	1
NMTAP	33	0	1
NMTAP	33	96	2
NMTAP	33	192	3
NMTAP	33	288	4
NMTAP	34	0	5
NMTAP	34	96	6
BRTAP	34	192	0
BRTAP	34	192	7
NMHLD	35	0	6	192
NMHLD	35	192	5	192
NMHLD	36	0	4	192
NMHLD	36	192	3	192
NMHLD	37	0	2	384
NMTAP	38	0	3
NMHLD	39	0	1	192
NMHLD	39	192	2	192
NMHLD	40	0	3	192
NMHLD	40	192	4	192
NMHLD	41	0	5	384
NMTAP	42	0	4
NMHLD	43	0	6	192
NMTAP	43	192	7
NMHLD	44	0	1	192
NMTAP	44	192	0
NMHLD	45	0	6	192
NMTAP	45	192	7
NMHLD	46	0	1	192
NMTAP	46	192	0
NMTAP	47	0	7
NMTAP	47	96	7
NMTAP	47	192	6
NMTAP	47	288	6
NMTAP	48	0	6
NMTAP	48	0	7
NMTAP	49	0	0
NMTAP	49	96	0
NMTAP	49	192	1
NMTAP	49	288	1
BRTAP	50	0	0
BRTAP	50	0	1
NMTAP	51	0	2
NMTAP	51	96	2
NMTAP	51	192	0
NMTAP	51	192	1
NMTAP	51	288	0
NMTAP	51	288	1
NMTAP	52	0	7
NMTAP	52	96	7
NMTAP	52	192	6
NMTAP	52	192	7
NMTAP	53	0	5
NMTAP	53	96	5
NMTAP	53	192	6
NMTAP	53	192	7
NMTAP	53	288	6
NMTAP	53	288	7
NMTAP	54	0	0
NMTAP	54	96	0
NMTAP	54	192	0
NMTAP	54	192	1
NMTAP	55	0	2
NMTAP	55	0	3
EXTAP	55	96	2
EXTAP	55	96	3
NMTAP	55	192	4
NMTAP	55	192	5
EXTAP	55	288	4
EXTAP	55	288	5
NMTAP	56	0	6
NMTAP	56	0	7
EXTAP	56	96	6
EXTAP	56	96	7
NMTAP	56	192	0
NMTAP	56	192	1
EXTAP	56	288	0
EXTAP	56	288	1
EXTAP	57	0	2
EXTAP	57	48	2
EXTAP	57	96	2
EXTAP	57	192	3
EXTAP	57	240	3
EXTAP	57	288	3
NMTAP	58	0	4
NMTAP	58	0	5
NMTAP	58	96	4
NMTAP	58	96	5
BRTAP	58	192	3
BRTAP	58	192	6
NMTAP	59	0	6
NMTAP	59	96	6
NMTAP	59	192	6
NMTAP	59	192	7
NMTAP	59	288	6
NMTAP	59	288	7
NMTAP	60	0	5
NMTAP	60	96	5
NMTAP	60	192	4
NMTAP	60	192	5
NMTAP	60	288	4
NMTAP	60	288	5
NMTAP	61	0	3
NMTAP	61	96	3
NMTAP	61	192	2
NMTAP	61	192	3
NMTAP	61	288	2
NMTAP	61	288	3
NMTAP	62	0	1
NMTAP	62	96	1
NMTAP	62	192	0
NMTAP	62	192	1
NMTAP	63	0	0
NMTAP	63	96	1
NMTAP	63	192	2
NMTAP	63	288	3
NMTAP	64	0	4
NMTAP	64	96	5
NMTAP	64	192	6
NMTAP	64	288	7
NMSTR	65	0	0
NMSI_	65	0	0	96	288	4
NMTTP	67	0	6	B	0	L1
NMTTP	67	96	5	B	0	L1
NMTTP	67	192	4	B	0	L1
NMTTP	68	0	1	B	0	L1
NMTTP	68	96	2	B	0	L1
NMTTP	68	192	3	B	0	L1
NMTTP	69	0	7	B	0	L1
NMTTP	69	96	6	B	0	L1
NMTTP	69	192	4	B	0	L1
NMTTP	69	192	5	B	0	L1
NMTTP	70	0	0	B	0	L1
NMTTP	70	96	1	B	0	L1
NMTTP	70	192	2	B	0	L1
NMTTP	70	192	3	B	0	L1
NMTTP	71	0	6	B	0	L1
NMTTP	71	96	5	B	0	L1
NMTTP	71	192	4	B	0	L1
NMTTP	71	288	3	B	0	L1
NMTTP	72	0	0	C	0	L1
NMTTP	73	0	1	B	0	L1
NMTTP	73	96	2	B	0	L1
NMTTP	73	192	3	B	0	L1
NMTTP	73	288	4	B	0	L1
NMTTP	74	0	0	C	0	L1
NMTAP	75	0	6
NMTAP	75	96	6
NMTAP	75	192	6
NMTAP	75	192	7
NMTAP	76	0	5
NMTAP	76	96	5
NMTAP	76	192	4
NMTAP	76	192	5
NMTAP	77	0	3
NMTAP	77	96	3
NMTAP	77	192	2
NMTAP	77	192	3
NMTAP	78	0	1
NMTAP	78	96	1
NMTAP	78	192	0
NMTAP	78	192	1
NMTAP	79	0	2
NMTAP	79	0	3
NMTAP	79	96	2
NMTAP	79	96	3
NMTAP	79	192	2
NMTAP	79	192	3
NMTAP	80	0	4
NMTAP	80	0	5
NMTAP	80	96	4
NMTAP	80	96	5
NMTAP	80	192	4
NMTAP	80	192	5
EXTAP	81	0	3
EXTAP	81	48	3
EXTAP	81	96	3
EXTAP	81	192	4
EXTAP	81	240	4
EXTAP	81	288	4
NMTAP	82	0	3
NMTAP	82	0	4
NMTAP	82	96	3
NMTAP	82	96	4
NMTAP	82	192	3
NMTAP	82	192	4
NMHLD	83	0	2	192
NMHLD	83	192	1	192
NMHLD	84	0	0	192
NMHLD	84	192	7	192
NMHLD	85	0	6	384
NMTAP	86	0	7
NMHLD	87	0	5	192
NMHLD	87	192	6	192
NMHLD	88	0	7	192
NMHLD	88	192	0	192
NMHLD	89	0	1	384
NMTAP	90	0	0
NMHLD	91	0	1	192
NMTAP	91	192	0
NMHLD	92	0	6	192
NMTAP	92	192	7
NMHLD	93	0	1	192
NMTAP	93	192	0
NMHLD	94	0	6	192
NMTAP	94	192	7
NMTAP	95	0	0
NMTAP	95	96	0
NMTAP	95	192	1
NMTAP	95	288	1
NMTAP	96	0	0
NMTAP	96	0	1
NMTAP	97	0	7
NMTAP	97	96	7
NMTAP	97	192	6
NMTAP	97	288	6
NMTAP	98	0	6
NMTAP	98	0	7
NMHLD	99	0	0	384
NMHLD	99	0	7	384
NMTTP	101	0	0	C	1	L1
NMSTR	103	0	4
NMSI_	103	0	4	96	288	1
NMSTR	103	0	5
NMSI_	103	0	5	96	288	0
NMSTR	105	0	2
NMSI_	105	0	2	96	288	7
NMSTR	105	0	3
NMSI_	105	0	3	96	288	6
BXTAP	107	96	0
BXTAP	107	96	1
BXTAP	107	288	2
BXTAP	107	288	3
BXTAP	108	96	4
BXTAP	108	96	5
BXTAP	108	288	6
BXTAP	108	288	7
EXTAP	109	0	5
EXTAP	109	48	5
EXTAP	109	96	5
EXTAP	109	192	4
EXTAP	109	240	4
EXTAP	109	288	4
NMTAP	110	0	2
NMTAP	110	0	3
NMTAP	110	96	2
NMTAP	110	96	3
BRTAP	110	192	1
BRTAP	110	192	4
NMTAP	111	0	1
NMTAP	111	96	1
NMTAP	111	192	0
NMTAP	111	192	1
NMTAP	111	288	0
NMTAP	111	288	1
NMTAP	112	0	2
NMTAP	112	96	2
NMTAP	112	192	2
NMTAP	112	192	3
NMTAP	112	288	2
NMTAP	112	288	3
NMTAP	113	0	4
NMTAP	113	96	4
NMTAP	113	192	4
NMTAP	113	192	5
NMTAP	113	288	4
NMTAP	113	288	5
NMTAP	114	0	6
NMTAP	114	96	6
NMTAP	114	192	6
NMTAP	114	192	7
NMTAP	115	0	4
NMTAP	115	0	5
EXTAP	115	96	4
EXTAP	115	96	5
NMTAP	115	192	2
NMTAP	115	192	3
EXTAP	115	288	2
EXTAP	115	288	3
NMTAP	116	0	0
NMTAP	116	0	1
EXTAP	116	96	0
EXTAP	116	96	1
NMTAP	116	192	6
NMTAP	116	192	7
EXTAP	116	288	6
EXTAP	116	288	7
BRTAP	117	0	0
BRTAP	117	0	7
NMSTR	119	0	0
NMSCL	119	0	0	96	288	5
NMSTR	119	0	1
NMSCR	119	0	1	96	288	4
NMSTR	121	0	6
NMSCL	121	0	6	96	288	3
NMSTR	121	0	7
NMSCR	121	0	7	96	288	2
NMSTR	123	0	3
NMSXR	123	0	3	96	672	0
NMSTR	123	0	4
NMSXL	123	0	4	96	672	7

T_REC_TAP	220
T_REC_BRK	11
T_REC_XTP	34
T_REC_BXX	8
T_REC_HLD	34
T_REC_XHO	8
T_REC_BHO	0
T_REC_BXH	0
T_REC_STR	18
T_REC_BST	0
T_REC_XST	0
T_REC_XBS	0
T_REC_TTP	25
T_REC_THO	0
T_REC_SLD	18
T_REC_BSL	0
T_REC_ALL	376
T_NUM_TAP	297
T_NUM_BRK	19
T_NUM_HLD	42
T_NUM_SLD	18
T_NUM_ALL	376
T_JUDGE_TAP	316
T_JUDGE_HLD	200
T_JUDGE_SLD	18
T_JUDGE_ALL	534
TTM_EACHPAIRS	88
TTM_SCR_TAP	148500
TTM_SCR_BRK	49400
TTM_SCR_HLD	42000
TTM_SCR_SLD	27000
TTM_SCR_ALL	266900
TTM_SCR_S	257050
TTM_SCR_SS	265000
TTM_RAT_ACV	10071

