VERSION	0.00.00	1.04.00
FES_MODE	0
BPM_DEF	170.000	170.000	170.000	170.000
MET_DEF	4	4
RESOLUTION	384
CLK_DEF	384
COMPATIBLE_CODE	MA2

BPM	0	0	170.000
MET	0	0	4	4

NMTHO	1	192	0	192	C	1	M1
NMHLD	2	0	7	96
NMTAP	2	96	0
NMHLD	2	144	1	96
NMTAP	2	240	0
NMTAP	2	288	7
NMTAP	2	336	6
NMHLD	3	0	5	96
NMTAP	3	96	4
NMHLD	3	144	1	96
NMTAP	3	240	3
NMTAP	3	288	1
NMTAP	3	312	2
NMTAP	3	336	3
NMTAP	3	360	4
NMHLD	4	0	6	96
NMTAP	4	96	4
NMHLD	4	144	2	96
NMTAP	4	240	3
NMTAP	4	288	2
NMTAP	4	336	1
NMHLD	5	0	0	96
NMTAP	5	0	7
NMTAP	5	48	6
NMTAP	5	96	5
NMSTR	5	144	0
BRSI_	5	144	0	96	48	4
NMHLD	5	144	4	96
EXTAP	5	240	0
CNSI_	5	288	4	0	24	0
NMTAP	6	0	1
NMTAP	6	0	7
NMTAP	6	48	5
NMTAP	6	72	4
NMTAP	6	96	5
NMTAP	6	144	2
NMTAP	6	144	3
NMTAP	6	192	1
NMTAP	6	216	0
NMTAP	6	240	1
NMTAP	6	264	0
NMTAP	6	288	1
NMTAP	6	336	2
NMTAP	6	336	7
NMTAP	7	0	3
NMTAP	7	0	6
NMTAP	7	48	5
NMTAP	7	72	4
NMTAP	7	96	5
NMTAP	7	144	2
NMTAP	7	144	3
NMSTR	7	192	1
NMSI_	7	192	1	96	48	5
NMSTR	7	192	5
NMSI_	7	192	5	96	48	3
NMTAP	7	240	0
NMTAP	7	240	6
EXTAP	7	288	1
EXTAP	7	288	5
NMTAP	8	0	2
NMTAP	8	24	3
NMTAP	8	48	1
NMTAP	8	96	5
NMTAP	8	120	4
NMTAP	8	144	6
NMTAP	8	192	0
NMTAP	8	208	7
NMTAP	8	224	0
NMTAP	8	240	7
NMTAP	8	256	0
NMTAP	8	272	7
NMTTP	8	288	1	A	0	M1
NMTTP	8	300	2	A	0	M1
NMTTP	8	312	3	A	0	M1
NMTTP	8	324	4	A	0	M1
NMTTP	8	336	5	A	0	M1
NMTTP	8	348	6	A	0	M1
BRSTR	9	0	0
NMSLL	9	0	0	96	72	4
NMTAP	9	96	0
BRTAP	9	96	1
BRSTR	9	144	2
NMSI_	9	144	2	96	48	6
NMTAP	9	240	2
EXTAP	9	240	4
BXTAP	9	288	0
NMHLD	10	0	7	72
NMHLD	10	72	6	72
NMSTR	10	144	5
NMSCL	10	144	5	96	48	2
NMTAP	10	240	0
NMTAP	10	288	0
NMTAP	10	336	1
NMTAP	10	336	7
NMTAP	11	0	2
NMTAP	11	0	6
NMSTR	11	48	3
NMSCL	11	48	3	96	48	0
NMTAP	11	96	5
NMHLD	11	144	7	96
EXTAP	11	240	0
EXTAP	11	288	1
EXTAP	11	288	6
NMTAP	12	0	5
NMSTR	12	48	5
NMSCR	12	48	5	96	48	0
NMTAP	12	96	3
NMHLD	12	144	1	96
NMTAP	12	240	3
NMTAP	12	288	2
NMTAP	12	288	4
NMTAP	12	336	3
NMTAP	12	336	5
NMSTR	13	0	6
NMSI_	13	0	6	96	48	2
NMSTR	13	48	1
NMSCL	13	48	1	96	96	3
NMTAP	13	96	6
NMTAP	13	144	1
BRTAP	13	240	7
BRTAP	13	288	1
BRTAP	13	288	5
NMTAP	14	0	2
NMSTR	14	48	2
NMSI_	14	48	2	96	48	5
NMTAP	14	96	4
NMHLD	14	144	6	96
NMTAP	14	240	7
NMTAP	14	288	5
NMTAP	14	336	3
NMTAP	15	0	0
NMTAP	15	0	1
NMTAP	15	48	6
NMTAP	15	48	7
NMTAP	15	96	4
NMTAP	15	96	5
NMTAP	15	144	1
NMTAP	15	168	3
NMTAP	15	192	2
NMTAP	15	216	4
NMTAP	15	240	3
NMTAP	15	264	5
NMTAP	15	288	4
NMTAP	15	336	6
NMTAP	15	336	7
NMTAP	16	0	0
NMTAP	16	48	1
NMTAP	16	48	7
NMTAP	16	96	2
NMTAP	16	96	6
NMTAP	16	144	3
NMTAP	16	168	4
NMTAP	16	192	3
NMTAP	16	216	4
NMTAP	16	240	3
NMTAP	16	264	4
NMTTP	16	288	1	A	0	M1
NMTTP	16	300	2	A	0	M1
NMTTP	16	312	3	A	0	M1
NMTTP	16	324	4	A	0	M1
NMTTP	16	336	5	A	0	M1
NMTTP	16	348	6	A	0	M1
EXTAP	17	0	0
EXTAP	17	0	1
NMSTR	17	48	2
NMSI_	17	48	2	96	48	5
NMSTR	17	48	6
NMSI_	17	48	6	96	48	1
NMTAP	17	144	2
NMTAP	17	144	6
NMTAP	17	240	0
NMTAP	17	240	4
BRSTR	17	288	3
NMSV_	17	288	3	96	48	0
BRSTR	17	288	7
NMSV_	17	288	7	96	48	4
NMTTP	18	0	0	C	1	M1
NMTAP	18	96	2
NMTAP	18	96	6
NMTAP	18	144	5
NMTAP	18	168	5
NMTAP	18	192	4
NMTAP	18	240	7
NMTAP	18	288	1
NMTAP	18	336	3
NMTAP	19	0	6
NMTAP	19	48	4
EXSTR	19	96	5
NMSUL	19	96	5	96	144	3
NMSXL	19	96	5	96	144	3
EXTAP	19	120	5
EXTAP	19	144	5
EXTAP	19	168	5
NMHLD	20	0	0	48
NMHLD	20	0	1	48
NMTAP	20	96	2
NMTAP	20	96	7
NMTAP	20	144	3
NMTAP	20	192	5
NMTAP	20	216	4
NMTAP	20	240	5
NMTAP	20	264	4
NMTAP	20	288	7
NMTAP	20	336	0
NMTAP	20	336	6
NMSTR	21	0	1
NMSI_	21	0	1	96	48	4
NMSTR	21	48	4
NMSCL	21	48	4	96	96	6
NMSTR	21	96	1
NMSCL	21	96	1	96	48	6
NMHLD	21	144	5	96
NMTAP	21	288	5
NMTAP	21	336	3
NMSTR	22	0	0
NMSI_	22	0	0	96	48	3
NMSTR	22	0	2
NMSI_	22	0	2	96	48	0
NMTAP	22	96	0
NMTAP	22	96	2
NMSTR	22	192	4
NMSI_	22	192	4	96	48	6
NMSTR	22	192	7
NMSI_	22	192	7	96	48	4
NMTAP	22	288	4
NMTAP	22	288	7
EXHLD	23	0	0	48
NMSTR	23	0	1
NMSLR	23	0	1	96	72	7
NMTAP	23	96	4
NMTAP	23	144	4
NMSTR	23	192	0
NMSI_	23	192	0	96	48	4
NMSTR	23	192	6
NMSI_	23	192	6	96	48	4
NMTAP	23	240	7
NMTAP	23	288	0
NMTAP	23	288	6
NMSTR	24	0	1
NMSCR	24	0	1	96	48	4
NMHLD	24	0	7	96
NMTAP	24	96	1
NMSTR	24	144	6
NMSCL	24	144	6	96	48	3
NMTAP	24	240	6
NMTAP	24	240	7
NMTAP	24	288	0
NMSTR	24	336	1
NMSI_	24	336	1	96	48	3
NMSTR	25	48	1
NMSI_	25	48	1	96	48	4
NMHLD	25	48	4	48
NMTAP	25	144	1
NMHLD	25	144	5	48
NMTAP	25	240	6
NMTAP	25	240	7
NMTAP	25	288	0
NMTAP	25	288	5
NMSTR	26	0	2
NMSI_	26	0	2	96	48	0
NMTAP	26	24	3
NMTAP	26	48	2
NMTAP	26	72	3
NMTAP	26	96	2
NMSTR	26	192	1
NMSI_	26	192	1	96	48	3
NMTAP	26	216	0
NMTAP	26	240	1
NMTAP	26	264	0
NMTAP	26	288	1
NMHLD	27	0	4	48
NMHLD	27	0	5	48
NMTAP	27	96	6
NMTAP	27	96	7
NMTAP	27	144	5
NMTAP	27	192	3
NMTAP	27	240	0
NMTAP	27	240	1
NMTAP	27	288	6
NMTAP	27	312	5
NMTAP	27	336	4
NMTAP	27	360	3
NMSTR	28	0	1
NMSI_	28	0	1	96	48	4
NMTAP	28	24	0
NMTAP	28	48	1
NMTAP	28	72	0
NMTAP	28	96	1
NMSTR	28	192	2
NMSI_	28	192	2	96	48	7
NMTAP	28	216	3
NMTAP	28	240	2
NMTAP	28	264	3
NMTAP	28	288	2
NMTAP	29	0	6
NMSTR	29	48	6
NMSUL	29	48	6	96	48	2
NMTAP	29	96	4
NMTAP	29	144	6
NMTAP	29	240	1
NMTAP	29	288	7
NMTAP	29	336	4
NMTAP	29	336	5
NMSTR	30	0	2
NMSCL	30	0	2	96	48	7
NMTAP	30	24	3
NMTAP	30	48	2
NMTAP	30	72	3
NMTAP	30	96	2
NMSTR	30	192	1
NMSCR	30	192	1	96	48	4
NMTAP	30	216	0
NMTAP	30	240	1
NMTAP	30	264	0
NMTAP	30	288	1
NMHLD	31	0	5	48
NMHLD	31	0	6	48
NMTAP	31	96	4
NMTAP	31	96	7
NMSTR	31	144	0
NMSLL	31	144	0	96	72	1
NMSTR	31	144	3
NMSLR	31	144	3	96	72	2
NMTAP	32	0	7
NMTAP	32	24	0
NMTAP	32	48	7
NMTAP	32	96	1
NMTAP	32	120	1
NMTAP	32	144	2
NMTAP	32	168	2
NMTAP	32	192	3
NMTAP	32	216	3
NMTAP	32	240	4
NMTAP	32	264	4
NMTAP	32	288	5
NMTAP	32	312	5
NMSTR	32	336	6
NMSXL	32	336	6	96	120	2
NMHLD	33	0	4	144
NMTTP	33	144	0	C	1	M1
EXTAP	33	240	0
EXTAP	33	240	7
BRSTR	33	288	1
NMSCR	33	288	1	96	120	7
BRTAP	33	288	6
BRTAP	34	0	0
NMTAP	34	144	1
NMTAP	34	168	0
NMHLD	34	192	1	48
NMHLD	34	240	2	48
NMHLD	34	288	3	48
NMHLD	34	336	4	48
NMTAP	35	0	5
NMTAP	35	72	0
NMTAP	35	72	7
NMTAP	35	144	2
NMTAP	35	144	3
BRTAP	35	240	0
BRTAP	35	288	2
BRSTR	35	288	6
NMSCL	35	288	6	96	120	0
NMTAP	36	0	7
NMTAP	36	144	6
NMTAP	36	168	7
NMHLD	36	192	6	48
NMHLD	36	240	5	48
NMHLD	36	288	4	48
NMHLD	36	336	3	48
NMTAP	37	0	2
NMTAP	37	72	0
NMTAP	37	72	7
NMSTR	37	144	4
NMSI_	37	144	4	96	48	0
NMTAP	37	144	5
BRTAP	37	240	7
BRTAP	37	288	7
NMSTR	38	0	6
NMSI_	38	0	6	96	48	2
NMSTR	38	48	3
NMSCL	38	48	3	96	48	0
NMTAP	38	96	6
NMTAP	38	144	3
NMTAP	38	240	6
NMTAP	38	240	7
NMTAP	38	288	4
NMTAP	38	288	5
NMTAP	38	336	2
NMTAP	38	336	3
NMSTR	39	0	1
NMSCR	39	0	1	96	48	4
NMTAP	39	48	0
NMTAP	39	96	1
NMTAP	39	144	7
NMTAP	39	168	6
NMTAP	39	192	5
NMTAP	39	216	4
NMTAP	39	240	2
NMTAP	39	240	3
NMTAP	39	288	0
NMTAP	39	336	2
NMTAP	39	336	6
NMSTR	40	0	7
NMSI_	40	0	7	96	48	3
NMSTR	40	48	6
NMSI_	40	48	6	96	48	4
NMTAP	40	96	7
NMTAP	40	144	6
NMTAP	40	240	1
NMTAP	40	288	7
NMTAP	40	336	4
NMTAP	40	336	5
NMSTR	41	0	3
NMSI_	41	0	3	96	48	7
NMSTR	41	48	2
NMSI_	41	48	2	96	48	0
NMTAP	41	96	3
NMTAP	41	144	2
EXTAP	41	240	7
BRTAP	41	288	1
BRSTR	41	288	5
BRSXL	41	288	5	96	384	3
NMTTP	42	0	2	B	0	M1
NMTTP	42	0	3	B	0	M1
NMTTP	42	0	3	E	1	M1
CNSCL	43	0	3	0	288	4
NMHLD	44	0	2	96
NMTAP	44	96	3
NMHLD	44	144	1	96
NMTAP	44	240	3
NMTAP	44	288	2
NMTAP	44	288	4
NMHLD	45	0	4	48
NMHLD	45	96	4	48
NMTAP	45	192	4
NMTAP	45	240	4
NMTAP	45	288	3
NMTAP	45	288	5
NMHLD	46	0	5	96
NMHLD	46	0	6	96
NMHLD	46	144	5	96
NMTAP	46	144	6
NMTAP	46	240	4
NMTAP	46	288	4
NMTAP	46	336	4
NMHLD	47	0	5	96
NMHLD	47	0	6	96
NMTAP	47	144	5
NMHLD	47	144	6	96
NMTAP	47	240	4
NMTAP	47	288	4
NMTAP	47	336	4
NMTTP	48	0	5	B	0	M1
NMTTP	48	0	6	E	0	M1
NMTTP	48	48	3	B	0	M1
NMTTP	48	48	4	E	0	M1
NMTTP	48	96	1	B	0	M1
NMTTP	48	96	2	E	0	M1
NMTTP	48	144	0	E	0	M1
NMTTP	48	144	7	B	0	M1
NMTTP	48	192	4	D	0	M1
NMTTP	48	204	3	D	0	M1
NMTTP	48	216	2	D	0	M1
NMTTP	48	228	1	D	0	M1
NMTTP	48	240	0	D	0	M1
NMTTP	48	252	7	D	0	M1
NMTTP	48	264	6	D	0	M1
NMTTP	48	276	5	D	0	M1
NMTTP	48	288	4	D	0	M1
NMTAP	49	0	0
NMTAP	49	0	7
NMTAP	49	48	1
NMTAP	49	96	0
NMTAP	49	96	7
NMTAP	49	144	6
NMSTR	49	192	0
NMSCR	49	192	0	96	48	3
NMSTR	49	192	7
NMSCL	49	192	7	96	48	4
NMTAP	49	240	1
NMTAP	49	240	6
BRTAP	49	288	0
BRTAP	49	288	7
NMTHO	50	0	0	288	C	1	M1
NMTTP	50	288	3	B	0	M1
NMTTP	50	288	3	A	0	M1
NMTTP	50	288	7	B	0	M1
NMTTP	50	288	7	A	0	M1
NMSTR	51	0	0
NMSI_	51	0	0	96	48	4
NMSTR	51	48	5
NMSCR	51	48	5	96	96	3
NMTAP	51	96	0
NMTAP	51	144	5
NMTAP	51	240	4
NMTAP	51	288	6
NMTAP	51	336	0
NMTAP	51	336	1
NMSTR	52	0	2
NMSCL	52	0	2	96	48	7
NMTAP	52	48	4
NMTAP	52	96	2
NMTAP	52	144	6
NMTAP	52	168	5
NMTAP	52	192	4
NMTAP	52	216	3
EXTAP	52	240	0
EXTAP	52	288	1
EXTAP	52	288	7
NMTAP	52	336	2
NMTAP	52	336	6
NMSTR	53	0	5
NMSV_	53	0	5	96	48	3
NMSTR	53	48	3
NMSLR	53	48	3	96	48	7
NMTAP	53	96	5
NMHLD	53	144	1	96
NMTAP	53	240	0
NMTAP	53	288	2
NMTAP	53	336	4
NMTAP	53	336	5
NMTAP	54	0	7
NMTAP	54	48	5
NMTAP	54	96	2
NMTAP	54	96	3
NMTAP	54	144	1
NMTAP	54	168	0
NMTAP	54	192	1
NMTAP	54	240	2
NMTAP	54	240	7
NMTAP	54	288	4
NMTAP	54	336	6
NMTAP	54	336	7
NMTAP	55	0	1
NMSTR	55	48	1
NMSCR	55	48	1	96	48	4
NMSTR	55	96	4
NMSXR	55	96	4	96	144	6
NMTAP	55	144	1
NMHLD	55	240	7	0
NMHLD	55	288	7	0
NMHLD	55	336	7	0
NMTAP	56	0	5
NMTAP	56	48	4
NMTAP	56	96	2
NMTAP	56	96	3
NMTAP	56	144	0
NMTAP	56	168	1
NMTAP	56	192	2
NMTAP	56	216	3
EXTAP	56	240	4
EXTAP	56	240	5
EXSTR	56	288	3
NMSCL	56	288	3	96	48	0
EXSTR	56	288	7
NMSCL	56	288	7	96	48	4
NMTAP	57	0	3
NMTAP	57	0	7
NMTAP	57	96	3
NMTAP	57	96	7
NMHLD	57	144	1	96
NMTAP	57	144	5
NMTAP	57	240	0
NMTAP	57	288	2
NMTAP	57	288	3
NMTAP	57	336	4
NMTAP	57	336	5
NMSTR	58	0	6
NMSI_	58	0	6	96	48	1
NMSTR	58	48	2
NMSI_	58	48	2	96	48	5
NMTAP	58	96	6
NMTAP	58	144	2
NMTAP	58	240	0
NMTAP	58	240	7
BRTAP	58	288	1
BRTAP	58	288	6
NMSTR	59	0	7
NMSI_	59	0	7	96	48	3
NMSTR	59	48	2
NMSCL	59	48	2	96	96	4
NMTAP	59	96	7
NMTAP	59	144	2
NMTAP	59	240	3
NMTAP	59	288	1
NMTAP	59	336	7
NMHLD	60	0	5	48
NMHLD	60	0	6	48
NMHLD	60	96	4	48
NMHLD	60	96	7	48
NMTAP	60	192	5
NMTAP	60	192	6
EXTAP	60	240	0
EXTAP	60	240	3
EXTAP	60	288	5
EXTAP	60	288	6
NMSTR	61	0	2
NMSV_	61	0	2	96	48	4
NMSTR	61	48	4
NMSLL	61	48	4	96	48	0
NMTAP	61	96	2
NMHLD	61	144	6	96
NMTAP	61	240	7
NMTAP	61	288	5
NMTAP	61	336	2
EXHLD	61	336	3	96
EXTAP	62	48	0
NMTAP	62	96	1
NMTAP	62	96	2
EXTAP	62	144	3
NMTAP	62	168	3
EXSTR	62	192	1
NMSI_	62	192	1	96	48	7
NMSTR	62	240	5
NMSI_	62	240	5	96	48	3
EXTAP	62	288	1
NMTAP	62	336	5
NMTAP	63	0	2
NMSTR	63	48	2
NMSXR	63	48	2	96	96	4
NMTAP	63	96	4
NMTAP	63	144	2
NMSTR	63	240	6
NMSI_	63	240	6	96	48	2
NMSI_	63	240	6	96	48	4
NMTAP	63	288	6
NMTAP	63	336	6
NMSTR	64	48	3
NMSI_	64	48	3	96	48	1
NMSI_	64	48	3	96	48	7
NMTAP	64	96	3
NMTAP	64	144	3
EXTAP	64	240	4
EXTAP	64	240	5
EXSTR	64	288	3
NMSCL	64	288	3	96	48	0
EXSTR	64	288	7
NMSCL	64	288	7	96	48	4
NMTAP	65	0	3
NMTAP	65	0	7
NMTAP	65	96	3
NMTAP	65	96	7
NMTAP	65	144	1
NMHLD	65	144	5	96
NMTAP	65	240	4
NMTAP	65	288	0
NMTAP	65	288	7
NMHLD	65	336	2	96
NMTAP	65	336	6
NMSTR	66	48	3
NMSF_	66	48	3	96	48	7
NMTAP	66	96	2
NMTAP	66	96	4
NMTAP	66	144	3
EXTAP	66	240	0
EXTAP	66	240	6
BRSTR	66	288	3
BRSF_	66	288	3	96	48	7
NMTTP	67	96	1	A	0	M1
NMTTP	67	96	5	A	0	M1
NMTTP	67	192	0	C	0	M1
NMTTP	67	288	2	A	0	M1
NMTTP	67	288	6	A	0	M1
NMTTP	68	0	0	C	0	M1
NMTTP	68	96	3	A	0	M1
NMTTP	68	96	7	A	0	M1
NMTHO	68	192	0	96	C	0	M1
NMTTP	69	0	0	A	0	M1
NMTTP	69	0	4	A	0	M1
NMTTP	69	96	0	C	0	M1
NMTTP	69	192	1	A	0	M1
NMTTP	69	192	5	A	0	M1
NMTTP	69	288	0	C	0	M1
NMTTP	70	0	2	A	0	M1
NMTTP	70	48	3	A	0	M1
NMTTP	70	96	4	A	0	M1
NMTTP	70	144	5	A	0	M1
NMTTP	70	240	1	D	0	M1
NMTTP	70	240	7	D	0	M1
NMTTP	70	288	3	D	0	M1
NMTTP	70	288	5	D	0	M1
NMTTP	71	0	0	E	0	M1
NMTHO	71	0	0	96	C	0	M1
NMTTP	71	0	4	E	0	M1
NMTTP	71	192	5	B	0	M1
NMTTP	71	192	5	A	0	M1
NMTTP	71	288	4	B	0	M1
NMTTP	71	288	4	A	0	M1
NMTTP	72	0	3	B	0	M1
NMTTP	72	0	3	A	0	M1
NMTTP	72	96	2	B	0	M1
NMTTP	72	96	2	A	0	M1
NMTTP	72	192	0	E	0	M1
NMTTP	72	240	0	C	0	M1
NMTTP	72	288	4	E	0	M1
NMHLD	73	0	2	144
NMHLD	73	144	4	96
NMTAP	73	240	3
NMTAP	73	288	3
NMSTR	73	336	5
NMSI_	73	336	5	96	48	3
NMSTR	74	48	1
NMSI_	74	48	1	96	48	5
NMSTR	74	144	7
NMSI_	74	144	7	96	48	3
NMTAP	74	240	0
EXSTR	74	288	0
NMSCR	74	288	0	96	96	6
EXTAP	75	144	7
EXTAP	75	168	7
EXSTR	75	192	7
BRSI_	75	192	7	96	48	3
NMTAP	75	240	1
NMTAP	75	240	5
EXTAP	76	0	0
EXTAP	76	0	6
NMTAP	76	48	2
NMTAP	76	72	4
NMTAP	76	96	3
NMTAP	76	120	5
NMHLD	76	144	4	96
NMTAP	76	240	7
NMTAP	76	264	6
NMTAP	76	288	5
NMTAP	76	312	4
NMTAP	76	336	3
NMTAP	76	360	2
NMSTR	77	0	1
NMSCR	77	0	1	96	48	4
NMTAP	77	0	7
NMTAP	77	48	0
NMTAP	77	96	1
NMSTR	77	96	5
NMSI_	77	96	5	96	48	2
NMTAP	77	144	6
NMSTR	77	192	0
NMSI_	77	192	0	96	48	4
NMTAP	77	192	5
EXTAP	77	240	7
EXTAP	77	288	0
EXTAP	77	288	6
NMTAP	78	0	3
NMTAP	78	0	5
NMTAP	78	48	2
NMTAP	78	72	4
NMTAP	78	96	1
NMTAP	78	120	3
NMHLD	78	144	0	96
NMTAP	78	240	4
NMTAP	78	264	5
NMTAP	78	288	6
NMTAP	78	312	7
NMTAP	78	336	0
NMTAP	78	360	1
NMTAP	79	0	2
NMTAP	79	0	3
NMTAP	79	48	7
NMTAP	79	96	4
NMTAP	79	96	5
NMTAP	79	144	0
NMTAP	79	192	1
NMTAP	79	192	3
NMTAP	79	240	7
NMTAP	79	288	4
NMTAP	79	288	6
NMTAP	79	336	0
NMTAP	79	336	7
NMTAP	80	0	1
NMTAP	80	0	6
NMTAP	80	48	5
NMTAP	80	72	3
NMTAP	80	96	4
NMTAP	80	120	2
NMHLD	80	144	3	96
NMTAP	80	240	0
NMTAP	80	264	1
NMTAP	80	288	2
NMTAP	80	312	3
NMTAP	80	336	4
NMTAP	80	360	5
NMTAP	81	0	0
NMSTR	81	0	6
NMSCL	81	0	6	96	48	3
NMTAP	81	48	7
NMSTR	81	96	2
NMSI_	81	96	2	96	48	5
NMTAP	81	96	6
NMTAP	81	144	1
NMTAP	81	192	2
NMSTR	81	192	7
NMSI_	81	192	7	96	48	3
EXTAP	81	240	0
EXTAP	81	288	1
EXTAP	81	288	7
NMTAP	82	0	2
NMTAP	82	0	4
NMTAP	82	96	6
NMTAP	82	96	7
NMTAP	82	144	3
NMTAP	82	144	5
NMTAP	82	240	0
NMTAP	82	240	1
NMTAP	82	288	3
NMTAP	82	288	4
NMSTR	82	336	6
NMSI_	82	336	6	96	48	4
NMSTR	82	336	7
NMSI_	82	336	7	96	48	3
NMSTR	83	48	6
NMSI_	83	48	6	96	48	2
NMSTR	83	48	7
NMSI_	83	48	7	96	48	1
NMTAP	83	144	6
NMTAP	83	144	7
EXTAP	83	240	4
EXTAP	83	240	5
BRTAP	83	288	1
BRTAP	83	288	7
NMHLD	84	0	3	96
NMTAP	84	96	4
NMHLD	84	144	6	96
NMTAP	84	240	4
NMTAP	84	288	3
NMTAP	84	336	2
NMHLD	85	0	4	96
NMTAP	85	96	3
NMHLD	85	144	1	96
NMTAP	85	240	3
NMTAP	85	288	1
NMTAP	85	312	2
NMTAP	85	336	3
NMTAP	85	360	4
NMHLD	86	0	6	96
NMTAP	86	96	4
NMHLD	86	144	2	96
NMTAP	86	240	3
NMTAP	86	288	4
NMTAP	86	336	5
NMTAP	87	0	4
NMTAP	87	0	6
NMTAP	87	48	3
NMTAP	87	96	4
NMTAP	87	144	1
NMTAP	87	144	3
EXTAP	87	240	0
EXTAP	87	240	7
EXTAP	87	288	0
EXTAP	87	288	7
NMTAP	88	0	0
NMTAP	88	0	6
NMTAP	88	48	3
NMTAP	88	48	4
NMTAP	88	96	1
NMTAP	88	96	7
NMTAP	88	144	2
NMTAP	88	168	2
NMTAP	88	192	3
NMTAP	88	240	0
NMTAP	88	240	1
NMTAP	88	288	4
NMTAP	88	288	6
NMTAP	88	336	5
NMTAP	88	360	5
NMTAP	89	0	4
NMTAP	89	24	6
NMTAP	89	48	6
NMTAP	89	96	1
NMTAP	89	96	3
NMTAP	89	144	0
NMTAP	89	168	0
NMTAP	89	192	7
NMTAP	89	240	3
NMTAP	89	240	4
NMTAP	89	288	1
NMTAP	89	288	6
NMTAP	90	0	2
NMTAP	90	24	5
NMTAP	90	48	2
NMTAP	90	72	5
NMTAP	90	96	1
NMTAP	90	112	6
NMTAP	90	128	1
NMTAP	90	144	6
NMTAP	90	160	1
NMTAP	90	176	6
NMTTP	90	192	0	A	0	M1
NMTTP	90	204	1	A	0	M1
NMTTP	90	216	2	A	0	M1
NMTTP	90	228	3	A	0	M1
NMTTP	90	240	4	A	0	M1
NMTTP	90	252	5	A	0	M1
NMTTP	90	264	6	A	0	M1
NMTTP	90	276	7	A	0	M1
NMTTP	90	288	0	C	0	M1
BRHLD	91	0	3	96
BRHLD	91	0	4	96
NMSTR	91	144	1
NMSLR	91	144	1	96	48	7
NMSTR	91	144	6
NMSLL	91	144	6	96	48	0
NMTAP	91	240	1
NMTAP	91	240	6
NMTTP	91	288	0	A	0	M1
NMTTP	91	288	0	D	1	M1
NMTTP	91	288	7	A	0	M1
NMTAP	92	0	3
NMTAP	92	0	4
NMTAP	92	96	1
NMTAP	92	144	6
NMSTR	92	192	2
NMSI_	92	192	2	96	48	6
NMSTR	92	240	5
NMSI_	92	240	5	96	48	1
NMTAP	92	288	2
NMTAP	92	336	5

T_REC_TAP	495
T_REC_BRK	17
T_REC_XTP	47
T_REC_HLD	67
T_REC_XHO	2
T_REC_STR	80
T_REC_BST	8
T_REC_XST	8
T_REC_TTP	85
T_REC_THO	4
T_REC_SLD	99
T_REC_ALL	912
T_NUM_TAP	715
T_NUM_BRK	25
T_NUM_HLD	73
T_NUM_SLD	99
T_NUM_ALL	912
T_JUDGE_TAP	740
T_JUDGE_HLD	128
T_JUDGE_SLD	99
T_JUDGE_ALL	967
TTM_EACHPAIRS	154
TTM_SCR_TAP	357500
TTM_SCR_BRK	65000
TTM_SCR_HLD	73000
TTM_SCR_SLD	148500
TTM_SCR_ALL	644000
TTM_SCR_S	622300
TTM_SCR_SS	641500
TTM_RAT_ACV	10038

