VERSION	0.00.00	1.04.00
FES_MODE	0
BPM_DEF	170.000	170.000	170.000	170.000
MET_DEF	4	4
RESOLUTION	384
CLK_DEF	384
COMPATIBLE_CODE	MA2

BPM	0	0	170.000
MET	0	0	4	4

NMHLD	2	0	5	384
NMTAP	2	288	4
NMHLD	3	0	4	384
NMTAP	3	288	3
NMHLD	4	0	3	288
NMTAP	4	288	2
NMTAP	5	0	1
NMTAP	5	0	4
NMTAP	5	96	2
NMTAP	5	96	3
NMTAP	5	144	2
NMTAP	5	144	3
NMTAP	5	240	4
NMTAP	5	240	5
BRTAP	5	288	4
BRTAP	5	288	5
NMTAP	6	0	6
NMTAP	6	96	6
NMTAP	6	192	3
NMTAP	6	192	5
NMTAP	6	288	2
NMTAP	6	288	4
NMTAP	7	0	1
NMTAP	7	96	1
NMTAP	7	192	0
NMTAP	7	192	1
NMTAP	7	288	0
NMTAP	7	288	7
NMTAP	8	0	0
NMTAP	8	48	0
NMTAP	8	96	7
NMTAP	8	144	7
NMTAP	8	192	1
NMTAP	8	240	1
NMTAP	8	288	6
NMTAP	8	336	6
NMHLD	9	0	2	240
BXTAP	9	240	7
BXTAP	9	288	7
NMTAP	10	0	4
NMTAP	10	0	6
NMTAP	10	96	3
NMTAP	10	96	5
NMTAP	10	192	2
NMTAP	10	288	2
NMTAP	10	288	3
NMTAP	11	0	1
NMTAP	11	0	3
NMTAP	11	96	2
NMTAP	11	96	4
NMTAP	11	192	5
NMTAP	11	288	4
NMTAP	11	288	5
NMTAP	12	0	6
NMTAP	12	96	6
NMTAP	12	96	7
NMTAP	12	192	1
NMTAP	12	288	0
NMTAP	12	288	1
NMTAP	13	0	2
NMTAP	13	0	7
NMTAP	13	96	6
NMTAP	13	192	3
NMTAP	13	192	5
NMTAP	13	240	3
NMTAP	13	240	5
NMTAP	13	288	3
NMTAP	13	288	5
NMHLD	14	0	6	96
NMTAP	14	96	4
NMTAP	14	192	3
NMTAP	14	192	5
NMTAP	14	288	2
NMTAP	14	288	4
NMHLD	15	0	1	96
NMTAP	15	96	3
NMTAP	15	192	2
NMTAP	15	192	4
NMTAP	15	288	3
NMTAP	15	288	5
NMHLD	16	0	6	96
NMTAP	16	96	7
NMHLD	16	192	1	96
NMSTR	16	288	0
NMSI_	16	288	0	96	120	4
EXTAP	17	240	3
EXTAP	17	240	5
EXTAP	17	288	3
EXTAP	17	288	5
BRTAP	18	0	2
BRTAP	18	0	6
NMTAP	18	96	1
NMTAP	18	144	1
NMTAP	18	192	3
NMTAP	18	240	3
NMTAP	18	288	2
NMTAP	18	336	2
NMTAP	19	0	7
NMTAP	19	48	7
NMTAP	19	96	3
NMTAP	19	144	3
NMTAP	19	192	6
NMTAP	19	240	6
NMHLD	19	288	4	96
NMTAP	20	0	5
NMTAP	20	96	6
NMTAP	20	144	6
NMTAP	20	192	4
NMTAP	20	240	4
NMTAP	20	288	5
NMTAP	20	336	5
NMTAP	21	0	0
NMTAP	21	48	0
NMTAP	21	96	4
NMTAP	21	144	4
NMTAP	21	192	2
NMTAP	21	240	2
NMTAP	21	288	2
NMTAP	21	288	3
BRTAP	22	0	1
BRTAP	22	0	4
NMTAP	22	96	4
NMTAP	22	96	5
NMTAP	22	192	6
NMTAP	22	240	6
NMTAP	22	288	7
NMTAP	23	0	2
NMTAP	23	0	7
NMTAP	23	96	0
NMTAP	23	96	1
EXTAP	23	192	2
EXTAP	23	240	2
EXTAP	23	288	1
EXTAP	23	288	3
NMSTR	24	0	0
NMSI_	24	0	0	96	96	4
NMSTR	24	192	6
NMSI_	24	192	6	96	96	2
NMTAP	25	0	1
NMTAP	25	96	1
NMTAP	25	96	3
NMTAP	25	192	2
NMTAP	25	192	4
NMTAP	25	240	2
NMTAP	25	240	4
NMTAP	25	288	2
NMTAP	25	288	4
NMTAP	26	0	5
NMTAP	26	24	4
NMTAP	26	48	5
NMTAP	26	72	4
NMTAP	26	96	5
NMTAP	26	192	2
NMTAP	26	216	3
NMTAP	26	240	2
NMTAP	26	264	3
NMTAP	26	288	2
NMHLD	27	0	1	48
NMHLD	27	0	3	48
NMHLD	27	96	2	48
NMHLD	27	96	4	48
NMHLD	27	192	3	48
NMHLD	27	192	5	48
NMTAP	27	288	4
NMTAP	27	288	6
NMTAP	28	0	5
NMTAP	28	24	4
NMTAP	28	48	5
NMTAP	28	72	4
NMTAP	28	96	5
NMTAP	28	192	2
NMTAP	28	216	3
NMTAP	28	240	2
NMTAP	28	264	3
NMTAP	28	288	2
NMHLD	29	0	1	48
NMHLD	29	0	3	48
NMHLD	29	96	2	48
NMHLD	29	96	4	48
NMHLD	29	192	3	48
NMHLD	29	192	5	48
NMTAP	29	288	4
NMTAP	29	288	6
NMTAP	30	0	6
NMTAP	30	24	7
NMTAP	30	48	6
NMTAP	30	72	7
NMTAP	30	96	6
NMTAP	30	192	1
NMTAP	30	216	0
NMTAP	30	240	1
NMTAP	30	264	0
NMTAP	30	288	1
NMHLD	31	0	2	48
NMHLD	31	0	7	48
NMHLD	31	96	1	48
NMHLD	31	96	6	48
NMHLD	31	192	0	48
NMHLD	31	192	5	48
NMTAP	31	288	0
NMTAP	31	288	5
NMTAP	32	0	6
NMTAP	32	48	6
NMTAP	32	96	0
NMTAP	32	144	0
NMTAP	32	192	7
NMTAP	32	240	7
NMTAP	32	288	1
NMTAP	32	336	1
NMHLD	33	0	0	96
NMHLD	33	0	7	96
NMTAP	33	144	0
NMTAP	33	144	7
NMTAP	33	240	1
NMTAP	33	240	6
NMTAP	33	288	1
NMSTR	33	288	6
NMSI_	33	288	6	96	48	2
BRSTR	34	0	0
NMSI_	34	0	0	96	48	4
NMTAP	34	96	7
NMTAP	34	192	5
NMTAP	34	240	5
NMTAP	34	288	4
NMTAP	34	288	6
NMHLD	35	0	2	72
NMTAP	35	72	3
NMTAP	35	144	1
NMTAP	35	144	4
EXTAP	35	192	1
EXTAP	35	192	4
BXTAP	35	240	0
BXTAP	35	240	5
BXSTR	35	288	6
NMSI_	35	288	6	96	48	2
BXTAP	35	288	7
NMSTR	36	0	0
NMSI_	36	0	0	96	48	4
NMTAP	36	96	7
NMTAP	36	192	5
NMTAP	36	240	5
NMTAP	36	288	4
NMTAP	36	288	6
NMHLD	37	0	2	72
NMTAP	37	72	3
NMTAP	37	144	1
NMTAP	37	144	4
NMTAP	37	192	1
NMTAP	37	192	4
BXTAP	37	240	0
BXTAP	37	240	5
BXTAP	37	288	6
BXTAP	37	288	7
NMTAP	38	0	1
NMTAP	38	48	1
NMTAP	38	96	0
NMHLD	38	144	2	96
NMTAP	38	240	3
NMTAP	38	288	1
NMTAP	38	288	4
NMTAP	39	0	5
NMTAP	39	48	5
NMTAP	39	96	4
NMHLD	39	144	6	96
NMTAP	39	240	7
NMTAP	39	288	0
NMTAP	39	288	5
NMTAP	40	0	2
NMTAP	40	0	3
NMTAP	40	96	0
NMTAP	40	96	1
NMTAP	40	192	6
NMTAP	40	192	7
NMTAP	40	288	4
NMTAP	40	288	5
NMTAP	41	0	2
NMTAP	41	48	2
NMTAP	41	96	3
NMTAP	41	144	1
NMTAP	41	192	7
NMTAP	41	240	7
BRSTR	41	288	0
BRSXR	41	288	0	96	384	2
BRTAP	41	288	6
NMSTR	44	0	5
NMSXR	44	0	5	96	408	0
NMSTR	46	0	1
NMSCL	46	0	1	96	192	6
NMSTR	47	0	5
NMSCL	47	0	5	96	192	2
NMTAP	48	0	1
NMTAP	48	96	1
NMTAP	48	192	1
NMTAP	48	192	2
NMTAP	48	288	2
NMTAP	48	288	3
NMHLD	49	0	3	96
NMHLD	49	0	4	96
NMTAP	49	192	3
NMTAP	49	192	4
NMTAP	49	240	3
NMTAP	49	240	4
NMSTR	49	288	3
NMSCL	49	288	3	96	144	0
NMSTR	49	288	4
NMSCR	49	288	4	96	144	7
BRTAP	50	288	1
BRTAP	50	288	6
NMTAP	51	0	2
NMTAP	51	48	2
NMTAP	51	96	3
NMSTR	51	144	4
NMSI_	51	144	4	96	48	0
NMTAP	51	240	1
NMHLD	51	288	1	96
NMTAP	52	0	7
NMTAP	52	48	7
NMTAP	52	96	0
NMTAP	52	144	0
NMTAP	52	192	1
NMTAP	52	192	7
BXTAP	52	240	2
BXTAP	52	240	6
BXTAP	52	288	3
BXTAP	52	288	5
NMTAP	53	0	5
NMTAP	53	48	5
NMTAP	53	96	4
NMSTR	53	144	3
NMSI_	53	144	3	96	48	7
NMTAP	53	240	6
NMHLD	53	288	6	96
NMTAP	54	0	0
NMTAP	54	48	0
NMTAP	54	96	7
NMTAP	54	144	7
NMTAP	54	192	0
NMTAP	54	192	6
BXTAP	54	240	1
BXTAP	54	240	5
BXTAP	54	288	2
BXTAP	54	288	4
NMTAP	55	0	2
NMTAP	55	48	2
NMTAP	55	96	3
NMSTR	55	144	4
NMSI_	55	144	4	96	48	0
NMTAP	55	240	1
NMHLD	55	288	1	96
NMTAP	56	0	7
NMTAP	56	48	7
NMTAP	56	96	2
NMTAP	56	144	2
NMTAP	56	192	2
NMTAP	56	192	3
BXTAP	56	240	1
BXTAP	56	240	4
BXTAP	56	288	0
BXTAP	56	288	5
NMSTR	57	0	0
NMSI_	57	0	0	96	48	4
NMSTR	57	0	5
NMSI_	57	0	5	96	48	0
NMSTR	57	192	2
NMSI_	57	192	2	96	48	7
NMSTR	57	192	7
NMSI_	57	192	7	96	48	3
BXTAP	58	0	0
BXTAP	58	0	4
NMTAP	58	96	0
NMTAP	58	96	4
NMTAP	58	192	2
NMTAP	58	192	6
BRTAP	58	288	4
BRTAP	58	288	5
NMTAP	59	0	4
NMTAP	59	0	5
NMTAP	59	48	6
NMTAP	59	96	7
NMSTR	59	144	0
NMSI_	59	144	0	96	48	4
NMTAP	59	240	5
NMHLD	59	288	5	96
NMTAP	60	0	4
NMTAP	60	48	4
NMTAP	60	96	7
NMTAP	60	144	7
NMTAP	60	192	0
NMTAP	60	192	1
BXTAP	60	240	2
BXTAP	60	240	7
BXTAP	60	288	3
BXTAP	60	288	6
NMTAP	61	0	2
NMTAP	61	0	3
NMTAP	61	48	1
NMTAP	61	96	0
NMSTR	61	144	7
NMSI_	61	144	7	96	48	3
NMTAP	61	240	1
NMHLD	61	288	1	96
NMTAP	62	0	3
NMTAP	62	48	3
NMTAP	62	96	0
NMTAP	62	144	0
NMTAP	62	192	1
NMTAP	62	192	7
NMTAP	62	240	2
NMTAP	62	240	6
NMTAP	62	288	3
NMTAP	62	288	5
NMTAP	63	0	2
NMTAP	63	48	2
NMTAP	63	96	3
NMHLD	63	144	1	96
NMTAP	63	240	0
NMTAP	63	288	2
NMTAP	63	288	7
NMTAP	64	0	5
NMTAP	64	48	5
NMTAP	64	96	4
NMHLD	64	144	6	96
NMTAP	64	240	7
EXTAP	64	288	0
EXTAP	64	288	5
NMTAP	65	0	6
NMTAP	65	48	6
NMTAP	65	96	1
NMTAP	65	144	1
NMTAP	65	192	7
NMTAP	65	216	0
NMTAP	65	240	7
NMTAP	65	264	0
NMTAP	65	288	7
NMTAP	65	312	0
NMTAP	65	336	7
NMTAP	65	360	0
NMSTR	66	0	7
NMSI_	66	0	7	96	48	3
NMSTR	66	96	1
NMSI_	66	96	1	96	48	5
NMTAP	66	192	7
BRTAP	66	288	7
BRTAP	67	0	0
BRTAP	67	0	6
NMTTP	67	96	4	E	0	M1
NMTTP	67	96	5	B	0	M1
NMTTP	67	192	0	E	0	M1
NMTTP	67	288	2	E	0	M1
NMTTP	67	288	3	B	0	M1
NMTTP	68	0	0	C	0	M1
NMTTP	68	96	4	B	0	M1
NMTTP	68	96	6	E	0	M1
NMTTP	68	192	0	E	0	M1
NMTTP	68	288	2	B	0	M1
NMTTP	68	288	4	E	0	M1
NMTTP	69	0	1	E	0	M1
NMTTP	69	96	5	B	0	M1
NMTTP	69	96	5	E	0	M1
NMTTP	69	96	6	E	0	M1
NMTTP	69	192	7	E	0	M1
NMTTP	69	288	2	B	0	M1
NMTTP	69	288	2	E	0	M1
NMTTP	69	288	3	E	0	M1
NMTHO	70	0	0	192	C	0	M1
EXTAP	70	288	0
EXTAP	70	288	7
NMTAP	71	0	1
NMTAP	71	0	6
NMTAP	71	96	3
NMTAP	71	96	4
NMHLD	71	192	5	96
NMHLD	71	288	4	96
NMHLD	72	0	3	96
NMHLD	72	96	2	96
NMTAP	72	192	4
NMTAP	72	240	4
NMSTR	72	288	2
NMSXR	72	288	2	96	288	5
NMTAP	72	288	4
NMTAP	73	288	7
NMHLD	73	336	7	96
NMTAP	74	48	0
NMHLD	74	96	0	96
NMTAP	74	192	7
NMTAP	74	240	7
NMSTR	74	288	0
NMSCR	74	288	0	96	192	7
NMTAP	74	288	6
BRTAP	75	288	1
BRTAP	75	288	6
EXTAP	76	0	6
EXTAP	76	0	7
NMTAP	76	48	5
NMTAP	76	96	3
NMTAP	76	96	4
NMTAP	76	144	2
NMTAP	76	192	0
NMTAP	76	192	1
NMTAP	76	240	2
NMTAP	76	288	3
NMTAP	76	288	4
NMTAP	76	336	5
NMSTR	77	0	6
NMSI_	77	0	6	96	48	3
NMSTR	77	96	2
NMSI_	77	96	2	96	48	7
NMTAP	77	192	5
BXTAP	77	240	6
BXTAP	77	288	6
EXTAP	78	0	0
EXTAP	78	0	1
NMTAP	78	48	2
NMTAP	78	96	3
NMTAP	78	96	4
NMTAP	78	144	5
NMTAP	78	192	6
NMTAP	78	192	7
NMTAP	78	240	5
NMTAP	78	288	3
NMTAP	78	288	4
NMTAP	78	336	2
NMSTR	79	0	1
NMSI_	79	0	1	96	48	4
NMSTR	79	96	5
NMSI_	79	96	5	96	48	0
NMTAP	79	192	2
NMTAP	79	288	1
NMTAP	79	288	7
NMTAP	80	0	4
NMTAP	80	0	5
NMTAP	80	48	6
NMTAP	80	96	0
NMTAP	80	96	7
NMTAP	80	144	1
NMTAP	80	192	2
NMTAP	80	192	3
NMTAP	80	240	1
NMTAP	80	288	0
NMTAP	80	288	7
NMTAP	80	336	6
NMSTR	81	0	5
NMSI_	81	0	5	96	48	0
NMSTR	81	96	1
NMSI_	81	96	1	96	48	4
NMTAP	81	192	6
BXTAP	81	240	7
BXTAP	81	288	7
NMTAP	82	0	0
NMTAP	82	0	5
NMTAP	82	96	1
NMTAP	82	144	1
NMTAP	82	144	3
NMTAP	82	240	5
NMTAP	82	288	4
NMTAP	82	288	6
BRTAP	82	336	3
BRTAP	82	336	7
NMTAP	83	48	2
NMTAP	83	96	1
NMTAP	83	96	3
NMSTR	83	144	0
NMSI_	83	144	0	96	48	4
NMTAP	83	144	4
NMTAP	83	240	7
NMSTR	83	288	7
NMSCL	83	288	7	96	576	0
BRTAP	84	0	3
NMHLD	86	0	2	96
NMHLD	86	0	3	96
NMHLD	86	144	3	96
NMHLD	86	144	4	96
NMTAP	86	288	5
NMTAP	86	336	5
NMHLD	87	0	5	96
NMTAP	87	96	4
NMTAP	87	144	3
NMTAP	87	144	6
EXTAP	87	240	0
EXTAP	87	240	7
EXTAP	87	288	0
EXTAP	87	288	7
NMTAP	88	0	1
NMTAP	88	48	1
NMTAP	88	96	3
NMTAP	88	144	3
NMTAP	88	192	4
NMTAP	88	240	4
NMTAP	88	288	6
NMTAP	88	336	6
NMTAP	89	0	2
NMTAP	89	48	2
NMTAP	89	96	0
NMTAP	89	144	0
NMTAP	89	192	7
NMTAP	89	240	7
NMTAP	89	288	5
NMTAP	89	336	5
NMTAP	90	0	3
NMTAP	90	24	4
NMTAP	90	48	3
NMTAP	90	72	4
NMTAP	90	96	3
NMTAP	90	120	4
NMTAP	90	144	3
NMTAP	90	168	4
NMTAP	90	192	2
NMTAP	90	216	5
NMTAP	90	240	2
NMTAP	90	264	5
NMTAP	90	288	1
NMTAP	90	312	6
NMTAP	90	336	1
NMTAP	90	360	6
BRTAP	91	0	0
NMTAP	91	96	1
NMTAP	91	96	7
NMTAP	91	144	1
NMTAP	91	144	7
BRTAP	91	240	3
BRTAP	91	240	5
BRTAP	91	288	2
BRSTR	91	288	6
NMSI_	91	288	6	96	48	2
EXHLD	92	0	0	288
EXTAP	92	288	4
EXTAP	92	336	1
EXTAP	92	336	5

T_REC_TAP	405
T_REC_BRK	23
T_REC_XTP	25
T_REC_BXX	31
T_REC_HLD	53
T_REC_XHO	1
T_REC_BHO	0
T_REC_BXH	0
T_REC_STR	31
T_REC_BST	3
T_REC_XST	0
T_REC_XBS	1
T_REC_TTP	19
T_REC_THO	1
T_REC_SLD	34
T_REC_BSL	1
T_REC_ALL	628
T_NUM_TAP	480
T_NUM_BRK	59
T_NUM_HLD	55
T_NUM_SLD	34
T_NUM_ALL	628
T_JUDGE_TAP	538
T_JUDGE_HLD	117
T_JUDGE_SLD	35
T_JUDGE_ALL	690
TTM_EACHPAIRS	139
TTM_SCR_TAP	240000
TTM_SCR_BRK	153400
TTM_SCR_HLD	55000
TTM_SCR_SLD	51000
TTM_SCR_ALL	499400
TTM_SCR_S	478700
TTM_SCR_SS	493500
TTM_RAT_ACV	10119

