VERSION	0.00.00	1.04.00
FES_MODE	0
BPM_DEF	102.000	102.000	102.000	102.000
MET_DEF	4	4
RESOLUTION	384
CLK_DEF	384
COMPATIBLE_CODE	MA2

BPM	0	0	102.000
MET	0	0	4	4

NMHLD	1	0	3	96
NMTTP	1	96	3	B	0	M1
NMHLD	1	192	2	96
NMTTP	1	288	2	B	0	M1
NMHLD	2	0	1	96
NMTTP	2	96	1	B	0	M1
NMHLD	2	192	0	96
NMTTP	2	288	0	B	0	M1
NMHLD	3	0	7	96
NMTTP	3	96	7	B	0	M1
NMHLD	3	192	6	96
NMTTP	3	288	6	B	0	M1
NMHLD	4	0	5	96
NMTTP	4	96	5	B	0	M1
NMHLD	4	192	6	96
NMTAP	4	288	4
NMTAP	5	0	5
NMHLD	5	32	5	48
NMHLD	5	48	4	32
NMTAP	5	192	3
NMHLD	5	224	3	48
NMHLD	5	240	4	32
NMTAP	6	0	2
NMHLD	6	32	2	48
NMHLD	6	48	3	48
NMTAP	6	144	2
NMTAP	6	144	3
NMTAP	6	192	4
NMHLD	6	224	4	48
NMHLD	6	240	3	48
NMTAP	6	336	3
NMTAP	6	336	4
NMTAP	7	0	5
NMHLD	7	32	5	48
NMHLD	7	48	4	32
NMTAP	7	192	2
NMHLD	7	224	2	48
NMHLD	7	240	3	32
NMTAP	8	0	5
NMHLD	8	32	5	48
NMHLD	8	48	4	48
NMTAP	8	144	3
NMTAP	8	144	4
NMTAP	8	192	2
NMHLD	8	224	2	48
NMHLD	8	240	3	48
NMTAP	8	336	0
NMTAP	8	336	7
NMSTR	9	0	1
NMSCR	9	0	1	96	32	3
NMHLD	9	48	7	32
NMSTR	9	192	5
NMSCR	9	192	5	96	32	7
NMHLD	9	240	3	32
NMSTR	10	0	1
NMSCR	10	0	1	96	32	3
NMHLD	10	48	7	32
NMSTR	10	192	6
NMSUL	10	192	6	96	32	2
NMHLD	10	240	0	32
NMSTR	11	0	1
NMSCR	11	0	1	96	32	3
NMTAP	11	32	1
NMHLD	11	48	0	32
NMSTR	11	192	4
NMSCR	11	192	4	96	32	6
NMTAP	11	224	4
NMHLD	11	240	3	32
NMSTR	12	0	0
NMSCR	12	0	0	96	32	2
NMTAP	12	32	0
NMHLD	12	48	7	32
NMSTR	12	192	2
NMSCL	12	192	2	96	32	0
NMTAP	12	224	2
NMHLD	12	240	3	32
CNSI_	12	320	0	0	32	6
NMHLD	13	0	4	336
NMTTP	13	96	7	A	0	M1
NMTTP	13	144	1	B	0	M1
NMTTP	13	192	6	B	0	M1
NMTTP	13	240	3	E	0	M1
NMTTP	13	288	5	E	0	M1
NMTTP	13	336	3	A	0	M1
NMTAP	14	0	3
NMTAP	14	32	3
NMHLD	14	48	5	48
NMTAP	14	96	2
NMTAP	14	128	2
NMHLD	14	144	4	48
NMTAP	14	192	1
NMTAP	14	224	1
NMHLD	14	240	3	48
NMTAP	14	288	0
NMTAP	14	320	0
NMHLD	14	336	2	48
NMHLD	15	0	6	48
NMHLD	15	96	3	48
NMHLD	15	96	7	48
NMHLD	15	192	0	48
NMHLD	15	192	4	48
NMHLD	15	288	1	48
NMHLD	15	288	5	48
NMTAP	16	0	2
NMTAP	16	32	2
NMTAP	16	48	3
NMTAP	16	80	3
NMTAP	16	96	4
NMTAP	16	128	4
NMTAP	16	144	5
NMTAP	16	176	5
NMTAP	16	192	6
NMTAP	16	224	6
NMTAP	16	240	7
NMSTR	16	288	1
NMSI_	16	288	1	96	32	4
NMSTR	16	288	6
NMSI_	16	288	6	96	32	3
NMTAP	16	336	0
NMTAP	16	336	7
EXTAP	17	0	1
EXTAP	17	0	6
EXSTR	17	96	0
NMSI_	17	96	0	96	48	4
NMTAP	17	112	1
NMTAP	17	128	2
EXTAP	17	144	0
NMTAP	17	160	7
NMTAP	17	176	6
EXTAP	17	192	0
EXTAP	17	288	6
NMTAP	17	304	4
NMTAP	17	320	5
EXTAP	17	336	3
NMTAP	17	352	5
NMTAP	17	368	4
NMHLD	18	0	6	96
NMSTR	18	96	4
NMSF_	18	96	4	96	48	0
NMTAP	18	144	1
NMTAP	18	144	7
EXTAP	18	192	4
NMHLD	18	288	6	96
NMTTP	18	320	2	B	0	M1
NMTTP	18	352	0	C	0	M1
NMTTP	19	0	6	B	0	M1
NMTTP	19	96	3	A	0	M1
NMSTR	19	96	5
NMSI_	19	96	5	96	32	2
NMTTP	19	104	3	D	0	M1
NMTTP	19	112	2	A	0	M1
NMTTP	19	120	2	D	0	M1
NMTTP	19	128	1	A	0	M1
NMTTP	19	136	1	D	0	M1
NMTTP	19	144	0	A	0	M1
NMTTP	19	152	0	D	0	M1
NMTTP	19	160	7	A	0	M1
NMTTP	19	168	7	D	0	M1
NMTTP	19	176	6	A	0	M1
NMTAP	19	288	0
NMTAP	19	288	1
NMTAP	19	336	2
NMTAP	19	336	4
NMTAP	19	368	0
NMTAP	19	368	7
NMHLD	20	0	0	48
NMHLD	20	0	7	48
EXSTR	20	96	7
NMSI_	20	96	7	96	32	2
EXTAP	20	112	6
EXTAP	20	128	5
EXTAP	20	144	4
EXTAP	20	160	3
EXTAP	20	176	2
EXSTR	20	192	7
NMSCL	20	192	7	96	32	4
EXSTR	20	288	7
NMSF_	20	288	7	96	32	3
EXTAP	21	0	7
NMTAP	21	96	3
NMTAP	21	128	4
NMTAP	21	144	2
NMTAP	21	176	3
NMTAP	21	192	1
NMTAP	21	224	4
NMTAP	21	240	2
NMTAP	21	272	2
NMSTR	21	288	4
NMSCR	21	288	4	96	32	0
NMTAP	21	336	3
NMTAP	21	336	5
NMSTR	22	0	0
NMSI_	22	0	0	96	32	4
EXTAP	22	0	4
EXTAP	22	96	0
EXSTR	22	96	4
NMSF_	22	96	4	96	32	0
BXTAP	22	192	4
NMHLD	22	288	1	32
NMHLD	22	288	7	32
NMTAP	22	336	2
NMTAP	22	336	6
EXHLD	23	0	0	96
EXSTR	23	0	5
NMSCL	23	0	5	96	48	2
NMTAP	23	48	7
EXSTR	23	192	2
NMSCR	23	192	2	96	48	5
EXHLD	23	192	7	96
NMTAP	23	240	0
EXSTR	24	0	1
NMSCL	24	0	1	96	48	6
EXHLD	24	0	4	96
NMTAP	24	48	3
CNSCR	24	144	6	0	48	1
NMSTR	24	192	5
NMSI_	24	192	5	96	32	2
NMTAP	24	240	4
NMTAP	24	288	2
NMSTR	25	0	0
NMSI_	25	0	0	96	32	4
NMTAP	25	0	1
NMTAP	25	48	0
NMSTR	25	48	7
NMSI_	25	48	7	96	32	5
NMSTR	25	192	2
NMSI_	25	192	2	96	32	5
NMSTR	25	240	5
NMSI_	25	240	5	96	32	2
NMSTR	26	0	6
NMSI_	26	0	6	96	32	3
NMSTR	26	48	0
NMSI_	26	48	0	96	32	2
NMTAP	26	48	7
CNSI_	26	176	2	0	48	7
CNSXR	26	224	7	0	112	3
NMSTR	27	0	4
NMSI_	27	0	4	96	32	0
NMSTR	27	48	3
NMSI_	27	48	3	96	32	1
NMTAP	27	48	4
NMTAP	27	96	2
NMSTR	27	192	6
NMSCR	27	192	6	96	32	0
NMTAP	27	240	4
NMTAP	27	240	5
NMTAP	27	288	3
CNSUL	27	320	0	0	48	4
NMSTR	28	0	1
NMSCR	28	0	1	96	32	4
NMTAP	28	48	0
NMSTR	28	48	7
NMSI_	28	48	7	96	32	5
CNSI_	28	176	5	0	48	0
CNSI_	28	224	0	0	16	4
CNSI_	28	240	4	0	16	1
CNSI_	28	256	1	0	64	3
NMSTR	29	0	1
NMSXR	29	0	1	96	96	6
NMSTR	29	48	2
NMSUR	29	48	2	96	96	5
NMSTR	29	288	7
NMSI_	29	288	7	96	32	3
NMTAP	29	336	0
NMTAP	29	336	6
EXSTR	30	0	7
NMSCR	30	0	7	96	32	2
EXSTR	30	96	7
NMSCL	30	96	7	96	32	4
EXSTR	30	192	7
NMSF_	30	192	7	96	32	3
EXTAP	30	288	7
BRSTR	31	0	3
NMSI_	31	0	3	96	192	7
BRTAP	31	0	5
NMTTP	31	96	0	D	0	M1
NMTTP	31	144	7	D	0	M1
NMTTP	31	192	6	D	0	M1
NMTTP	31	240	5	D	0	M1
NMTTP	31	288	4	D	0	M1
BRTAP	32	0	1
BRSTR	32	0	7
NMSI_	32	0	7	96	192	3
NMTTP	32	96	4	D	0	M1
NMTTP	32	144	3	D	0	M1
NMTTP	32	192	2	D	0	M1
NMTTP	32	240	1	D	0	M1
NMTTP	32	288	0	D	0	M1
BRHLD	33	0	4	48
BRSTR	33	0	5
NMSI_	33	0	5	96	32	2
NMTTP	33	96	0	C	0	M1
NMTTP	33	144	2	E	0	M1
BRHLD	33	192	0	48
BRSTR	33	192	1
NMSI_	33	192	1	96	32	6
NMTTP	33	288	0	C	0	M1
NMTTP	33	336	6	E	0	M1
NMSTR	34	0	2
NMSI_	34	0	2	96	32	5
NMSTR	34	48	6
NMSI_	34	48	6	96	32	1
EXTAP	34	96	2
EXTAP	34	144	6
NMSTR	34	192	4
NMSI_	34	192	4	96	32	1
NMSTR	34	240	0
NMSI_	34	240	0	96	32	5
EXTAP	34	288	4
EXTAP	34	336	0
EXSTR	35	0	0
NMSCR	35	0	0	96	1248	0
NMSLR	35	0	0	96	288	4
CNSLR	36	0	4	0	960	0
NMSTR	38	288	3
BRSSR	38	288	3	96	48	7
NMSTR	38	288	4
BRSSL	38	288	4	96	48	0
BRTAP	39	0	3
BRTAP	39	0	4
NMTTP	39	192	0	B	0	M1
NMTTP	39	192	0	C	1	M1
NMTTP	39	192	1	B	0	M1
NMTTP	39	192	2	B	0	M1
NMTTP	39	192	3	B	0	M1
NMTTP	39	192	4	B	0	M1
NMTTP	39	192	5	B	0	M1
NMTTP	39	192	6	B	0	M1
NMTTP	39	192	7	B	0	M1
NMTTP	40	0	0	C	1	M1
NMTTP	40	0	4	B	0	M1
NMTTP	40	0	4	A	0	M1
NMTTP	40	0	5	B	0	M1
NMTTP	40	0	5	E	0	M1
NMTTP	40	0	5	A	0	M1
NMTTP	40	96	0	C	1	M1
NMTTP	40	96	2	B	0	M1
NMTTP	40	96	2	A	0	M1
NMTTP	40	96	3	B	0	M1
NMTTP	40	96	3	E	0	M1
NMTTP	40	96	3	A	0	M1
NMTTP	40	192	0	B	0	M1
NMTTP	40	192	0	C	1	M1
NMTTP	40	192	0	E	0	M1
NMTTP	40	192	0	A	0	M1
NMTTP	40	192	7	B	0	M1
NMTTP	40	192	7	A	0	M1
NMSTR	41	0	2
NMSI_	41	0	2	96	32	0
NMSTR	41	96	3
NMSI_	41	96	3	96	32	7
NMSTR	41	192	4
NMSI_	41	192	4	96	32	6
NMTAP	41	288	0
NMTAP	41	336	0
NMSTR	42	0	5
NMSI_	42	0	5	96	32	7
NMSTR	42	96	4
NMSI_	42	96	4	96	32	0
NMSTR	42	192	3
NMSI_	42	192	3	96	32	1
NMTAP	42	288	7
NMTAP	42	336	7
NMSTR	43	0	3
NMSI_	43	0	3	96	32	1
NMSTR	43	48	4
NMSI_	43	48	4	96	32	6
NMSTR	43	96	3
NMSI_	43	96	3	96	32	7
NMSTR	43	144	4
NMSI_	43	144	4	96	32	0
NMSTR	43	192	3
NMSI_	43	192	3	96	32	1
NMSTR	43	240	4
NMSI_	43	240	4	96	32	6
NMTAP	43	288	3
NMTAP	43	336	4
NMSTR	44	0	2
NMSCL	44	0	2	96	32	0
NMTAP	44	32	3
NMTAP	44	64	3
EXTAP	44	96	2
NMSTR	44	96	5
NMSCR	44	96	5	96	32	7
NMTAP	44	128	4
NMTAP	44	160	4
NMTTP	44	192	1	E	0	M1
EXTAP	44	192	5
NMTTP	44	224	2	E	0	M1
NMTTP	44	256	3	E	0	M1
NMTTP	44	288	7	E	0	M1
NMTTP	44	320	6	E	0	M1
NMTTP	44	352	5	E	0	M1
NMSTR	45	0	3
NMSCR	45	0	3	96	32	6
EXTAP	45	96	2
EXSTR	45	96	3
NMSCL	45	96	3	96	32	0
EXTAP	45	192	3
EXTAP	45	192	4
NMTAP	45	288	7
NMTAP	45	320	4
NMTAP	45	336	5
NMSTR	45	368	3
NMSI_	45	368	3	96	64	5
NMHLD	46	0	4	192
CNSCR	46	144	5	0	16	7
CNSUR	46	160	7	0	32	5
NMTAP	46	288	4
NMTAP	46	288	5
NMTAP	46	320	2
NMTAP	46	320	3
NMTAP	46	352	0
NMTAP	46	352	1
NMHLD	47	0	7	96
NMSTR	47	96	3
NMSCR	47	96	3	96	64	1
NMTTP	47	104	3	D	0	M1
NMTTP	47	112	2	A	0	M1
NMTTP	47	120	2	D	0	M1
NMTTP	47	128	1	A	0	M1
NMTTP	47	136	1	D	0	M1
NMTTP	47	144	0	A	0	M1
NMTTP	47	152	0	D	0	M1
NMTTP	47	160	7	A	0	M1
NMTTP	47	168	7	D	0	M1
NMTTP	47	176	6	A	0	M1
EXTAP	47	288	2
NMTAP	47	336	1
NMTAP	47	336	3
NMHLD	48	0	3	48
NMHLD	48	0	5	48
EXSTR	48	96	4
NMSCR	48	96	4	96	32	7
NMTAP	48	112	3
NMTAP	48	128	4
EXTAP	48	144	2
NMTAP	48	160	4
NMTAP	48	176	1
EXSTR	48	192	4
NMSCL	48	192	4	96	32	1
EXSTR	48	288	4
NMSSL	48	288	4	96	48	0
EXTAP	49	0	4
EXTAP	49	96	1
NMTAP	49	112	2
NMTAP	49	128	3
EXTAP	49	144	0
NMTAP	49	160	7
NMTAP	49	176	6
EXTAP	49	192	1
EXSTR	49	192	5
NMSSR	49	192	5	96	48	1
NMTAP	49	240	2
NMSTR	49	288	3
NMSCL	49	288	3	96	32	7
EXSTR	50	0	3
NMSCR	50	0	3	96	32	7
EXSTR	50	96	3
NMSF_	50	96	3	96	32	7
EXTAP	50	192	3
NMHLD	50	288	0	32
NMHLD	50	288	6	32
NMTAP	50	336	1
NMTAP	50	336	5
EXSTR	51	0	3
NMSCL	51	0	3	96	48	0
EXHLD	51	0	6	96
NMTAP	51	48	4
EXHLD	51	192	1	96
EXSTR	51	192	4
NMSCR	51	192	4	96	48	7
NMTAP	51	240	3
NMTAP	52	0	0
NMTAP	52	32	0
NMTAP	52	48	7
NMTAP	52	80	7
NMSTR	52	96	0
NMSCL	52	96	0	96	48	4
NMSCR	52	96	0	96	48	3
NMTAP	52	128	0
NMTAP	52	144	7
NMTAP	52	288	3
NMTAP	52	288	4
NMTAP	52	320	1
NMTAP	52	336	7
NMSTR	53	0	2
NMSV_	53	0	2	96	48	0
NMSTR	53	0	6
NMSV_	53	0	6	96	48	4
NMTAP	53	48	0
NMTAP	53	48	4
NMSTR	53	192	1
NMSV_	53	192	1	96	48	2
NMSTR	53	192	5
NMSV_	53	192	5	96	48	6
NMTAP	53	240	2
NMTAP	53	240	6
NMSTR	54	0	3
NMSI_	54	0	3	96	32	1
NMSTR	54	0	7
NMSI_	54	0	7	96	32	5
NMSTR	54	48	1
NMSCL	54	48	1	96	32	0
NMSTR	54	48	5
NMSCL	54	48	5	96	32	4
CNSV_	54	176	0	0	48	2
CNSV_	54	176	4	0	48	6
NMTAP	54	288	0
NMTAP	54	288	7
NMTAP	54	336	1
NMTAP	54	336	6
NMSTR	55	0	2
NMSCR	55	0	2	96	32	3
NMSTR	55	0	5
NMSCR	55	0	5	96	32	7
NMTAP	55	48	1
NMTAP	55	48	4
CNSI_	55	128	3	0	32	0
CNSUR	55	128	7	0	32	4
NMSTR	55	192	1
NMSCL	55	192	1	96	32	7
NMSTR	55	192	4
NMSCL	55	192	4	96	32	3
NMTAP	55	240	2
NMTAP	55	240	5
CNSI_	55	320	3	0	32	6
CNSUL	55	320	7	0	32	2
NMSTR	56	0	1
NMSV_	56	0	1	96	48	7
NMSTR	56	0	5
NMSV_	56	0	5	96	48	3
NMSTR	56	48	3
NMSCR	56	48	3	96	48	6
NMSTR	56	48	7
NMSCR	56	48	7	96	48	2
NMTAP	56	240	0
NMTAP	56	288	3
NMTAP	56	288	7
NMTAP	56	336	1
NMTAP	56	336	5
NMSTR	57	0	2
NMSI_	57	0	2	96	32	7
NMSTR	57	0	3
NMSI_	57	0	3	96	32	6
NMSTR	57	48	6
NMSUR	57	48	6	96	64	4
NMSTR	57	48	7
NMSCR	57	48	7	96	64	3
NMSTR	57	288	3
BRSCL	57	288	3	96	32	7
BXSTR	58	0	3
BRSCR	58	0	3	96	32	7
NMTTP	58	6	2	A	1	M1
NMTTP	58	12	2	D	0	M1
NMTTP	58	18	1	A	0	M1
NMTTP	58	24	1	D	0	M1
NMTTP	58	30	0	A	0	M1
BXSTR	58	96	3
BRSCL	58	96	3	96	32	7
NMTTP	58	102	4	A	1	M1
NMTTP	58	108	5	D	0	M1
NMTTP	58	114	5	A	0	M1
NMTTP	58	120	6	D	0	M1
NMTTP	58	126	6	A	0	M1
BXTAP	58	192	3
NMTTP	58	198	2	A	1	M1
NMTTP	58	204	2	D	0	M1
NMTTP	58	210	1	A	0	M1
NMTTP	58	216	1	D	0	M1
NMTTP	58	222	0	A	0	M1
EXTAP	58	288	0
EXTAP	58	288	6
BRSTR	59	0	1
NMSI_	59	0	1	96	192	5
BRHLD	59	0	3	48
NMTTP	59	96	5	D	0	M1
NMTTP	59	144	6	D	0	M1
NMTTP	59	192	7	D	0	M1
NMTTP	59	240	0	D	0	M1
NMTTP	59	288	1	D	0	M1
BRHLD	60	0	4	48
BRSTR	60	0	6
NMSI_	60	0	6	96	192	2
NMTTP	60	96	3	D	0	M1
NMTTP	60	144	2	D	0	M1
NMTTP	60	192	1	D	0	M1
NMTTP	60	240	0	D	0	M1
NMTTP	60	288	7	D	0	M1
BRSTR	61	0	4
NMSI_	61	0	4	96	32	1
BRHLD	61	0	5	48
NMTTP	61	96	0	C	0	M1
NMTTP	61	144	1	E	0	M1
BRSTR	61	192	0
NMSI_	61	192	0	96	32	5
BRHLD	61	192	1	48
NMTTP	61	288	0	C	0	M1
NMTTP	61	336	5	E	0	M1
NMSTR	62	0	5
NMSI_	62	0	5	96	32	0
NMTAP	62	32	5
NMSTR	62	48	1
NMSI_	62	48	1	96	32	4
NMTAP	62	80	1
NMSTR	62	192	0
NMSCL	62	192	0	96	32	5
NMTAP	62	224	0
NMSTR	62	240	4
NMSCL	62	240	4	96	32	1
NMTAP	62	272	4
NMTHO	63	0	0	96	C	0	M1

T_REC_TAP	151
T_REC_BRK	4
T_REC_XTP	34
T_REC_BXX	2
T_REC_HLD	56
T_REC_XHO	5
T_REC_BHO	6
T_REC_BXH	0
T_REC_STR	79
T_REC_BST	8
T_REC_XST	21
T_REC_XBS	2
T_REC_TTP	113
T_REC_THO	1
T_REC_SLD	107
T_REC_BSL	5
T_REC_ALL	594
T_NUM_TAP	398
T_NUM_BRK	27
T_NUM_HLD	62
T_NUM_SLD	107
T_NUM_ALL	594
T_JUDGE_TAP	414
T_JUDGE_HLD	188
T_JUDGE_SLD	112
T_JUDGE_ALL	714
TTM_EACHPAIRS	73
TTM_SCR_TAP	199000
TTM_SCR_BRK	70200
TTM_SCR_HLD	62000
TTM_SCR_SLD	160500
TTM_SCR_ALL	491700
TTM_SCR_S	474350
TTM_SCR_SS	489000
TTM_RAT_ACV	10055

