VERSION	0.00.00	1.04.00
FES_MODE	0
BPM_DEF	102.000	102.000	102.000	102.000
MET_DEF	4	4
RESOLUTION	384
CLK_DEF	384
COMPATIBLE_CODE	MA2

BPM	0	0	102.000
MET	0	0	4	4

NMHLD	1	0	3	80
NMHLD	1	0	4	48
NMHLD	1	192	3	48
NMHLD	1	192	5	80
NMHLD	2	0	4	80
NMHLD	2	0	5	48
NMHLD	2	192	4	48
NMHLD	2	192	5	80
NMHLD	3	0	3	80
NMHLD	3	0	4	48
NMHLD	3	192	2	48
NMHLD	3	192	4	80
NMHLD	4	0	2	80
NMHLD	4	0	3	48
NMHLD	4	192	4	48
NMTAP	4	240	2
NMHLD	4	288	3	48
NMTAP	4	336	5
NMHLD	5	0	3	80
NMHLD	5	0	4	48
NMHLD	5	192	2	48
NMHLD	5	192	5	80
NMHLD	6	0	5	96
NMTAP	6	48	4
NMHLD	6	96	4	96
NMTAP	6	144	3
NMHLD	6	192	3	96
NMTAP	6	240	2
NMHLD	6	288	2	48
NMTAP	6	336	3
NMHLD	7	0	1	80
NMHLD	7	0	3	48
NMHLD	7	192	2	48
NMHLD	7	192	5	80
NMHLD	8	0	4	80
NMHLD	8	0	6	48
NMTAP	8	144	2
NMTAP	8	144	4
NMHLD	8	192	1	48
NMHLD	8	192	3	80
NMTAP	8	336	3
NMTAP	8	336	5
EXSTR	9	0	4
NMSXL	9	0	4	96	192	3
NMHLD	9	0	6	288
NMTAP	9	336	1
NMTAP	9	336	3
NMHLD	10	0	1	288
EXSTR	10	0	3
NMSXR	10	0	3	96	192	4
NMTAP	10	336	4
NMTAP	10	336	6
EXSTR	11	0	4
NMSXL	11	0	4	96	192	2
NMHLD	11	0	6	288
NMTAP	11	336	1
NMTAP	11	336	3
NMSTR	12	0	0
NMSI_	12	0	0	96	48	3
NMSTR	12	0	4
NMSI_	12	0	4	96	48	7
NMTTP	12	192	1	B	0	M1
NMTTP	12	192	2	E	0	M1
NMTTP	12	288	6	B	0	M1
NMTTP	12	288	6	E	0	M1
NMHLD	13	0	1	96
NMTAP	13	0	4
NMHLD	13	96	3	96
NMTAP	13	192	2
NMTAP	13	240	3
NMTAP	13	288	1
NMTAP	13	288	4
NMTAP	14	0	3
NMHLD	14	0	6	96
NMHLD	14	96	4	96
NMTAP	14	192	5
NMTAP	14	240	4
NMTAP	14	288	3
NMTAP	14	288	6
NMHLD	15	0	5	32
NMHLD	15	48	4	32
NMHLD	15	96	3	32
NMHLD	15	144	2	32
NMHLD	15	192	1	32
NMHLD	15	240	0	32
NMHLD	15	288	7	32
NMHLD	15	336	6	32
NMTAP	16	0	5
NMTAP	16	32	5
NMTAP	16	48	4
NMTAP	16	80	4
NMTAP	16	96	3
NMTAP	16	128	3
NMTAP	16	144	2
NMTAP	16	176	2
NMTAP	16	192	4
NMTAP	16	224	4
NMTAP	16	240	3
NMTAP	16	272	3
NMTAP	16	288	4
EXSTR	17	0	2
NMSUR	17	0	2	96	192	4
EXHLD	17	0	6	288
NMTAP	17	48	1
NMTAP	18	0	3
NMHLD	18	0	5	96
NMTAP	18	96	4
NMTAP	18	144	3
NMHLD	18	192	2	96
NMTAP	18	192	4
NMTTP	18	288	3	B	0	M1
NMTTP	18	288	3	E	0	M1
EXHLD	19	0	1	288
EXSTR	19	0	5
NMSUL	19	0	5	96	192	3
NMTAP	19	48	6
NMHLD	20	0	2	96
NMTAP	20	0	4
NMTAP	20	96	3
NMTAP	20	144	2
NMHLD	20	192	1	96
NMHLD	20	288	0	48
NMHLD	20	336	7	48
NMHLD	21	0	6	96
NMTAP	21	96	4
NMTAP	21	144	3
NMHLD	21	192	2	96
NMSTR	21	192	4
NMSV_	21	192	4	96	96	3
NMTAP	21	240	5
NMHLD	22	0	1	96
NMHLD	22	96	3	96
NMHLD	22	192	5	96
NMHLD	22	288	7	96
NMSTR	23	0	1
NMSCR	23	0	1	96	80	4
NMTAP	23	96	5
NMSTR	23	192	5
NMSCR	23	192	5	96	80	0
NMTAP	23	288	1
NMHLD	24	0	1	96
NMTAP	24	48	3
NMHLD	24	96	4	96
NMTAP	24	144	3
NMTAP	24	192	2
NMTAP	24	240	1
NMTAP	24	240	3
BRTAP	24	288	0
BRTAP	24	288	4
NMSTR	25	0	2
NMSXR	25	0	2	96	96	0
NMTAP	25	48	1
NMTAP	25	48	3
NMHLD	25	192	4	96
NMSTR	26	0	1
NMSI_	26	0	1	96	48	4
NMSTR	26	48	5
NMSI_	26	48	5	96	48	0
NMHLD	26	192	2	96
NMTAP	26	288	3
NMTAP	26	336	1
NMTAP	26	336	4
NMSTR	27	0	5
NMSXL	27	0	5	96	96	7
NMTAP	27	48	4
NMTAP	27	48	6
NMHLD	27	192	3	96
NMSTR	28	0	6
NMSI_	28	0	6	96	48	3
NMSTR	28	48	2
NMSI_	28	48	2	96	48	7
NMHLD	28	192	5	96
NMHLD	28	288	6	96
NMSTR	29	0	7
NMSI_	29	0	7	96	48	4
NMTAP	29	48	0
NMTAP	29	48	6
NMSTR	29	192	3
NMSI_	29	192	3	96	48	0
NMTAP	29	240	2
NMTAP	29	240	4
NMHLD	30	0	7	96
NMHLD	30	96	5	96
NMHLD	30	192	3	96
NMTAP	30	288	1
NMTAP	30	336	3
NMTAP	30	336	4
BXSTR	31	0	1
NMSLL	31	0	1	96	240	5
BXTAP	31	0	6
CNSLL	31	336	5	0	240	1
NMTTP	32	0	0	B	0	M1
NMTTP	32	0	1	B	0	M1
NMTTP	32	0	1	E	0	M1
CNSCL	32	192	1	0	528	1
NMTTP	33	0	6	B	0	M1
NMTTP	33	0	7	B	0	M1
NMTTP	33	0	7	E	0	M1
NMTTP	33	192	0	B	0	M1
NMTTP	33	192	0	C	0	M1
NMTTP	33	192	7	B	0	M1
NMHLD	34	0	2	32
NMHLD	34	0	3	32
NMHLD	34	48	3	32
NMHLD	34	48	4	32
NMHLD	34	96	4	32
NMHLD	34	96	5	32
NMHLD	34	144	3	32
NMHLD	34	144	4	32
NMTAP	34	192	2
NMTAP	34	224	2
NMTAP	34	240	5
NMTAP	34	272	5
BRTAP	34	288	2
NMTAP	34	336	1
NMTAP	34	336	6
NMTTP	35	0	1	E	0	M1
NMTTP	35	8	0	B	0	M1
NMTTP	35	192	5	E	0	M1
NMTTP	35	200	4	B	0	M1
NMTTP	36	0	3	E	0	M1
NMTTP	36	8	3	B	0	M1
NMTTP	36	192	7	E	0	M1
NMTTP	36	200	7	B	0	M1
NMTTP	37	0	1	D	0	M1
NMTTP	37	8	0	A	0	M1
NMTTP	37	192	5	D	0	M1
NMTTP	37	200	4	A	0	M1
NMTTP	38	0	3	D	0	M1
NMTTP	38	8	3	A	0	M1
NMTAP	38	192	3
NMTAP	38	288	2
NMTAP	38	288	4
NMSTR	39	0	1
NMSLR	39	0	1	96	96	5
NMTAP	39	96	5
NMSTR	39	192	6
NMSLL	39	192	6	96	96	2
NMTAP	39	288	2
NMHLD	40	0	1	96
NMHLD	40	96	7	96
NMHLD	40	192	5	96
NMHLD	40	288	3	96
NMHLD	41	0	1	48
NMHLD	41	96	1	48
NMHLD	41	96	3	48
NMHLD	41	192	2	48
NMHLD	41	192	4	48
NMHLD	41	288	2	48
NMHLD	41	288	4	48
NMHLD	42	0	3	48
NMHLD	42	0	5	48
NMHLD	42	96	3	48
NMHLD	42	96	5	48
NMHLD	42	192	4	48
NMHLD	42	192	6	48
NMHLD	42	288	4	48
NMHLD	42	288	6	48
NMHLD	43	0	5	32
NMHLD	43	0	6	32
NMHLD	43	48	4	32
NMHLD	43	48	5	32
NMHLD	43	96	3	32
NMHLD	43	96	4	32
NMHLD	43	144	2	32
NMHLD	43	144	3	32
NMHLD	43	192	1	32
NMHLD	43	192	2	32
NMHLD	43	240	2	32
NMHLD	43	240	3	32
NMHLD	43	288	3	32
NMHLD	43	288	4	32
NMHLD	43	336	4	32
NMHLD	43	336	5	32
EXTAP	44	0	3
EXTAP	44	0	4
EXTAP	44	32	3
EXTAP	44	32	4
EXTAP	44	64	3
EXTAP	44	64	4
EXTAP	44	96	2
EXTAP	44	96	5
EXTAP	44	128	2
EXTAP	44	128	5
EXTAP	44	160	2
EXTAP	44	160	5
NMTHO	44	192	0	192	C	1	M1
NMTTP	45	0	2	B	0	M1
NMTTP	45	0	5	B	0	M1
BXSTR	45	96	0
NMSUR	45	96	0	96	144	3
BXSTR	45	96	7
NMSXR	45	96	7	96	144	4
NMTAP	46	0	3
NMTAP	46	0	4
NMSTR	46	96	1
NMSI_	46	96	1	96	48	6
NMSTR	46	144	5
NMSI_	46	144	5	96	48	2
NMHLD	46	288	7	48
NMHLD	46	336	3	48
NMSTR	47	0	1
NMSCR	47	0	1	96	80	4
NMTAP	47	96	5
NMSTR	47	192	5
NMSV_	47	192	5	96	96	3
NMTAP	47	240	4
NMTAP	47	240	6
NMHLD	48	0	2	96
NMHLD	48	96	1	48
NMHLD	48	144	0	48
NMTAP	48	192	7
NMTAP	48	240	6
NMSTR	48	288	7
NMSF_	48	288	7	96	48	3
NMTAP	48	336	0
NMTAP	48	336	6
BXTAP	49	96	1
BXTAP	49	96	5
NMSTR	49	192	0
NMSI_	49	192	0	96	48	3
NMSTR	49	240	4
NMSI_	49	240	4	96	48	7
NMHLD	50	0	2	96
NMHLD	50	96	0	96
NMHLD	50	192	6	96
NMHLD	50	288	4	96
NMSTR	51	0	3
NMSI_	51	0	3	96	48	6
NMSTR	51	48	2
NMSI_	51	48	2	96	48	7
NMTAP	51	192	4
NMTAP	51	240	4
NMTAP	51	288	3
NMHLD	51	288	5	96
NMSTR	52	0	6
NMSI_	52	0	6	96	48	3
NMSTR	52	48	7
NMSI_	52	48	7	96	48	2
NMTAP	52	192	4
NMTAP	52	240	3
BRTAP	52	288	1
BRTAP	52	288	6
NMSTR	53	0	0
NMSUL	53	0	0	96	48	4
NMSUR	53	0	0	96	48	4
NMTAP	53	48	1
NMTAP	53	48	7
NMSTR	53	192	3
NMSUL	53	192	3	96	48	7
NMSUR	53	192	3	96	48	7
NMTAP	53	240	2
NMTAP	53	240	4
NMSTR	54	0	1
NMSCL	54	0	1	96	48	7
NMSTR	54	48	5
NMSCL	54	48	5	96	48	3
EXHLD	54	192	7	96
NMTAP	54	288	3
NMTAP	54	336	1
NMTAP	54	336	5
NMSTR	55	0	7
NMSUL	55	0	7	96	48	3
NMSUR	55	0	7	96	48	3
NMTAP	55	48	0
NMTAP	55	48	6
NMSTR	55	192	4
NMSUL	55	192	4	96	48	0
NMSUR	55	192	4	96	48	0
NMTAP	55	240	3
NMTAP	55	240	5
NMSTR	56	0	2
NMSCR	56	0	2	96	48	4
NMSTR	56	48	6
NMSCR	56	48	6	96	48	0
EXHLD	56	192	4	96
NMTAP	56	288	5
NMTAP	56	336	4
NMTAP	56	336	5
NMTAP	57	0	3
NMTAP	57	0	4
NMHLD	57	48	2	48
NMTAP	57	48	3
NMSTR	57	96	1
NMSI_	57	96	1	96	48	4
NMSTR	57	144	0
NMSI_	57	144	0	96	48	5
NMTAP	57	288	3
NMTAP	57	336	2
NMSTR	58	0	1
NMSCR	58	0	1	96	48	3
NMSTR	58	0	5
NMSCR	58	0	5	96	48	7
NMTAP	58	48	0
NMTAP	58	48	4
NMTAP	58	192	0
NMTAP	58	192	2
NMTAP	58	240	0
NMTAP	58	240	7
NMTAP	58	288	5
NMTAP	58	288	7
NMTAP	58	336	3
NMTAP	58	336	4
BXSTR	59	0	1
NMSLL	59	0	1	96	240	5
BXTAP	59	0	6
NMTTP	59	288	4	B	0	M1
NMTTP	59	288	5	B	0	M1
NMTTP	59	288	5	E	0	M1
CNSLL	59	336	5	0	240	1
NMTTP	60	0	0	B	0	M1
NMTTP	60	0	1	B	0	M1
NMTTP	60	0	1	E	0	M1
CNSCL	60	192	1	0	528	1
NMTTP	60	288	2	B	0	M1
NMTTP	60	288	3	B	0	M1
NMTTP	60	288	3	E	0	M1
NMTTP	61	0	6	B	0	M1
NMTTP	61	0	7	B	0	M1
NMTTP	61	0	7	E	0	M1
NMTTP	61	192	0	B	0	M1
NMTTP	61	192	0	C	0	M1
NMTTP	61	192	7	B	0	M1
NMHLD	62	0	2	32
NMHLD	62	0	3	32
NMHLD	62	48	3	32
NMHLD	62	48	4	32
NMHLD	62	96	4	32
NMHLD	62	96	5	32
NMHLD	62	144	3	32
NMHLD	62	144	4	32
NMTAP	62	192	2
NMTAP	62	224	2
NMTAP	62	240	5
NMTAP	62	272	5
NMTAP	62	288	2
NMTAP	62	336	3
NMTAP	62	336	4
BRTAP	63	0	0
BRHLD	63	0	7	528
NMTTP	63	96	1	E	0	M1
NMTTP	63	144	7	E	0	M1
NMTTP	63	192	1	B	0	M1
NMTTP	63	240	6	B	0	M1
NMTTP	63	288	2	B	0	M1
NMTTP	63	336	5	B	0	M1
NMTTP	64	0	3	E	0	M1
NMTTP	64	48	5	E	0	M1
NMTTP	64	96	3	A	0	M1
NMTTP	64	144	4	A	0	M1

T_REC_TAP	133
T_REC_BRK	6
T_REC_XTP	12
T_REC_BXX	4
T_REC_HLD	131
T_REC_XHO	4
T_REC_BHO	1
T_REC_BXH	0
T_REC_STR	38
T_REC_BST	0
T_REC_XST	5
T_REC_XBS	4
T_REC_TTP	56
T_REC_THO	1
T_REC_SLD	51
T_REC_BSL	0
T_REC_ALL	446
T_NUM_TAP	244
T_NUM_BRK	15
T_NUM_HLD	136
T_NUM_SLD	51
T_NUM_ALL	446
T_JUDGE_TAP	258
T_JUDGE_HLD	454
T_JUDGE_SLD	51
T_JUDGE_ALL	763
TTM_EACHPAIRS	96
TTM_SCR_TAP	122000
TTM_SCR_BRK	39000
TTM_SCR_HLD	136000
TTM_SCR_SLD	76500
TTM_SCR_ALL	373500
TTM_SCR_S	360850
TTM_SCR_SS	372000
TTM_RAT_ACV	10040

