VERSION	0.00.00	1.04.00
FES_MODE	0
BPM_DEF	170.000	170.000	170.000	170.000
MET_DEF	4	4
RESOLUTION	384
CLK_DEF	384
COMPATIBLE_CODE	MA2

BPM	0	0	170.000
MET	0	0	4	4

NMSTR	2	0	0
NMSI_	2	0	0	96	48	3
NMSTR	2	0	7
NMSI_	2	0	7	96	48	4
NMTAP	2	96	0
NMTAP	2	96	7
NMTAP	2	192	2
NMTAP	2	192	6
NMTAP	2	264	1
NMTAP	2	264	7
NMTAP	2	336	1
NMTAP	2	336	7
NMTAP	3	0	0
NMTAP	3	0	6
NMTAP	3	72	1
NMTAP	3	72	5
NMTAP	3	144	2
NMTAP	3	144	4
NMSTR	3	192	2
NMSI_	3	192	2	96	48	4
NMTAP	3	192	4
BXTAP	3	240	7
BXTAP	3	288	7
NMTAP	4	0	6
NMTAP	4	24	4
NMTAP	4	48	6
NMTAP	4	72	4
NMTAP	4	96	6
NMTAP	4	144	7
NMTAP	4	192	0
NMSTR	4	240	1
NMSI_	4	240	1	96	48	4
NMSTR	4	336	5
NMSI_	4	336	5	96	48	2
NMSTR	5	48	0
NMSI_	5	48	0	96	48	3
NMSI_	5	48	0	96	48	5
NMTAP	5	240	2
NMTAP	5	240	6
NMTAP	5	288	2
NMTAP	5	288	6
NMTAP	6	0	5
NMTAP	6	24	4
NMTAP	6	48	5
NMTAP	6	72	4
NMTAP	6	96	5
NMTAP	6	144	6
NMTAP	6	192	7
NMSTR	6	240	3
NMSCL	6	240	3	96	48	0
NMTAP	6	336	5
NMTAP	7	48	6
NMTAP	7	96	6
NMTAP	7	144	0
NMTAP	7	144	6
BRTAP	7	240	7
BRTAP	7	288	7
NMTAP	8	0	1
NMTAP	8	24	3
NMTAP	8	48	1
NMTAP	8	72	3
NMTAP	8	96	1
NMTAP	8	144	0
NMTAP	8	192	7
NMSTR	8	240	6
NMSI_	8	240	6	96	48	3
NMSTR	8	336	2
NMSI_	8	336	2	96	48	5
NMSTR	9	48	7
NMSI_	9	48	7	96	48	2
NMSI_	9	48	7	96	48	4
NMTAP	9	240	1
NMTAP	9	240	5
NMTAP	9	288	1
NMTAP	9	288	5
NMTAP	10	0	2
NMTAP	10	24	3
NMTAP	10	48	2
NMTAP	10	72	3
NMTAP	10	96	2
NMTAP	10	144	1
NMTAP	10	192	0
NMSTR	10	240	4
NMSCR	10	240	4	96	48	7
NMTAP	10	336	2
NMTAP	11	48	1
NMTAP	11	96	1
NMTAP	11	144	1
NMTAP	11	144	7
BRTAP	11	240	0
BRTAP	11	288	0
NMSTR	12	0	1
NMSI_	12	0	1	96	48	3
NMTAP	12	48	1
NMTAP	12	96	5
NMSTR	12	192	2
NMSI_	12	192	2	96	48	4
NMTAP	12	240	2
NMTAP	12	288	6
NMSTR	13	0	1
NMSI_	13	0	1	96	48	3
NMTAP	13	48	1
NMTAP	13	96	5
NMSTR	13	192	0
NMSI_	13	192	0	96	48	3
NMTAP	13	240	0
NMTAP	13	288	4
NMSTR	14	0	2
NMSI_	14	0	2	96	48	4
NMTAP	14	48	2
NMTAP	14	96	5
NMTAP	14	192	1
NMTAP	14	240	1
NMSTR	14	288	4
BRSCR	14	288	4	96	144	3
NMTAP	14	336	4
EXTAP	15	0	3
EXTAP	15	240	0
EXTAP	15	240	7
EXTAP	15	288	0
EXTAP	15	288	7
NMSTR	16	0	3
NMSCL	16	0	3	96	48	1
NMSTR	16	0	6
NMSCL	16	0	6	96	48	4
NMTAP	16	48	7
NMSTR	16	192	1
NMSCR	16	192	1	96	48	3
NMSTR	16	192	4
NMSCR	16	192	4	96	48	6
NMTAP	16	240	0
NMSTR	17	0	3
NMSCL	17	0	3	96	48	1
NMSTR	17	0	6
NMSCL	17	0	6	96	48	4
NMTAP	17	48	7
NMSTR	17	192	1
NMSCR	17	192	1	96	48	3
NMSTR	17	192	4
NMSCR	17	192	4	96	48	6
NMTAP	17	240	0
NMTAP	18	0	3
NMTAP	18	0	6
NMTAP	18	96	0
NMTAP	18	96	7
NMTAP	18	144	0
NMSTR	18	144	7
NMSXR	18	144	7	96	144	7
NMHLD	18	240	1	336
NMTTP	19	192	3	B	0	M1
NMTTP	19	192	4	B	0	M1
NMTTP	19	192	4	E	0	M1
BXTAP	19	288	0
BXTAP	19	288	7
NMSTR	20	0	5
NMSI_	20	0	5	96	48	7
NMTAP	20	48	5
NMTAP	20	96	4
NMTAP	20	144	3
NMSTR	20	192	2
NMSI_	20	192	2	96	48	0
NMTAP	20	240	2
NMTAP	20	288	3
NMTAP	20	336	4
NMSTR	21	0	5
NMSI_	21	0	5	96	48	0
NMTAP	21	48	5
NMTAP	21	96	4
NMTAP	21	144	3
NMSTR	21	192	2
NMSI_	21	192	2	96	48	7
NMTAP	21	240	2
NMTAP	21	288	3
NMTAP	21	336	4
NMSTR	22	0	5
NMSI_	22	0	5	96	48	0
NMTAP	22	48	5
NMTAP	22	96	4
NMTAP	22	144	3
NMTAP	22	192	2
NMTAP	22	240	2
NMSTR	22	288	4
NMSXL	22	288	4	96	144	3
NMTAP	23	0	3
NMTAP	23	96	0
NMHLD	23	144	0	96
NMTAP	23	240	2
NMTAP	23	288	2
NMSTR	24	0	3
NMSI_	24	0	3	96	48	7
NMTAP	24	96	2
NMTAP	24	96	3
NMSTR	24	192	3
NMSI_	24	192	3	96	48	7
NMTAP	24	288	2
NMTAP	24	288	3
NMSTR	25	0	3
NMSI_	25	0	3	96	48	7
NMTAP	25	96	2
NMTAP	25	96	3
NMSTR	25	192	3
NMSI_	25	192	3	96	48	7
NMTAP	25	288	1
NMTAP	25	288	3
NMSTR	26	0	0
NMSXL	26	0	0	96	144	0
NMTAP	26	96	6
NMTAP	26	144	6
NMHLD	26	240	7	96
NMTAP	26	336	0
NMTAP	27	48	3
NMTAP	27	48	5
NMTAP	27	96	3
NMTAP	27	96	5
NMTAP	27	192	2
NMTAP	27	192	4
NMTAP	27	288	1
NMTAP	27	288	5
NMTAP	28	0	0
NMTAP	28	0	7
NMTAP	28	96	1
NMTAP	28	96	6
NMTHO	28	192	0	288	C	1	M1
NMTTP	28	192	3	B	0	M1
NMTTP	28	192	4	B	0	M1
NMTTP	28	192	4	E	0	M1
NMTTP	28	192	4	D	0	M1
NMTTP	29	0	2	B	0	M1
NMTTP	29	0	3	B	0	M1
NMTTP	29	0	4	B	0	M1
NMTTP	29	0	5	B	0	M1
NMTTP	29	96	1	B	0	M1
NMTTP	29	96	2	E	0	M1
NMTTP	29	96	6	B	0	M1
NMTTP	29	96	6	E	0	M1
NMTAP	29	192	0
BRTAP	29	288	0
BRTAP	29	288	7
NMTAP	30	0	2
NMTAP	30	0	5
NMSTR	30	96	3
BRSCL	30	96	3	96	96	4
NMTAP	30	96	4
NMTTP	30	192	0	C	1	M1
EXHLD	31	0	1	96
EXHLD	31	0	6	96
NMTAP	31	192	3
NMTAP	31	240	3
NMTAP	31	288	2
NMTAP	31	288	4
NMTAP	31	336	5
NMSTR	32	0	6
NMSCR	32	0	6	96	48	1
NMTAP	32	48	4
NMTAP	32	96	4
NMSTR	32	192	2
NMSUL	32	192	2	96	48	6
NMTAP	32	240	4
NMTAP	32	288	4
NMSTR	33	0	5
NMSUR	33	0	5	96	48	1
NMTAP	33	48	4
NMTAP	33	96	4
NMTAP	33	192	3
NMTAP	33	240	3
NMSTR	33	288	2
BRSCL	33	288	2	96	192	5
NMTAP	33	288	4
NMTAP	34	0	3
NMTAP	34	96	3
NMTAP	34	192	4
NMTAP	34	240	4
NMTAP	34	288	3
NMTAP	34	288	4
NMTAP	35	0	2
NMTAP	35	0	5
NMSTR	35	48	3
NMSI_	35	48	3	96	48	0
NMSTR	35	48	4
NMSI_	35	48	4	96	48	7
BXTAP	35	240	0
BXTAP	35	240	7
EXTAP	35	288	0
EXTAP	35	288	7
NMSTR	36	0	0
NMSCR	36	0	0	96	96	4
NMTAP	36	48	7
NMTAP	36	96	7
NMTAP	36	144	7
NMSTR	36	192	6
NMSCL	36	192	6	96	96	2
NMTAP	36	240	7
NMTAP	36	288	7
NMTAP	36	336	7
NMSTR	37	0	0
NMSCR	37	0	0	96	96	4
NMTAP	37	48	7
NMTAP	37	96	7
NMTAP	37	144	7
EXTAP	37	192	6
BXTAP	37	240	6
BXSTR	37	288	6
NMSXR	37	288	6	96	192	3
NMTAP	38	0	2
NMTAP	38	48	2
NMTAP	38	96	1
NMTAP	38	144	1
NMTAP	38	192	0
NMTAP	38	240	0
NMTAP	38	288	1
NMTAP	38	288	3
NMSTR	39	0	4
NMSI_	39	0	4	96	48	1
NMSTR	39	0	5
NMSI_	39	0	5	96	48	7
NMTAP	39	96	4
NMTAP	39	96	5
EXTAP	39	240	0
EXTAP	39	240	7
EXTAP	39	288	0
EXTAP	39	288	7
NMSTR	40	0	7
NMSCL	40	0	7	96	96	3
NMTAP	40	48	0
NMTAP	40	96	0
NMTAP	40	144	0
NMSTR	40	192	1
NMSCR	40	192	1	96	96	5
NMTAP	40	240	0
NMTAP	40	288	0
NMTAP	40	336	0
NMSTR	41	0	7
NMSCL	41	0	7	96	96	3
NMTAP	41	48	0
NMTAP	41	96	0
NMTAP	41	144	0
NMSTR	41	192	1
NMSI_	41	192	1	96	48	5
BXTAP	41	240	7
BXTAP	41	288	7
NMHLD	42	0	3	48
NMHLD	42	0	6	48
NMHLD	42	96	1	48
NMHLD	42	96	4	48
NMSTR	42	192	2
NMSI_	42	192	2	96	48	0
NMSTR	42	192	5
NMSI_	42	192	5	96	48	7
NMTAP	42	288	2
NMTAP	42	288	5
EXTAP	43	0	0
EXHLD	43	0	7	1056
NMTAP	43	96	4
NMTAP	43	144	4
NMTAP	43	192	4
NMTAP	43	288	2
BRTAP	44	0	0
NMTTP	44	96	5	B	0	M1
NMTTP	44	96	5	A	0	M1
NMTTP	44	96	6	B	0	M1
NMTTP	44	96	6	E	0	M1
NMTTP	44	96	6	A	0	M1
NMTTP	44	96	6	D	1	M1
BRTAP	44	192	0
NMTTP	44	288	5	B	0	M1
NMTTP	44	288	5	A	0	M1
NMTTP	44	288	6	B	0	M1
NMTTP	44	288	6	E	0	M1
NMTTP	44	288	6	A	0	M1
NMTTP	44	288	6	D	1	M1
BRTAP	45	0	0
NMTTP	45	96	5	B	0	M1
NMTTP	45	96	5	A	0	M1
NMTTP	45	96	6	B	0	M1
NMTTP	45	96	6	E	0	M1
NMTTP	45	96	6	A	0	M1
NMTTP	45	96	6	D	1	M1
BXTAP	45	192	1
NMTTP	45	240	2	B	0	M1
NMTTP	45	240	2	A	0	M1
NMTTP	45	240	3	B	0	M1
NMTTP	45	240	3	E	0	M1
NMTTP	45	240	3	A	0	M1
NMTTP	45	240	3	D	1	M1
NMTTP	45	288	4	B	0	M1
NMTTP	45	288	4	A	0	M1
NMTTP	45	288	5	B	0	M1
NMTTP	45	288	5	E	0	M1
NMTTP	45	288	5	A	0	M1
NMTTP	45	288	5	D	1	M1
NMSTR	46	0	0
NMSI_	46	0	0	96	48	3
NMSTR	46	0	6
NMSI_	46	0	6	96	48	3
NMTAP	46	96	0
NMTAP	46	96	6
NMSTR	46	192	1
NMSI_	46	192	1	96	48	4
NMSTR	46	192	7
NMSI_	46	192	7	96	48	4
NMTAP	46	288	1
NMTAP	46	288	7
NMTAP	47	0	0
NMTAP	47	0	6
NMTAP	47	48	0
NMTAP	47	48	6
EXSTR	47	96	1
NMSCR	47	96	1	96	48	4
EXTAP	47	96	5
EXTAP	47	144	1
EXTAP	47	144	5
EXTAP	47	192	6
BRTAP	47	240	7
BRHLD	47	288	7	768
BRTAP	48	0	0
NMTTP	48	96	5	B	0	M1
NMTTP	48	96	5	A	0	M1
NMTTP	48	96	6	B	0	M1
NMTTP	48	96	6	E	0	M1
NMTTP	48	96	6	A	0	M1
NMTTP	48	96	6	D	1	M1
BRTAP	48	192	0
NMTTP	48	288	5	B	0	M1
NMTTP	48	288	5	A	0	M1
NMTTP	48	288	6	B	0	M1
NMTTP	48	288	6	E	0	M1
NMTTP	48	288	6	A	0	M1
NMTTP	48	288	6	D	1	M1
BRTAP	49	0	0
NMTTP	49	96	5	B	0	M1
NMTTP	49	96	5	A	0	M1
NMTTP	49	96	6	B	0	M1
NMTTP	49	96	6	E	0	M1
NMTTP	49	96	6	A	0	M1
NMTTP	49	96	6	D	1	M1
BXTAP	49	192	1
NMTTP	49	240	2	B	0	M1
NMTTP	49	240	2	A	0	M1
NMTTP	49	240	3	B	0	M1
NMTTP	49	240	3	E	0	M1
NMTTP	49	240	3	A	0	M1
NMTTP	49	240	3	D	1	M1
NMTTP	49	288	4	B	0	M1
NMTTP	49	288	4	A	0	M1
NMTTP	49	288	5	B	0	M1
NMTTP	49	288	5	E	0	M1
NMTTP	49	288	5	A	0	M1
NMTTP	49	288	5	D	1	M1
NMTAP	50	0	0
NMTAP	50	0	6
NMTAP	50	48	0
NMTAP	50	48	6
NMTAP	50	96	1
NMTAP	50	96	5
NMTAP	50	144	1
NMTAP	50	144	5
NMTAP	50	192	2
NMTAP	50	192	4
NMTAP	50	240	2
NMTAP	50	240	4
NMSTR	50	288	3
BRSF_	50	288	3	96	96	7
NMHLD	51	192	0	96
NMTAP	51	192	6
BRTAP	51	288	7
NMTAP	52	0	5
NMTAP	52	24	4
NMTAP	52	48	5
NMTAP	52	72	4
NMSTR	52	96	5
NMSCR	52	96	5	96	48	0
NMTAP	52	144	3
NMTAP	52	192	3
NMSTR	52	240	2
NMSI_	52	240	2	96	48	7
NMSTR	52	336	6
NMSI_	52	336	6	96	48	3
NMSTR	53	48	1
NMSI_	53	48	1	96	48	5
NMSTR	53	144	4
NMSI_	53	144	4	96	48	7
NMTAP	53	240	3
NMTAP	53	288	3
NMTAP	54	0	2
NMTAP	54	24	3
NMTAP	54	48	2
NMTAP	54	72	3
NMSTR	54	96	2
NMSCL	54	96	2	96	48	7
NMTAP	54	144	4
NMTAP	54	192	5
NMTAP	54	240	5
NMTAP	54	336	4
NMTAP	54	336	6
BRTAP	55	0	4
BRTAP	55	0	6
BRTAP	55	96	1
BRTAP	55	96	3
BRTAP	55	192	6
BRTAP	55	192	7
BRTAP	55	288	0
BRTAP	55	288	1
NMSTR	56	0	4
BRSF_	56	0	4	96	48	0
NMTAP	56	24	3
NMTAP	56	48	5
EXTAP	56	192	1
EXTAP	56	192	7
EXTAP	56	240	1
EXSTR	56	240	7
NMSI_	56	240	7	96	48	3
NMSTR	56	336	2
NMSI_	56	336	2	96	48	5
NMSTR	57	48	6
NMSI_	57	48	6	96	48	1
NMSTR	57	144	3
NMSI_	57	144	3	96	48	0
NMTAP	57	240	4
NMTAP	57	288	4
NMTAP	58	0	5
NMTAP	58	24	4
NMTAP	58	48	5
NMTAP	58	72	4
NMSTR	58	96	5
NMSCR	58	96	5	96	48	0
NMTAP	58	144	3
NMTAP	58	192	2
NMSTR	58	240	1
NMSI_	58	240	1	96	48	5
NMTAP	58	336	1
NMHLD	58	336	7	336
NMTAP	59	288	0
NMTAP	60	0	2
NMTAP	60	0	4
NMTAP	60	96	2
NMTAP	60	96	4
NMHLD	60	192	1	72
NMHLD	60	264	2	72
NMTAP	60	336	3
NMHLD	61	0	4	72
NMHLD	61	72	5	72
NMTAP	61	144	6
NMSTR	61	192	7
NMSI_	61	192	7	96	48	1
NMSI_	61	192	7	96	48	5
NMTAP	62	0	2
NMTAP	62	0	4
NMTAP	62	96	3
NMTAP	62	96	5
NMHLD	62	192	6	72
NMHLD	62	264	5	72
NMTAP	62	336	4
NMHLD	63	0	3	72
NMHLD	63	72	2	72
NMTAP	63	144	1
NMSTR	63	192	0
NMSUR	63	192	0	96	48	4
NMTAP	63	192	7
NMTAP	63	288	5
NMSTR	64	0	6
NMSLL	64	0	6	96	96	0
NMTAP	64	48	6
NMTAP	64	96	2
NMTAP	64	144	2
NMSTR	64	192	1
NMSLR	64	192	1	96	96	7
NMTAP	64	240	1
NMTAP	64	288	5
NMTAP	64	336	5
NMSTR	65	0	6
NMSLL	65	0	6	96	96	0
NMTAP	65	48	6
NMTAP	65	96	2
NMTAP	65	144	2
NMSTR	65	192	1
NMSLR	65	192	1	96	96	7
NMTAP	65	240	1
NMTAP	65	288	5
NMTAP	65	336	5
NMTAP	66	0	6
NMTAP	66	96	4
NMTAP	66	96	5
NMTAP	66	192	1
NMTAP	66	192	3
NMTAP	66	264	4
NMTAP	66	264	6
NMTAP	66	336	0
NMTAP	66	336	7
NMTAP	67	0	0
NMTAP	67	0	7
NMTAP	67	48	0
NMTAP	67	48	7
NMTAP	67	144	3
NMSTR	67	144	4
NMSI_	67	144	4	96	48	6
NMSTR	67	240	4
NMSI_	67	240	4	96	48	2
NMSTR	67	336	4
NMSI_	67	336	4	96	48	7
NMSTR	68	48	4
NMSI_	68	48	4	96	48	1
NMSTR	68	144	4
NMSI_	68	144	4	96	48	0
NMSTR	68	240	4
BRSF_	68	240	4	96	48	0
BXTAP	68	336	4
NMTAP	70	0	5
NMTAP	70	48	4
NMTAP	70	96	3
NMHLD	70	144	2	144
NMTTP	71	0	5	A	0	M1
NMTTP	71	48	4	A	0	M1
NMTTP	71	96	3	A	0	M1
NMTTP	71	144	2	A	0	M1
BXSTR	71	288	1
NMSCR	71	288	1	96	96	5
BRTAP	71	288	7
NMSTR	72	0	5
NMSLL	72	0	5	96	96	0
NMTAP	72	96	6
NMTAP	72	144	6
NMTAP	72	240	7
NMTAP	72	288	0
EXSTR	72	288	6
NMSCL	72	288	6	96	96	2
NMSTR	73	0	2
NMSLR	73	0	2	96	96	7
NMTAP	73	96	1
NMTAP	73	144	1
NMTAP	73	240	0
NMSTR	73	288	0
NMSI_	73	288	0	96	48	4
NMTAP	74	0	0
NMSTR	74	96	0
BRSI_	74	96	0	96	48	3
BRSI_	74	96	0	96	48	5
NMTAP	74	192	0
NMSTR	74	288	0
BRSXL	74	288	0	96	144	3
BRSXR	74	288	0	96	144	5
EXTAP	75	0	0
EXTAP	75	240	1
EXTAP	75	240	7
EXTAP	75	288	1
EXSTR	75	288	7
NMSF_	75	288	7	96	48	3
NMTAP	76	96	1
NMTAP	76	96	5
NMTAP	76	144	1
NMHLD	76	144	5	96
NMTAP	76	240	4
NMTAP	76	288	4
NMTAP	76	336	7
NMSTR	77	0	7
NMSCL	77	0	7	96	96	0
NMTTP	77	96	0	C	1	M1
BXTAP	77	240	7
BXTAP	77	288	7
NMSTR	78	0	1
NMSI_	78	0	1	96	48	6
NMTAP	78	48	1
NMSTR	78	96	5
NMSI_	78	96	5	96	48	2
NMTAP	78	144	5
NMSTR	78	192	0
NMSI_	78	192	0	96	48	4
NMTAP	78	240	0
NMSTR	78	288	7
NMSI_	78	288	7	96	48	3
NMTAP	78	336	7
NMTAP	79	0	0
NMTAP	79	96	1
NMTAP	79	96	4
NMTAP	79	192	3
NMHLD	79	192	7	864
NMTAP	79	288	2
BRTAP	80	0	1
NMTTP	80	96	5	B	0	M1
NMTTP	80	96	5	A	0	M1
NMTTP	80	96	6	B	0	M1
NMTTP	80	96	6	E	0	M1
NMTTP	80	96	6	A	0	M1
NMTTP	80	96	6	D	1	M1
BRTAP	80	192	1
NMTTP	80	288	5	B	0	M1
NMTTP	80	288	5	A	0	M1
NMTTP	80	288	6	B	0	M1
NMTTP	80	288	6	E	0	M1
NMTTP	80	288	6	A	0	M1
NMTTP	80	288	6	D	1	M1
BRTAP	81	0	1
NMTTP	81	96	5	B	0	M1
NMTTP	81	96	5	A	0	M1
NMTTP	81	96	6	B	0	M1
NMTTP	81	96	6	E	0	M1
NMTTP	81	96	6	A	0	M1
NMTTP	81	96	6	D	1	M1
BXTAP	81	192	1
NMTTP	81	240	2	B	0	M1
NMTTP	81	240	2	A	0	M1
NMTTP	81	240	3	B	0	M1
NMTTP	81	240	3	E	0	M1
NMTTP	81	240	3	A	0	M1
NMTTP	81	240	3	D	1	M1
NMTTP	81	288	4	B	0	M1
NMTTP	81	288	4	A	0	M1
NMTTP	81	288	5	B	0	M1
NMTTP	81	288	5	E	0	M1
NMTTP	81	288	5	A	0	M1
NMTTP	81	288	5	D	1	M1
NMSTR	82	0	0
NMSI_	82	0	0	96	48	3
NMSTR	82	0	6
NMSI_	82	0	6	96	48	3
NMTAP	82	96	0
NMTAP	82	96	6
NMSTR	82	192	1
NMSI_	82	192	1	96	48	4
NMSTR	82	192	7
NMSI_	82	192	7	96	48	4
NMTAP	82	288	1
NMTAP	82	288	7
NMTAP	83	0	0
NMTAP	83	0	6
NMTAP	83	48	0
NMTAP	83	48	6
EXSTR	83	96	1
NMSCR	83	96	1	96	48	4
EXTAP	83	96	5
EXTAP	83	144	1
EXTAP	83	144	5
EXTAP	83	192	6
BRTAP	83	240	7
BRHLD	83	288	7	768
BRTAP	84	0	1
NMTTP	84	96	5	B	0	M1
NMTTP	84	96	5	A	0	M1
NMTTP	84	96	6	B	0	M1
NMTTP	84	96	6	E	0	M1
NMTTP	84	96	6	A	0	M1
NMTTP	84	96	6	D	1	M1
BRTAP	84	192	1
NMTTP	84	288	5	B	0	M1
NMTTP	84	288	5	A	0	M1
NMTTP	84	288	6	B	0	M1
NMTTP	84	288	6	E	0	M1
NMTTP	84	288	6	A	0	M1
NMTTP	84	288	6	D	1	M1
BRTAP	85	0	1
NMTTP	85	96	5	B	0	M1
NMTTP	85	96	5	A	0	M1
NMTTP	85	96	6	B	0	M1
NMTTP	85	96	6	E	0	M1
NMTTP	85	96	6	A	0	M1
NMTTP	85	96	6	D	1	M1
BXTAP	85	192	1
NMTTP	85	240	2	B	0	M1
NMTTP	85	240	2	A	0	M1
NMTTP	85	240	3	B	0	M1
NMTTP	85	240	3	E	0	M1
NMTTP	85	240	3	A	0	M1
NMTTP	85	240	3	D	1	M1
NMTTP	85	288	4	B	0	M1
NMTTP	85	288	4	A	0	M1
NMTTP	85	288	5	B	0	M1
NMTTP	85	288	5	E	0	M1
NMTTP	85	288	5	A	0	M1
NMTTP	85	288	5	D	1	M1
NMTAP	86	0	0
NMTAP	86	0	6
NMTAP	86	48	0
NMTAP	86	48	6
NMTAP	86	96	1
NMTAP	86	96	5
NMTAP	86	144	1
NMTAP	86	144	5
NMTAP	86	192	2
NMTAP	86	192	4
NMTAP	86	240	2
NMTAP	86	240	4
NMSTR	86	288	3
BRSF_	86	288	3	96	96	7
NMTAP	87	192	0
NMTAP	87	192	6
NMSTR	87	288	7
NMSCL	87	288	7	96	288	2
NMTAP	88	0	1
NMTAP	88	48	1
NMTAP	88	96	1
NMTAP	88	144	1
NMTAP	88	192	0
NMTAP	88	240	0
BRSTR	88	288	0
NMSCR	88	288	0	96	288	5
NMTAP	88	336	0
NMTAP	89	0	6
NMTAP	89	48	6
NMTAP	89	96	6
NMTAP	89	144	6
NMTAP	89	192	7
NMTAP	89	240	7
NMSTR	89	288	7
NMSI_	89	288	7	96	48	3
NMTAP	89	336	7
NMHLD	90	0	4	288
NMTAP	91	0	6
NMTAP	91	24	4
NMTAP	91	48	6
NMTAP	91	72	4
NMSTR	91	96	6
NMSCR	91	96	6	96	48	0
NMTAP	91	144	3
NMTAP	91	192	3
NMSTR	91	240	2
NMSI_	91	240	2	96	48	5
NMSTR	91	336	6
NMSI_	91	336	6	96	48	1
NMSTR	92	48	3
NMSI_	92	48	3	96	48	0
NMSTR	92	144	5
NMSCL	92	144	5	96	48	2
NMTAP	92	240	0
NMTAP	92	288	0
NMTAP	93	0	1
NMTAP	93	24	3
NMTAP	93	48	1
NMTAP	93	72	3
NMSTR	93	96	1
NMSCL	93	96	1	96	48	7
NMTAP	93	144	4
NMTAP	93	192	5
NMSTR	93	240	5
NMSXL	93	240	5	96	144	4
NMTAP	93	336	4
NMTAP	94	48	2
NMTAP	94	96	2
NMTAP	94	144	3
BRTAP	94	240	0
BRTAP	94	288	0
NMTAP	95	0	1
NMTAP	95	24	3
NMTAP	95	48	1
NMTAP	95	72	3
NMSTR	95	96	1
NMSCL	95	96	1	96	48	7
NMTAP	95	144	4
NMTAP	95	192	4
NMSTR	95	240	5
NMSI_	95	240	5	96	48	2
NMSTR	95	336	1
NMSI_	95	336	1	96	48	6
NMSTR	96	48	4
NMSI_	96	48	4	96	48	7
NMSTR	96	144	2
NMSCR	96	144	2	96	48	5
NMTAP	96	240	7
NMTAP	96	288	7
NMTAP	97	0	6
NMTAP	97	24	4
NMTAP	97	48	6
NMTAP	97	72	4
NMTAP	97	96	6
NMTAP	97	144	3
NMTAP	97	192	2
NMTAP	97	192	4
NMTAP	97	240	1
NMSTR	97	240	5
BRSSR	97	240	5	96	96	1
BRTAP	97	336	0

T_REC_TAP	375
T_REC_BRK	33
T_REC_XTP	28
T_REC_BXX	16
T_REC_HLD	21
T_REC_XHO	3
T_REC_BHO	2
T_REC_BXH	0
T_REC_STR	114
T_REC_BST	1
T_REC_XST	5
T_REC_XBS	2
T_REC_TTP	141
T_REC_THO	1
T_REC_SLD	115
T_REC_BSL	12
T_REC_ALL	869
T_NUM_TAP	663
T_NUM_BRK	66
T_NUM_HLD	25
T_NUM_SLD	115
T_NUM_ALL	869
T_JUDGE_TAP	715
T_JUDGE_HLD	133
T_JUDGE_SLD	127
T_JUDGE_ALL	975
TTM_EACHPAIRS	116
TTM_SCR_TAP	331500
TTM_SCR_BRK	171600
TTM_SCR_HLD	25000
TTM_SCR_SLD	172500
TTM_SCR_ALL	700600
TTM_SCR_S	673200
TTM_SCR_SS	694000
TTM_RAT_ACV	10095

