VERSION	0.00.00	1.04.00
FES_MODE	0
BPM_DEF	170.000	170.000	170.000	170.000
MET_DEF	4	4
RESOLUTION	384
CLK_DEF	384
COMPATIBLE_CODE	MA2

BPM	0	0	170.000
MET	0	0	4	4

NMTAP	2	0	0
NMTAP	2	0	7
NMTAP	2	96	2
NMTAP	2	96	5
EXHLD	2	192	1	72
EXHLD	2	264	3	72
EXTAP	2	336	2
EXHLD	3	0	2	72
EXHLD	3	72	4	72
EXTAP	3	144	3
BXTAP	3	192	2
BXTAP	3	192	5
NMTAP	4	0	1
NMTAP	4	48	1
NMTAP	4	96	7
NMTAP	4	192	2
NMHLD	4	240	2	288
NMTAP	4	336	1
NMTAP	5	48	0
NMTAP	5	144	7
NMTAP	5	240	0
NMTAP	5	240	6
NMTAP	5	288	0
NMTAP	5	288	6
NMTAP	6	0	7
NMTAP	6	48	7
NMTAP	6	96	0
NMTAP	6	192	5
NMHLD	6	240	5	288
NMSTR	6	336	6
NMSI_	6	336	6	96	96	1
EXTAP	7	240	0
EXTAP	7	240	7
EXTAP	7	288	0
EXTAP	7	288	7
NMTAP	8	0	1
NMTAP	8	48	1
NMTAP	8	96	7
NMTAP	8	192	2
NMHLD	8	240	2	288
NMTAP	8	336	1
NMTAP	9	48	0
NMTAP	9	144	7
NMTAP	9	240	0
NMTAP	9	240	6
NMTAP	9	288	0
NMTAP	9	288	6
NMTAP	10	0	7
NMTAP	10	48	7
NMTAP	10	96	0
NMTAP	10	192	5
NMHLD	10	240	5	288
NMSTR	10	336	6
NMSCR	10	336	6	96	96	1
EXTAP	11	240	0
EXTAP	11	240	7
EXTAP	11	288	0
EXTAP	11	288	7
NMHLD	12	0	2	96
NMTAP	12	96	3
NMHLD	12	192	4	96
NMTAP	12	288	3
NMHLD	13	0	2	96
NMTAP	13	96	3
NMHLD	13	192	4	96
NMTAP	13	288	3
NMHLD	14	0	1	96
NMTAP	14	96	3
NMHLD	14	192	5	96
NMTAP	14	288	3
NMHLD	15	0	1	96
NMHLD	15	96	3	192
EXTAP	15	240	0
EXTAP	15	288	0
NMHLD	16	0	5	96
NMTAP	16	96	4
NMHLD	16	192	3	96
NMTAP	16	288	4
NMHLD	17	0	5	96
NMTAP	17	96	4
NMHLD	17	192	3	96
NMTAP	17	288	4
NMHLD	18	0	6	96
NMTAP	18	96	4
NMHLD	18	192	2	96
NMTAP	18	288	4
NMTAP	19	0	5
NMTAP	19	96	4
NMTAP	19	96	5
NMTTP	19	192	0	C	0	M1
EXTAP	19	288	0
EXTAP	19	288	7
NMTAP	20	0	1
NMTAP	20	48	1
NMTAP	20	96	0
NMTAP	20	192	7
NMTAP	20	240	7
NMTAP	20	288	0
NMTAP	21	0	1
NMTAP	21	48	1
NMTAP	21	96	0
NMTAP	21	192	0
NMTAP	21	192	7
NMTAP	21	288	0
NMTAP	21	288	1
NMTAP	22	0	2
NMTAP	22	48	2
NMTAP	22	96	0
NMTAP	22	192	6
NMTAP	22	240	6
NMTAP	22	288	0
NMTAP	23	0	1
NMTAP	23	48	1
NMTAP	23	96	7
NMTAP	23	144	7
EXTAP	23	240	2
EXTAP	23	240	5
EXTAP	23	288	2
EXTAP	23	288	5
NMTAP	24	0	6
NMTAP	24	48	6
NMTAP	24	96	7
NMTAP	24	192	0
NMTAP	24	240	0
NMTAP	24	288	7
NMTAP	25	0	6
NMTAP	25	48	6
NMTAP	25	96	7
NMTAP	25	192	0
NMTAP	25	192	7
NMTAP	25	288	6
NMTAP	25	288	7
NMTAP	26	0	5
NMTAP	26	48	5
NMTAP	26	96	7
NMTAP	26	192	1
NMTAP	26	240	1
NMHLD	26	336	0	144
NMHLD	26	336	2	144
NMTAP	27	192	2
NMTAP	27	192	6
NMTAP	28	0	4
NMTAP	28	0	6
NMTAP	28	96	3
NMTAP	28	96	4
EXHLD	28	192	2	72
EXHLD	28	264	1	72
EXTAP	28	336	0
EXSTR	29	0	0
NMSI_	29	0	0	96	96	3
NMTAP	29	192	4
NMTAP	30	0	1
NMTAP	30	0	3
NMTAP	30	96	3
NMTAP	30	96	4
EXHLD	30	192	5	72
EXHLD	30	264	6	72
EXTAP	30	336	7
EXSTR	31	0	7
NMSI_	31	0	7	96	96	4
NMTAP	31	192	3
NMSTR	32	0	1
NMSCR	32	0	1	96	96	4
NMSTR	32	192	6
NMSCL	32	192	6	96	96	3
NMSTR	33	0	1
NMSUR	33	0	1	96	96	5
NMTAP	33	192	6
NMTAP	33	288	6
NMTAP	33	288	7
NMTAP	34	0	2
NMTAP	34	0	3
NMTAP	34	96	4
NMTAP	34	96	5
NMTAP	34	192	1
NMTAP	34	192	3
NMTAP	34	288	4
NMTAP	34	288	6
NMTAP	35	0	3
NMTAP	35	0	4
NMTAP	35	48	3
NMTAP	35	48	4
BXTAP	35	144	1
BXTAP	35	144	6
EXTAP	35	240	2
EXTAP	35	240	5
NMTAP	35	288	2
NMTAP	35	288	5
NMTAP	36	0	3
NMTAP	36	0	4
NMTAP	36	96	0
NMTAP	36	96	5
NMTAP	36	192	3
NMTAP	36	192	4
NMTAP	36	288	2
NMTAP	36	288	7
NMTAP	37	0	3
NMTAP	37	0	4
NMTAP	37	96	0
NMTAP	37	96	5
NMHLD	37	192	1	96
EXTAP	37	240	0
EXTAP	37	288	0
NMTAP	38	0	0
NMTAP	38	0	1
NMTAP	38	96	2
NMTAP	38	96	3
NMTAP	38	192	4
NMTAP	38	192	5
NMTAP	38	288	6
NMTAP	38	288	7
NMTAP	39	0	3
NMTAP	39	0	4
NMTAP	39	96	2
NMTAP	39	96	5
NMTAP	39	144	2
NMTAP	39	144	5
EXTAP	39	240	0
EXTAP	39	240	7
EXTAP	39	288	0
EXTAP	39	288	7
NMTAP	40	0	3
NMTAP	40	0	4
NMTAP	40	96	2
NMTAP	40	96	7
NMTAP	40	192	1
NMTAP	40	240	1
NMTAP	40	288	0
NMSTR	41	0	6
NMSCL	41	0	6	96	96	2
EXTAP	41	240	0
EXTAP	41	288	0
NMTAP	42	0	2
NMTAP	42	0	3
NMTAP	42	96	4
NMTAP	42	96	5
NMTAP	42	192	6
NMTAP	42	192	7
NMTAP	42	288	0
NMTAP	42	288	1
NMTAP	43	0	2
NMTAP	43	0	7
NMTAP	43	48	2
NMTAP	43	48	7
NMTAP	43	96	2
NMTAP	43	96	7
BRHLD	43	192	3	96
BRHLD	43	192	5	96
NMTAP	44	0	3
NMHLD	44	0	4	96
EXTAP	44	96	7
NMHLD	44	192	3	96
NMTAP	44	192	4
EXTAP	44	288	7
NMTAP	45	0	3
NMHLD	45	0	4	96
EXTAP	45	96	7
NMHLD	45	192	1	96
EXTAP	45	240	0
EXTAP	45	288	0
NMTAP	46	0	3
NMTAP	46	0	4
NMTAP	46	96	0
NMTAP	46	96	2
NMTAP	46	192	6
NMTAP	46	192	7
NMTAP	46	288	3
NMTAP	46	288	5
NMTAP	47	0	2
NMTAP	47	48	2
NMTAP	47	96	1
NMTAP	47	96	3
NMTAP	47	192	4
EXTAP	47	240	3
EXTAP	47	288	3
NMHLD	48	0	3	96
NMTAP	48	0	4
EXTAP	48	96	0
NMTAP	48	192	3
NMHLD	48	192	4	96
EXTAP	48	288	0
NMHLD	49	0	3	96
NMTAP	49	0	4
EXTAP	49	96	0
NMHLD	49	192	6	96
EXTAP	49	240	7
EXTAP	49	288	7
NMTAP	50	0	6
NMTAP	50	0	7
NMTAP	50	96	1
NMTAP	50	96	4
NMTAP	50	192	0
NMTAP	50	240	0
NMTAP	50	288	1
NMTAP	50	288	7
BRHLD	51	0	4	144
BRHLD	51	0	5	144
BXTAP	51	192	3
BXTAP	51	192	6
NMTAP	52	0	3
NMTAP	52	48	3
NMTAP	52	96	4
NMTAP	52	192	1
NMHLD	52	240	1	288
NMTAP	52	336	2
NMTAP	53	48	3
NMTAP	53	144	4
NMTAP	53	240	0
NMTAP	53	240	6
NMTAP	53	288	0
NMTAP	53	288	6
NMTAP	54	0	5
NMTAP	54	48	5
NMTAP	54	96	3
NMTAP	54	192	6
NMHLD	54	240	6	96
NMTAP	54	336	4
EXTAP	55	0	4
EXTAP	55	0	6
EXTAP	55	96	4
EXTAP	55	96	6
EXTAP	55	192	1
EXTAP	55	192	3
EXTAP	55	288	1
EXTAP	55	288	3
NMTTP	56	0	3	B	0	M1
NMTTP	56	0	4	B	0	M1
NMTTP	56	0	4	E	0	M1
NMTAP	56	96	0
NMTAP	56	96	7
NMTAP	56	192	6
NMHLD	56	240	6	288
NMTAP	56	336	5
NMTAP	57	48	4
NMTAP	57	144	3
NMTAP	57	240	1
NMTAP	57	240	7
NMTAP	57	288	1
NMTAP	57	288	7
NMTAP	58	0	2
NMTAP	58	48	2
NMTAP	58	96	4
NMTAP	58	192	1
NMHLD	58	240	1	336
NMHLD	58	336	5	240
NMTAP	60	0	3
NMTAP	60	96	4
NMTAP	60	96	5
NMHLD	60	192	6	72
NMHLD	60	264	5	72
NMTAP	60	336	4
NMSTR	61	0	4
NMSI_	61	0	4	96	96	7
NMTAP	61	192	1
NMTAP	62	0	4
NMTAP	62	96	2
NMTAP	62	96	3
NMHLD	62	192	1	72
NMHLD	62	264	2	72
NMTAP	62	336	3
NMSTR	63	0	3
NMSI_	63	0	3	96	96	0
NMTAP	63	192	6
NMSTR	64	0	1
NMSCR	64	0	1	96	96	4
NMTAP	64	96	7
NMSTR	64	192	6
NMSCL	64	192	6	96	96	3
NMTAP	64	288	0
NMSTR	65	0	1
NMSUR	65	0	1	96	96	5
NMTAP	65	96	7
NMTAP	65	192	6
NMTAP	65	288	6
NMTAP	65	288	7
NMTAP	66	0	0
NMTAP	66	0	1
NMTAP	66	96	2
NMTAP	66	96	3
NMTAP	66	192	4
NMTAP	66	192	5
NMTAP	66	288	6
NMTAP	66	288	7
NMTAP	67	0	0
NMTAP	67	0	1
NMTAP	67	48	0
NMTAP	67	48	1
EXTAP	67	144	3
EXTAP	67	144	6
EXTAP	67	240	4
EXTAP	67	240	5
EXTAP	67	336	0
EXTAP	67	336	7
EXTAP	68	48	1
EXTAP	68	48	2
EXTAP	68	144	3
EXTAP	68	144	4
EXTAP	68	240	5
EXTAP	68	240	6
BXTAP	68	336	0
BXTAP	68	336	7
NMHLD	70	0	3	576
NMHLD	71	0	4	192
BRTAP	71	288	1
BRTAP	71	288	5
NMTAP	72	0	2
NMTAP	72	0	3
NMTAP	72	96	4
NMTAP	72	96	7
NMTAP	72	192	2
NMTAP	72	192	3
NMTAP	72	288	0
NMTAP	72	288	2
NMTAP	73	0	2
NMTAP	73	0	3
NMTAP	73	96	4
NMTAP	73	96	7
NMHLD	73	192	1	96
EXTAP	73	240	0
EXTAP	73	288	0
NMTAP	74	0	0
NMTAP	74	0	1
NMTAP	74	96	2
NMTAP	74	96	3
NMTAP	74	192	4
NMTAP	74	192	5
NMTAP	74	288	6
NMTAP	74	288	7
NMTAP	75	0	3
NMTAP	75	0	4
NMTAP	75	96	2
NMTAP	75	96	5
NMTAP	75	144	2
NMTAP	75	144	5
EXTAP	75	240	0
EXTAP	75	240	7
EXTAP	75	288	0
EXTAP	75	288	7
NMTAP	76	0	4
NMTAP	76	0	5
NMTAP	76	96	0
NMTAP	76	96	3
NMTAP	76	192	2
NMTAP	76	240	2
NMTAP	76	288	4
NMSTR	77	0	6
NMSCR	77	0	6	96	144	3
EXTAP	77	240	0
EXTAP	77	288	0
NMTAP	78	0	2
NMTAP	78	0	3
NMTAP	78	96	4
NMTAP	78	96	5
NMTAP	78	192	6
NMTAP	78	192	7
NMTAP	78	288	0
NMTAP	78	288	1
NMTAP	79	0	2
NMTAP	79	0	7
NMTAP	79	48	2
NMTAP	79	48	7
NMTAP	79	96	2
NMTAP	79	96	7
BRHLD	79	192	3	96
BRHLD	79	192	6	96
NMTAP	80	0	4
NMHLD	80	0	5	96
EXTAP	80	96	7
NMHLD	80	192	4	96
NMTAP	80	192	5
EXTAP	80	288	7
NMTAP	81	0	4
NMHLD	81	0	5	96
EXTAP	81	96	7
NMHLD	81	192	2	96
EXTAP	81	240	0
EXTAP	81	288	0
NMTAP	82	0	4
NMTAP	82	0	5
NMTAP	82	96	1
NMTAP	82	96	3
NMTAP	82	192	0
NMTAP	82	192	7
NMTAP	82	288	4
NMTAP	82	288	6
NMTAP	83	0	3
NMTAP	83	48	3
NMTAP	83	96	2
NMTAP	83	96	4
NMTAP	83	192	5
EXTAP	83	240	4
EXTAP	83	288	4
NMHLD	84	0	2	96
NMTAP	84	0	3
EXTAP	84	96	0
NMTAP	84	192	2
NMHLD	84	192	3	96
EXTAP	84	288	0
NMHLD	85	0	2	96
NMTAP	85	0	3
EXTAP	85	96	0
NMHLD	85	192	5	96
EXTAP	85	240	7
EXTAP	85	288	7
NMTAP	86	0	6
NMTAP	86	0	7
NMTAP	86	96	1
NMTAP	86	96	4
NMTAP	86	192	0
NMTAP	86	240	0
NMTAP	86	288	1
NMTAP	86	288	7
NMTAP	87	0	4
NMTAP	87	0	5
NMTAP	87	96	0
NMTAP	87	96	1
NMTAP	87	192	2
NMTAP	87	192	3
NMTAP	87	288	6
NMSTR	87	288	7
NMSCR	87	288	7	96	192	6
NMTAP	88	192	7
NMTAP	88	240	7
EXTAP	88	288	7
NMTAP	89	0	2
NMTAP	89	48	2
EXTAP	89	96	2
NMTAP	89	192	4
NMTAP	89	192	5
NMTAP	89	240	4
NMTAP	89	240	5
EXTAP	89	288	4
EXTAP	89	288	5
BRTAP	90	0	2
BRTAP	90	0	7
NMTAP	91	0	2
NMTAP	91	48	2
NMTAP	91	96	3
NMTAP	91	192	1
NMHLD	91	240	1	288
NMTAP	91	336	2
NMTAP	92	48	0
NMTAP	92	144	6
NMTAP	92	240	0
NMTAP	92	240	7
NMTAP	92	288	0
NMTAP	92	288	7
NMTAP	93	0	5
NMTAP	93	48	5
NMTAP	93	96	4
NMTAP	93	192	6
NMHLD	93	240	6	96
NMHLD	93	336	2	96
NMTAP	94	48	0
NMTAP	94	96	0
NMTAP	94	144	0
EXTAP	94	240	3
EXTAP	94	240	4
EXTAP	94	288	3
EXTAP	94	288	4
NMTAP	95	0	5
NMTAP	95	48	5
NMTAP	95	96	4
NMTAP	95	192	6
NMHLD	95	240	6	288
NMTAP	95	336	5
NMTAP	96	48	7
NMTAP	96	144	1
NMTAP	96	240	0
NMTAP	96	240	7
NMTAP	96	288	0
NMTAP	96	288	7
NMTAP	97	0	2
NMTAP	97	48	2
NMTAP	97	96	3
NMTAP	97	192	1
NMSTR	97	240	1
NMSI_	97	240	1	96	48	5
BXTAP	97	336	7

T_REC_TAP	373
T_REC_BRK	4
T_REC_XTP	90
T_REC_BXX	9
T_REC_HLD	53
T_REC_XHO	8
T_REC_BHO	6
T_REC_BXH	0
T_REC_STR	14
T_REC_BST	0
T_REC_XST	2
T_REC_XBS	0
T_REC_TTP	4
T_REC_THO	0
T_REC_SLD	16
T_REC_BSL	0
T_REC_ALL	579
T_NUM_TAP	483
T_NUM_BRK	19
T_NUM_HLD	61
T_NUM_SLD	16
T_NUM_ALL	579
T_JUDGE_TAP	496
T_JUDGE_HLD	192
T_JUDGE_SLD	16
T_JUDGE_ALL	704
TTM_EACHPAIRS	155
TTM_SCR_TAP	241500
TTM_SCR_BRK	49400
TTM_SCR_HLD	61000
TTM_SCR_SLD	24000
TTM_SCR_ALL	375900
TTM_SCR_S	362800
TTM_SCR_SS	374000
TTM_RAT_ACV	10050

