VERSION	0.00.00	1.04.00
FES_MODE	0
BPM_DEF	190.000	190.000	190.000	190.000
MET_DEF	4	4
RESOLUTION	384
CLK_DEF	384
COMPATIBLE_CODE	MA2

BPM	0	0	190.000
MET	0	0	4	4

BXSTR	1	0	5
NMSI_	1	0	5	96	48	1
NMTAP	1	96	0
BXSTR	1	144	0
NMSI_	1	144	0	96	48	3
NMTAP	1	240	4
BXSTR	1	288	4
NMSCR	1	288	4	96	192	2
NMHLD	2	0	3	192
NMTAP	2	288	3
NMTAP	2	312	4
NMTAP	2	336	3
NMTAP	2	360	4
BXSTR	3	0	2
NMSI_	3	0	2	96	48	6
NMTAP	3	96	7
BXSTR	3	144	7
NMSI_	3	144	7	96	48	4
NMTAP	3	240	3
BXSTR	3	288	3
NMSCL	3	288	3	96	192	5
NMHLD	4	0	4	192
NMTAP	4	336	4
NMTAP	4	360	3
NMHLD	5	0	5	144
NMTAP	5	96	7
NMHLD	5	144	7	144
NMTAP	5	240	0
NMHLD	5	288	0	144
NMTAP	6	0	2
NMHLD	6	48	2	144
NMTAP	6	144	5
NMTAP	6	192	5
NMSTR	6	288	3
NMSCL	6	288	3	96	130	0
NMSTR	6	288	4
NMSCR	6	288	4	96	130	7
CNSV_	7	130	0	0	110	2
CNSV_	7	130	7	0	110	5
NMTTP	8	0	3	B	0	M1
NMTTP	8	24	4	B	0	M1
NMTTP	8	48	2	B	0	M1
NMTTP	8	72	5	B	0	M1
NMTTP	8	96	2	E	0	M1
NMTTP	8	120	6	E	0	M1
NMTTP	8	144	1	A	0	M1
NMTTP	8	168	6	A	0	M1
NMTHO	8	192	0	192	C	0	M1
BRSTR	9	0	6
NMSCL	9	0	6	96	192	3
NMTAP	9	192	0
NMTAP	9	288	0
NMTAP	10	0	1
NMHLD	10	0	3	96
NMTAP	10	96	1
NMTAP	10	192	2
NMHLD	10	192	4	96
NMTAP	10	288	2
NMTAP	11	0	2
NMSTR	11	0	5
NMSUR	11	0	5	96	192	4
NMTAP	11	96	2
NMTAP	11	192	2
NMTAP	11	288	2
NMTAP	12	0	2
NMTAP	12	0	3
NMTAP	12	72	3
NMTAP	12	72	4
NMTAP	12	144	4
NMTAP	12	144	5
NMTAP	12	192	4
NMTAP	12	192	5
NMTAP	12	288	4
NMTAP	12	336	4
NMHLD	13	0	3	96
NMTAP	13	0	5
NMTAP	13	96	5
NMTAP	13	192	3
NMTAP	13	192	5
NMTAP	13	288	4
NMTAP	13	288	5
NMHLD	14	0	3	96
NMTAP	14	0	5
NMTAP	14	96	5
NMHLD	14	192	2	96
NMTAP	14	192	5
NMTAP	14	288	5
NMSTR	15	0	1
NMSXL	15	0	1	96	96	3
NMTAP	15	0	5
NMTAP	15	96	5
NMTAP	15	192	5
NMTAP	15	288	3
NMTAP	15	288	4
NMTAP	15	336	3
NMTAP	15	336	4
NMTTP	16	0	2	B	0	M1
NMTTP	16	0	2	E	0	M1
NMTTP	16	64	5	B	0	M1
NMTTP	16	64	6	E	0	M1
NMTTP	16	128	0	B	0	M1
NMTTP	16	128	7	B	0	M1
NMTHO	16	192	0	96	C	0	M1
NMSTR	17	0	1
NMSCR	17	0	1	96	48	3
NMHLD	17	0	6	96
NMTAP	17	192	5
NMTAP	17	288	4
NMHLD	18	0	2	96
NMSTR	18	0	3
NMSCR	18	0	3	96	48	5
NMTAP	18	192	1
NMTAP	18	288	2
EXSTR	19	0	3
NMSCL	19	0	3	96	48	1
EXHLD	19	0	4	96
EXHLD	19	192	0	96
EXSTR	19	192	4
NMSCR	19	192	4	96	48	6
EXTAP	20	0	0
EXTAP	20	0	7
NMSTR	20	48	0
BRSCR	20	48	0	96	48	3
NMSTR	20	48	7
BRSCL	20	48	7	96	48	4
BRTAP	20	144	0
BRTAP	20	144	7
NMTTP	20	152	1	D	0	M1
NMTTP	20	152	7	D	0	M1
NMTTP	20	168	2	D	0	M1
NMTTP	20	168	6	D	0	M1
NMTTP	20	184	3	D	0	M1
NMTTP	20	184	5	D	0	M1
NMTAP	20	288	3
NMTAP	20	312	4
NMTAP	20	336	3
NMTAP	20	360	4
NMTAP	21	0	2
EXSTR	21	0	5
NMSI_	21	0	5	96	48	7
NMHLD	21	96	4	96
NMSTR	21	192	5
NMSI_	21	192	5	96	48	7
NMTAP	21	240	3
NMTAP	21	288	3
EXHLD	22	0	7	48
NMTAP	22	48	4
NMHLD	22	96	6	48
NMTAP	22	144	3
EXHLD	22	192	5	48
NMTAP	22	240	2
NMHLD	22	288	4	48
NMTAP	22	336	1
EXSTR	23	0	3
NMSI_	23	0	3	96	48	0
NMHLD	23	96	2	96
NMSTR	23	192	3
NMSI_	23	192	3	96	48	0
NMTAP	23	240	1
NMTAP	23	288	1
EXHLD	24	0	2	48
NMTAP	24	48	3
NMHLD	24	96	5	48
NMTAP	24	144	4
NMHLD	24	192	1	48
NMTAP	24	240	3
NMHLD	24	288	6	48
NMTAP	24	336	4
EXSTR	25	0	2
NMSI_	25	0	2	96	48	0
NMHLD	25	96	3	96
EXSTR	25	192	2
NMSI_	25	192	2	96	48	0
NMTAP	25	240	4
NMTAP	25	288	4
EXHLD	26	0	0	48
NMTAP	26	48	3
NMHLD	26	96	1	48
NMTAP	26	144	4
EXHLD	26	192	2	48
NMTAP	26	240	5
NMHLD	26	288	3	48
NMTAP	26	336	6
EXSTR	27	0	4
NMSI_	27	0	4	96	48	7
NMHLD	27	96	5	96
NMSTR	27	192	4
NMSI_	27	192	4	96	48	7
NMTAP	27	240	6
NMTAP	27	288	6
NMTAP	28	0	5
NMTAP	28	48	2
NMSTR	28	96	3
NMSI_	28	96	3	96	48	0
NMSTR	28	96	4
NMSI_	28	96	4	96	48	7
BRTAP	28	288	1
BRTAP	28	288	6
NMHLD	29	0	5	48
NMHLD	29	48	4	48
NMHLD	29	96	7	48
NMHLD	29	144	0	48
NMHLD	29	192	3	48
NMHLD	29	240	2	48
NMHLD	29	288	1	48
NMHLD	29	336	0	48
NMHLD	30	0	7	48
NMHLD	30	48	0	48
NMHLD	30	96	3	48
NMHLD	30	144	2	48
NMHLD	30	192	4	48
NMHLD	30	240	5	48
NMHLD	30	288	6	48
NMHLD	30	336	7	48
NMSTR	31	0	6
NMSCL	31	0	6	96	96	3
NMTAP	31	96	0
NMTAP	31	144	1
NMSTR	31	192	2
NMSCL	31	192	2	96	96	7
NMTAP	31	288	4
NMTAP	31	336	5
NMSTR	32	0	6
NMSI_	32	0	6	96	48	2
BRTAP	32	96	1
BRTAP	32	96	6
NMTAP	32	192	1
NMTAP	32	240	0
NMTAP	32	288	7
NMTAP	32	336	6
NMSTR	33	0	1
NMSI_	33	0	1	96	88	5
CNSCL	33	184	5	0	104	2
NMTTP	33	192	0	E	0	M1
NMTTP	33	192	7	B	0	M1
NMSTR	34	0	6
NMSI_	34	0	6	96	88	2
CNSCR	34	184	2	0	104	5
NMTTP	34	192	0	E	0	M1
NMTTP	34	192	7	B	0	M1
NMSTR	35	0	2
NMSCL	35	0	2	96	135	7
NMTTP	35	192	5	E	0	M1
NMTTP	35	192	6	E	0	M1
CNSI_	35	231	7	0	114	3
CNSCR	35	345	3	0	135	6
NMTTP	36	0	1	E	0	M1
NMTTP	36	0	2	E	0	M1
NMTAP	36	192	3
NMTAP	36	288	4
NMSTR	37	0	5
NMSCR	37	0	5	96	84	7
NMTTP	37	96	6	B	0	M1
NMTTP	37	96	6	E	0	M1
CNSV_	37	180	7	0	108	4
NMTTP	37	192	1	E	0	M1
NMTTP	37	192	1	D	0	M1
NMTAP	37	288	2
NMSTR	38	0	2
NMSCL	38	0	2	96	84	0
NMTTP	38	96	1	B	0	M1
NMTTP	38	96	2	E	0	M1
CNSV_	38	180	0	0	108	3
NMTTP	38	192	7	E	0	M1
NMTTP	38	192	7	D	0	M1
NMSTR	38	288	5
NMSCR	38	288	5	96	96	1
NMSUR	38	288	5	96	96	2
BRTAP	39	0	5
NMTAP	39	192	2
NMTAP	39	192	3
NMTAP	39	288	3
NMTAP	39	288	4
NMSTR	40	0	4
NMSI_	40	0	4	96	48	0
NMHLD	40	0	5	384
NMTAP	40	192	0
NMTAP	40	240	0
NMTAP	40	288	7
NMTAP	40	336	7
NMSTR	41	0	6
NMSCR	41	0	6	96	192	1
NMSTR	41	192	1
NMSUL	41	192	1	96	192	5
NMSTR	42	0	5
NMSV_	42	0	5	96	168	2
EXTAP	42	192	7
EXTAP	42	256	7
CNSCR	42	264	2	0	120	4
EXTAP	42	320	7
EXSTR	43	0	6
NMSCL	43	0	6	96	192	3
NMSTR	43	192	3
NMSUR	43	192	3	96	192	7
NMSTR	44	0	7
NMSCR	44	0	7	96	120	2
NMSUR	44	0	7	96	120	3
EXTAP	44	288	1
EXTAP	44	288	4
NMTAP	45	0	2
NMTAP	45	0	3
NMTAP	45	48	2
NMTAP	45	96	2
NMTAP	45	96	4
NMTAP	45	144	2
NMTAP	45	168	3
NMTAP	45	192	2
NMTAP	45	240	2
NMTAP	45	288	2
NMTAP	45	288	4
NMTAP	46	0	4
NMTAP	46	0	5
NMTAP	46	48	5
NMTAP	46	96	3
NMTAP	46	96	5
NMTAP	46	144	5
NMTAP	46	168	4
NMTAP	46	192	5
NMTAP	46	240	3
NMTAP	46	240	6
NMSTR	46	288	2
NMSCR	46	288	2	96	216	0
NMSTR	46	288	7
NMSCL	46	288	7	96	216	1
BRTAP	47	0	2
BRTAP	47	0	7
EXTAP	47	288	2
EXTAP	47	288	7
NMTAP	48	0	4
NMTAP	48	0	5
NMTAP	48	48	5
NMTAP	48	96	2
NMTAP	48	96	3
NMTAP	48	144	2
NMTAP	48	192	7
NMTAP	48	216	0
NMTAP	48	240	7
NMTAP	48	264	0
NMTAP	48	288	7
EXTAP	49	0	1
EXSTR	49	0	6
NMSI_	49	0	6	96	48	3
NMTAP	49	48	5
NMTAP	49	72	7
NMTAP	49	96	6
NMSTR	49	192	1
NMSI_	49	192	1	96	48	4
NMTAP	49	240	2
NMTAP	49	264	0
NMTAP	49	288	1
NMSTR	50	0	7
NMSI_	50	0	7	96	48	3
BRTAP	50	96	0
BRTAP	50	96	7
NMHLD	50	192	2	48
NMHLD	50	192	4	48
NMHLD	50	288	3	48
NMHLD	50	288	5	48
NMSTR	51	0	6
NMSI_	51	0	6	96	48	2
NMTAP	51	96	6
NMSTR	51	96	7
NMSI_	51	96	7	96	48	3
NMSTR	51	192	0
NMSI_	51	192	0	96	48	4
NMTAP	51	192	7
NMTAP	51	288	0
NMSTR	51	288	1
NMSCL	51	288	1	96	96	4
BRTAP	52	0	1
BRTAP	52	0	3
NMHLD	52	192	1	48
NMHLD	52	192	7	48
NMHLD	52	288	0	48
NMHLD	52	288	6	48
NMSTR	53	0	1
NMSI_	53	0	1	96	48	4
NMTAP	53	0	7
NMTAP	53	48	2
NMTAP	53	72	0
NMTAP	53	96	1
NMSTR	53	192	6
NMSI_	53	192	6	96	48	3
NMTAP	53	240	5
NMTAP	53	264	7
NMTAP	53	288	6
NMSTR	54	0	1
NMSCR	54	0	1	96	96	6
NMTTP	54	96	2	E	0	M1
NMTTP	54	120	3	E	0	M1
NMTTP	54	144	4	E	0	M1
NMTTP	54	168	5	E	0	M1
NMTTP	54	192	6	E	0	M1
EXTAP	54	288	0
EXTAP	54	288	7
NMHLD	55	0	1	48
NMHLD	55	0	3	48
NMHLD	55	96	4	48
NMHLD	55	96	6	48
NMTAP	55	192	1
NMTAP	55	192	3
NMTAP	55	240	2
NMTAP	55	288	4
NMTAP	55	288	6
NMTAP	55	336	5
NMTAP	56	0	0
NMSTR	56	0	3
NMSI_	56	0	3	96	48	7
NMTAP	56	192	1
NMHLD	56	192	6	864
NMTTP	57	0	0	D	0	M1
NMTTP	57	16	0	E	0	M1
NMTTP	57	32	4	E	0	M1
NMTTP	57	48	4	D	0	M1
NMTTP	57	96	6	D	0	M1
NMTTP	57	112	6	E	0	M1
NMTTP	57	128	2	E	0	M1
NMTTP	57	144	2	D	0	M1
NMTTP	57	192	1	D	0	M1
NMTTP	57	208	1	E	0	M1
NMTTP	57	224	5	E	0	M1
NMTTP	57	240	5	D	0	M1
NMTTP	57	288	7	D	0	M1
NMTTP	57	300	7	E	0	M1
NMTTP	57	312	0	C	1	M1
NMTTP	57	324	3	E	0	M1
NMTTP	57	336	3	D	0	M1
NMTTP	58	0	0	E	0	M1
NMTTP	58	12	7	B	0	M1
NMTTP	58	24	6	B	0	M1
NMTTP	58	36	6	E	0	M1
NMTTP	58	48	5	A	0	M1
NMTTP	58	96	5	E	0	M1
NMTTP	58	112	4	B	0	M1
NMTTP	58	128	3	B	0	M1
NMTTP	58	144	3	E	0	M1
NMTTP	58	192	2	A	0	M1
NMTTP	58	204	2	E	0	M1
NMTTP	58	216	1	B	0	M1
NMTTP	58	228	0	B	0	M1
NMTTP	58	240	0	E	1	M1
NMSTR	59	0	7
NMSI_	59	0	7	96	48	4
NMSTR	59	96	4
NMSI_	59	96	4	96	48	1
EXTAP	59	96	7
NMSTR	59	192	1
NMSI_	59	192	1	96	48	6
EXTAP	59	192	4
EXTAP	59	288	1
NMSTR	59	288	6
NMSI_	59	288	6	96	48	3
NMSTR	60	0	3
NMSI_	60	0	3	96	48	7
EXTAP	60	0	6
EXTAP	60	96	3
BXSTR	60	96	7
BRSF_	60	96	7	96	48	3
NMHLD	61	0	1	96
NMHLD	61	0	6	96
NMTAP	61	192	2
NMTAP	61	192	5
NMSTR	61	240	2
NMSCR	61	240	2	96	144	7
NMSTR	61	240	5
NMSCL	61	240	5	96	144	0
NMTAP	62	192	0
NMTAP	62	224	0
NMTAP	62	256	0
NMTAP	62	288	6
NMTAP	62	320	6
NMTAP	62	352	6
NMSTR	63	0	2
NMSCL	63	0	2	96	96	7
NMSTR	63	96	7
NMSCL	63	96	7	96	96	4
NMSTR	63	192	4
NMSCL	63	192	4	96	96	1
NMSTR	63	288	1
NMSXL	63	288	1	96	240	5
NMTAP	64	0	7
NMSTR	64	96	7
NMSI_	64	96	7	96	48	3
BRTAP	64	192	7
NMTTP	64	208	0	C	1	M1
BXSTR	65	0	6
NMSI_	65	0	6	96	48	3
NMTAP	65	96	0
BXSTR	65	144	1
NMSI_	65	144	1	96	48	4
NMTAP	65	240	7
BXSTR	65	288	6
NMSCL	65	288	6	96	192	7
NMHLD	66	0	0	192
NMTAP	66	288	0
NMTAP	66	312	7
NMTAP	66	336	0
NMTAP	66	360	7
BXSTR	67	0	1
NMSI_	67	0	1	96	48	4
NMTAP	67	96	7
BXSTR	67	144	6
NMSI_	67	144	6	96	48	3
NMTAP	67	240	0
BXSTR	67	288	1
NMSCR	67	288	1	96	192	0
NMHLD	68	0	7	192
NMTAP	68	336	6
NMTAP	68	360	7
NMHLD	69	0	6	144
NMTAP	69	96	4
NMHLD	69	144	3	144
NMTAP	69	240	5
BRSTR	69	288	6
NMSCR	69	288	6	96	96	2
NMSTR	70	0	2
NMSCR	70	0	2	96	96	6
NMTAP	70	96	6
NMTAP	70	192	1
NMTAP	70	216	2
NMTAP	70	240	3
NMTAP	70	264	4
NMTAP	70	288	5
NMTAP	70	312	6
NMTAP	70	336	7
NMTAP	70	360	0
NMHLD	71	0	1	144
NMTAP	71	96	3
NMHLD	71	144	4	144
NMTAP	71	240	2
BRTAP	71	288	1
NMTTP	72	0	3	D	0	M1
NMTTP	72	24	3	B	0	M1
NMTTP	72	48	2	A	0	M1
NMTTP	72	72	2	B	0	M1
NMTTP	72	96	2	D	0	M1
NMTTP	72	144	5	D	0	M1
NMTTP	72	168	4	B	0	M1
NMTTP	72	192	5	A	0	M1
NMTTP	72	216	5	B	0	M1
NMTTP	72	240	6	D	0	M1
NMTTP	72	288	0	C	0	M1
BXSTR	73	0	0
NMSI_	73	0	0	96	48	4
NMTAP	73	96	6
BXSTR	73	144	5
NMSI_	73	144	5	96	48	1
NMTAP	73	240	7
BXSTR	73	288	0
NMSUR	73	288	0	96	96	7
NMHLD	74	0	6	96
BXHLD	74	192	6	32
BXHLD	74	192	7	32
BXHLD	74	256	5	32
BXHLD	74	256	6	32
BXHLD	74	320	4	32
BXHLD	74	320	5	32
BXSTR	75	0	7
NMSI_	75	0	7	96	48	3
NMTAP	75	96	1
BXSTR	75	144	2
NMSI_	75	144	2	96	48	6
NMTAP	75	240	0
BXSTR	75	288	7
NMSUL	75	288	7	96	96	0
NMHLD	76	0	1	96
NMTAP	76	192	1
NMTAP	76	216	7
NMTAP	76	240	0
NMTAP	76	264	7
NMTAP	76	288	0
NMTAP	76	312	7
NMTAP	76	336	0
NMTAP	76	360	7
NMHLD	77	0	1	144
NMTAP	77	96	3
NMHLD	77	144	4	144
NMTAP	77	240	6
NMTAP	77	288	7
NMHLD	77	336	7	96
NMTAP	78	0	5
NMTAP	78	48	4
NMHLD	78	96	4	96
NMTAP	78	144	2
NMTAP	78	192	1
NMTAP	78	240	1
NMSTR	78	288	4
NMSI_	78	288	4	96	80	0
NMTAP	78	336	3
BRTAP	79	0	4
NMTAP	79	192	1
NMTAP	79	216	2
NMTAP	79	240	7
NMTAP	79	264	6
NMTAP	79	288	2
NMTAP	79	312	3
NMTAP	79	336	6
NMTAP	79	360	5
EXTAP	80	0	4
NMTAP	80	48	4
NMTAP	80	96	3
NMTAP	80	96	5
NMTAP	80	144	3
NMTAP	80	144	5
NMTAP	80	192	2
NMTAP	80	216	4
NMTAP	80	240	2
NMTAP	80	264	4
NMTAP	80	288	1
NMTAP	80	312	5
NMTAP	80	336	1
NMTAP	80	360	5
BXSTR	81	0	0
NMSXR	81	0	0	96	288	3
NMHLD	82	0	5	288
NMSTR	83	0	4
NMSCR	83	0	4	96	192	7
NMSTR	84	0	3
NMSCL	84	0	3	96	192	0
NMTAP	85	0	6
NMTAP	85	48	6
NMTAP	85	96	6
NMTAP	85	144	6
NMTAP	85	192	1
NMTAP	85	240	1
NMTAP	85	288	1
NMTAP	85	336	1
NMTAP	86	0	5
NMTAP	86	48	5
NMTAP	86	96	4
NMTAP	86	144	4
NMTAP	86	192	3
NMTAP	86	240	3
NMTAP	86	288	2
NMTAP	86	336	2
EXTAP	87	0	4
NMTAP	87	24	1
NMTAP	87	48	4
NMTAP	87	72	1
NMTAP	87	96	4
NMTAP	87	120	1
NMTAP	87	144	4
NMTAP	87	168	1
NMTAP	87	192	5
NMTAP	87	216	0
NMTAP	87	240	5
NMTAP	87	264	0
NMTAP	87	288	6
NMTAP	87	312	7
NMTAP	87	336	6
NMTAP	87	360	7
NMTTP	88	0	6	E	0	M1
NMTTP	88	16	5	E	0	M1
NMTTP	88	32	4	E	0	M1
NMTTP	88	48	0	E	0	M1
NMTTP	88	64	1	E	0	M1
NMTTP	88	80	2	E	0	M1
NMTTP	88	96	6	D	0	M1
NMTTP	88	112	5	D	0	M1
NMTTP	88	128	4	D	0	M1
NMTTP	88	144	0	D	0	M1
NMTTP	88	160	1	D	0	M1
NMTTP	88	176	2	D	0	M1
EXTAP	88	192	5
EXTAP	88	204	4
EXTAP	88	216	3
EXTAP	88	228	2
EXTAP	88	240	1
EXTAP	88	252	0
EXTAP	88	264	7
EXTAP	88	276	6
EXTAP	88	288	5
EXTAP	88	300	4
EXTAP	88	312	3
EXTAP	88	324	2
EXTAP	88	336	1
EXTAP	88	348	0
EXTAP	88	360	7
EXTAP	88	372	6
BXTAP	89	0	5
NMTAP	89	144	2
NMTAP	89	168	3
BRHLD	89	192	1	64
BRHLD	89	256	7	64
BRHLD	89	320	4	64
NMTAP	90	0	3
NMTAP	90	96	2
NMTAP	90	96	5
NMTAP	90	144	1
NMTAP	90	144	6
NMTAP	90	192	0
NMTAP	90	216	7
NMTAP	90	240	0
NMTAP	90	264	7
NMTAP	90	288	0
BXTAP	91	0	1
BXSTR	91	0	6
NMSI_	91	0	6	96	48	3
NMTAP	91	48	5
NMTAP	91	72	7
NMTAP	91	96	6
NMTAP	91	144	0
NMSTR	91	192	1
NMSI_	91	192	1	96	48	4
NMTAP	91	240	2
NMTAP	91	264	0
NMTAP	91	288	1
NMTAP	91	336	7
NMSTR	92	0	7
NMSI_	92	0	7	96	48	3
BRTAP	92	96	0
BRTAP	92	96	7
NMHLD	92	192	2	48
NMHLD	92	192	4	48
NMHLD	92	288	3	48
NMHLD	92	288	5	48
NMSTR	93	0	6
NMSI_	93	0	6	96	48	2
NMTAP	93	96	6
NMSTR	93	96	7
NMSI_	93	96	7	96	48	3
NMSTR	93	192	0
NMSI_	93	192	0	96	48	4
NMTAP	93	192	7
NMTAP	93	288	0
NMSTR	93	288	1
NMSCL	93	288	1	96	96	4
BRTAP	94	0	1
BRTAP	94	0	3
NMHLD	94	192	1	48
NMHLD	94	192	7	48
NMHLD	94	288	0	48
NMHLD	94	288	6	48
NMSTR	95	0	1
NMSI_	95	0	1	96	48	4
NMTAP	95	0	7
NMTAP	95	48	2
NMTAP	95	72	0
NMTAP	95	96	1
NMTAP	95	144	7
NMSTR	95	192	6
NMSI_	95	192	6	96	48	3
NMTAP	95	240	5
NMTAP	95	264	7
NMTAP	95	288	6
NMTAP	95	336	0
NMSTR	96	0	0
NMSCR	96	0	0	96	96	7
NMTTP	96	96	1	E	0	M1
NMTTP	96	112	2	E	0	M1
NMTTP	96	128	3	E	0	M1
NMTTP	96	144	4	E	0	M1
NMTTP	96	160	5	E	0	M1
NMTTP	96	176	6	E	0	M1
NMTTP	96	192	7	E	0	M1
EXTAP	96	288	0
EXTAP	96	288	7
NMHLD	97	0	1	48
NMHLD	97	0	3	48
NMHLD	97	96	4	48
NMHLD	97	96	6	48
NMTAP	97	192	1
NMTAP	97	192	3
NMTAP	97	240	2
NMTAP	97	288	4
NMTAP	97	288	6
NMTAP	97	336	5
NMSTR	98	0	0
NMSI_	98	0	0	96	48	4
NMSTR	98	0	3
NMSI_	98	0	3	96	48	7
BRTAP	98	192	2
BRHLD	98	192	6	864
NMTTP	99	0	0	D	0	M1
NMTTP	99	16	0	E	0	M1
NMTTP	99	32	4	E	0	M1
NMTTP	99	48	4	D	0	M1
NMTTP	99	96	6	D	0	M1
NMTTP	99	112	6	E	0	M1
NMTTP	99	128	2	E	0	M1
NMTTP	99	144	2	D	0	M1
NMTTP	99	192	1	D	0	M1
NMTTP	99	208	1	E	0	M1
NMTTP	99	224	5	E	0	M1
NMTTP	99	240	5	D	0	M1
NMTTP	99	288	7	D	0	M1
NMTTP	99	300	7	E	0	M1
NMTTP	99	312	0	C	1	M1
NMTTP	99	324	3	E	0	M1
NMTTP	99	336	3	D	0	M1
NMTTP	100	0	0	E	0	M1
NMTTP	100	12	7	B	0	M1
NMTTP	100	24	6	B	0	M1
NMTTP	100	36	6	E	0	M1
NMTTP	100	48	5	A	0	M1
NMTTP	100	96	5	E	0	M1
NMTTP	100	112	4	B	0	M1
NMTTP	100	128	3	B	0	M1
NMTTP	100	144	3	E	0	M1
NMTTP	100	192	2	A	0	M1
NMTTP	100	204	2	E	0	M1
NMTTP	100	216	1	B	0	M1
NMTTP	100	228	0	B	0	M1
NMTTP	100	244	0	E	1	M1
BRSTR	101	0	7
BRSI_	101	0	7	96	48	4
BRSTR	101	96	4
BRSI_	101	96	4	96	48	1
NMTTP	101	96	7	A	1	M1
BRSTR	101	192	1
BRSI_	101	192	1	96	48	6
NMTTP	101	192	4	A	1	M1
NMTTP	101	288	1	A	1	M1
BRSTR	101	288	6
BRSI_	101	288	6	96	48	3
BRSTR	102	0	3
BRSI_	102	0	3	96	48	7
NMTTP	102	0	6	A	1	M1
NMTTP	102	96	3	A	1	M1
BRSTR	102	96	7
BRSF_	102	96	7	96	48	3
NMTTP	102	192	7	A	1	M1
BRHLD	103	0	0	96
BRHLD	103	0	7	96
NMTAP	103	192	2
NMTAP	103	192	5
NMSTR	103	240	2
NMSCR	103	240	2	96	144	7
NMSTR	103	240	5
NMSCL	103	240	5	96	144	0
NMTAP	104	192	7
NMTAP	104	224	7
NMTAP	104	256	7
NMTAP	104	288	1
NMTAP	104	320	1
NMTAP	104	352	1
NMSTR	105	0	5
NMSCR	105	0	5	96	96	0
NMSTR	105	96	0
NMSCR	105	96	0	96	96	3
NMSTR	105	192	3
NMSCR	105	192	3	96	96	6
NMSTR	105	288	6
NMSXR	105	288	6	96	240	2
NMTAP	106	0	0
NMSTR	106	96	0
NMSI_	106	96	0	96	48	4
BRTAP	106	192	0
NMTTP	106	208	0	C	1	M1
NMTTP	106	224	2	B	0	M1
NMTTP	106	224	4	B	0	M1
BRTAP	107	0	1
BRTAP	107	0	6

T_REC_TAP	310
T_REC_BRK	24
T_REC_XTP	37
T_REC_BXX	2
T_REC_HLD	81
T_REC_XHO	7
T_REC_BHO	6
T_REC_BXH	6
T_REC_STR	74
T_REC_BST	8
T_REC_XST	9
T_REC_XBS	21
T_REC_TTP	143
T_REC_THO	2
T_REC_SLD	105
T_REC_BSL	9
T_REC_ALL	844
T_NUM_TAP	573
T_NUM_BRK	76
T_NUM_HLD	90
T_NUM_SLD	105
T_NUM_ALL	844
T_JUDGE_TAP	628
T_JUDGE_HLD	208
T_JUDGE_SLD	114
T_JUDGE_ALL	950
TTM_EACHPAIRS	97
TTM_SCR_TAP	286500
TTM_SCR_BRK	197600
TTM_SCR_HLD	90000
TTM_SCR_SLD	157500
TTM_SCR_ALL	731600
TTM_SCR_S	702300
TTM_SCR_SS	724000
TTM_RAT_ACV	10104

