VERSION	0.00.00	1.04.00
FES_MODE	0
BPM_DEF	190.000	190.000	190.000	190.000
MET_DEF	4	4
RESOLUTION	384
CLK_DEF	384
COMPATIBLE_CODE	MA2

BPM	0	0	190.000
MET	0	0	4	4

EXHLD	1	0	2	96
EXHLD	1	0	3	96
NMHLD	1	144	2	96
NMHLD	1	144	3	96
NMHLD	1	288	2	96
NMHLD	1	288	3	96
EXTAP	2	48	1
EXTAP	2	48	4
EXSTR	2	96	1
NMSCL	2	96	1	96	96	6
EXTAP	2	96	4
EXHLD	3	0	4	96
EXHLD	3	0	5	96
NMHLD	3	144	4	96
NMHLD	3	144	5	96
NMHLD	3	288	4	96
NMHLD	3	288	5	96
NMTAP	4	48	3
NMTAP	4	48	6
NMTAP	4	96	3
NMSTR	4	96	6
NMSCR	4	96	6	96	96	1
NMTAP	5	0	2
NMTAP	5	96	2
NMTAP	5	192	2
NMTAP	5	192	3
NMTAP	5	288	5
NMTAP	6	0	5
NMTAP	6	96	4
NMTAP	6	96	5
NMTAP	6	192	3
NMTAP	6	288	3
NMHLD	7	0	3	672
NMTAP	7	0	4
NMHLD	8	0	5	288
NMTAP	9	0	5
NMTAP	9	96	5
NMTAP	9	192	5
NMTAP	9	288	5
NMTAP	10	0	4
NMTAP	10	0	5
NMTAP	10	96	5
NMTAP	10	192	4
NMTAP	10	192	5
NMTAP	10	288	5
NMTAP	11	0	3
NMTAP	11	0	5
NMTAP	11	96	5
NMTAP	11	192	5
NMTAP	11	288	5
NMTAP	12	0	4
NMTAP	12	0	5
NMTAP	12	96	4
NMTAP	12	96	5
NMTAP	12	192	3
NMTAP	12	192	6
NMTAP	13	0	2
NMTAP	13	96	2
NMTAP	13	192	2
NMTAP	13	192	3
NMTAP	13	288	2
NMTAP	14	0	2
NMTAP	14	0	3
NMTAP	14	96	2
NMTAP	14	192	2
NMTAP	14	192	4
NMTAP	14	288	2
NMTAP	15	0	2
NMHLD	15	0	3	480
NMTAP	15	96	2
NMTAP	15	192	2
NMTAP	15	288	2
NMHLD	16	0	2	96
NMHLD	16	192	3	96
NMHLD	16	192	4	96
NMTAP	17	0	3
NMTAP	17	0	5
NMTAP	17	96	5
NMTAP	17	192	3
NMTAP	17	192	5
NMTAP	17	288	5
NMTAP	18	0	2
NMTAP	18	0	4
NMTAP	18	96	2
NMTAP	18	192	2
NMTAP	18	192	4
NMTAP	18	288	2
NMTAP	19	0	1
NMTAP	19	0	4
NMTAP	19	96	4
NMTAP	19	192	0
NMTAP	19	192	4
NMTAP	19	288	4
EXTAP	20	0	0
EXTAP	20	0	4
NMTAP	20	192	1
NMTAP	20	288	1
NMTAP	21	0	2
NMTAP	21	96	2
NMTAP	21	96	3
NMTAP	21	192	4
NMTAP	21	288	3
NMTAP	21	288	5
NMTAP	22	0	5
NMTAP	22	96	4
NMTAP	22	96	5
NMTAP	22	192	3
NMTAP	22	288	2
NMTAP	22	288	4
NMTAP	23	0	2
NMTAP	23	96	2
NMTAP	23	96	3
NMTAP	23	192	4
NMTAP	23	288	3
NMTAP	23	288	5
NMTAP	24	0	6
NMTAP	24	96	6
NMTAP	24	192	4
NMTAP	24	192	6
NMTAP	24	288	7
NMTAP	25	0	6
NMTAP	25	96	4
NMTAP	25	96	5
NMTAP	25	192	3
NMTAP	25	288	2
NMTAP	25	288	4
NMTAP	26	0	1
NMTAP	26	96	2
NMTAP	26	96	3
NMTAP	26	192	4
NMTAP	26	288	3
NMTAP	26	288	5
NMTAP	27	0	4
NMTAP	27	0	6
NMTAP	27	96	3
NMTAP	27	96	5
NMTAP	27	192	2
NMTAP	27	192	4
NMSTR	27	288	1
NMSCR	27	288	1	96	192	6
NMTAP	27	288	3
EXTAP	28	192	7
EXTAP	28	288	7
NMTAP	29	0	6
NMTAP	29	96	5
NMTAP	29	192	2
NMTAP	29	192	4
NMTAP	29	288	2
NMTAP	29	288	4
NMTAP	30	0	1
NMTAP	30	96	0
NMTAP	30	192	1
NMTAP	30	192	7
NMTAP	30	288	1
NMTAP	30	288	7
NMHLD	31	0	2	96
NMHLD	31	0	6	96
NMHLD	31	192	1	96
NMHLD	31	192	5	96
NMTAP	32	0	0
NMTAP	32	48	0
NMTAP	32	96	7
NMTAP	32	192	1
NMTAP	32	192	6
NMHLD	33	0	3	384
NMTTP	33	192	2	B	0	M1
NMTTP	33	192	3	B	0	M1
NMHLD	34	0	4	384
NMTTP	34	192	4	B	0	M1
NMTTP	34	192	5	B	0	M1
NMHLD	35	0	2	384
NMTTP	35	192	2	B	0	M1
NMTTP	35	192	2	E	0	M1
NMHLD	36	0	5	384
NMTTP	36	192	5	B	0	M1
NMTTP	36	192	6	E	0	M1
NMHLD	37	0	1	192
NMHLD	37	192	0	192
NMHLD	38	0	7	192
NMHLD	38	192	6	192
NMHLD	39	0	5	192
NMHLD	39	192	4	192
NMHLD	40	0	3	192
NMTAP	40	192	2
NMSTR	41	0	2
NMSCR	41	0	2	96	288	5
NMSTR	42	0	6
NMSCR	42	0	6	96	288	1
NMSTR	43	0	2
NMSCR	43	0	2	96	288	5
NMSTR	44	0	6
NMSCR	44	0	6	96	288	1
NMTAP	45	0	2
NMTAP	45	96	2
NMTAP	45	192	3
NMTAP	45	288	3
NMTAP	46	0	4
NMTAP	46	96	4
NMTAP	46	192	2
NMTAP	46	192	5
NMSTR	46	288	2
NMSCL	46	288	2	96	384	5
NMSTR	46	288	5
NMSCR	46	288	5	96	384	2
NMTAP	48	192	3
NMTAP	48	240	3
NMTAP	48	288	4
EXTAP	49	0	0
EXTAP	49	0	7
NMTAP	49	96	2
NMTAP	49	96	4
NMTAP	49	192	0
NMTAP	49	192	1
NMTAP	49	288	3
NMTAP	49	288	5
NMTAP	50	0	6
NMTAP	50	0	7
NMTAP	50	96	2
NMTAP	50	96	4
NMTAP	50	192	0
NMTAP	50	192	1
NMTAP	50	288	0
NMTAP	50	288	1
NMTAP	51	0	6
NMTAP	51	0	7
NMTAP	51	96	4
NMTAP	51	96	5
NMTAP	51	192	2
NMTAP	51	192	3
NMTAP	51	288	0
NMTAP	51	288	1
NMTAP	52	0	0
NMTAP	52	0	1
NMTAP	52	96	2
NMTAP	52	96	3
NMTAP	52	192	4
NMTAP	52	192	5
NMTAP	52	288	4
NMTAP	52	288	5
NMHLD	53	0	6	96
NMHLD	53	96	4	96
NMHLD	53	192	3	96
NMTAP	53	288	1
NMHLD	54	0	1	96
NMHLD	54	96	3	96
NMHLD	54	192	4	96
NMTAP	54	288	5
NMHLD	55	0	3	96
NMHLD	55	0	6	96
NMHLD	55	192	1	96
NMHLD	55	192	4	96
NMTAP	56	0	2
NMTAP	56	0	3
NMTAP	56	96	4
NMTAP	56	96	5
EXTAP	56	192	2
EXTAP	56	192	7
BRTAP	57	0	6
BRTAP	57	0	7
BRTAP	57	96	0
BRTAP	57	96	1
NMTTP	57	192	2	B	0	M1
NMTTP	57	192	2	E	0	M1
NMTTP	57	192	3	B	0	M1
NMTTP	57	192	3	E	1	M1
NMTTP	57	192	4	E	0	M1
BRTAP	58	0	0
BRTAP	58	0	1
BRTAP	58	96	6
BRTAP	58	96	7
NMTTP	58	192	4	B	0	M1
NMTTP	58	192	4	E	0	M1
NMTTP	58	192	5	B	0	M1
NMTTP	58	192	5	E	1	M1
NMTTP	58	192	6	E	0	M1
BRTAP	59	0	6
BRTAP	59	0	7
BRTAP	59	96	6
BRTAP	59	96	7
BRTAP	59	192	0
BRTAP	59	192	1
BRTAP	59	288	0
BRTAP	59	288	1
BRTAP	60	0	6
BRTAP	60	0	7
BRTAP	60	96	4
BRTAP	60	96	5
NMTTP	60	192	3	B	0	M1
NMTTP	60	192	3	E	0	M1
NMTTP	60	192	4	B	1	M1
NMTTP	60	192	5	B	0	M1
NMTTP	60	192	6	E	0	M1
NMTHO	61	0	0	384	C	0	M1
BXTAP	62	192	0
BXTAP	62	192	6
NMHLD	63	0	5	96
NMHLD	63	96	4	96
NMHLD	63	192	3	96
NMHLD	63	288	2	96
NMTAP	64	0	3
NMTAP	64	96	3
EXTAP	64	192	1
EXTAP	64	192	5
BXTAP	65	0	0
BXTAP	65	0	7
NMTAP	65	96	1
NMTAP	65	144	1
NMTAP	65	144	3
NMTAP	65	240	4
NMTAP	65	288	2
NMTAP	65	288	4
NMHLD	66	0	5	96
NMHLD	66	96	4	96
NMTAP	66	192	6
NMTAP	66	288	6
BXTAP	67	0	0
BXTAP	67	0	7
NMTAP	67	96	6
NMTAP	67	144	4
NMTAP	67	144	6
NMTAP	67	240	3
NMTAP	67	288	3
NMTAP	67	288	5
NMHLD	68	0	2	96
NMHLD	68	96	3	96
NMTAP	68	192	1
NMTAP	68	288	1
NMTAP	68	288	4
BXTAP	69	0	1
BXTAP	69	0	4
NMTAP	69	96	2
NMTAP	69	144	2
NMTAP	69	144	3
NMTAP	69	240	5
NMTAP	69	288	4
NMTAP	69	288	5
NMHLD	70	0	6	96
NMHLD	70	96	5	96
NMTAP	70	192	4
NMTAP	70	288	5
BXTAP	71	0	3
BXTAP	71	0	7
NMTAP	71	96	2
NMTAP	71	144	2
NMTAP	71	144	3
NMTAP	71	240	5
NMTAP	71	288	4
NMTAP	71	288	5
NMHLD	72	0	6	96
NMHLD	72	96	5	96
NMTAP	72	192	4
NMTAP	72	288	3
NMTAP	72	288	6
NMTAP	73	0	2
NMTAP	73	0	7
NMTAP	73	96	1
NMTAP	73	96	6
NMTAP	73	192	0
NMTAP	73	192	5
NMHLD	73	288	1	96
NMHLD	73	288	4	96
NMTAP	74	96	1
NMTAP	74	96	4
NMTAP	74	192	1
NMTAP	74	192	4
NMTAP	74	288	2
NMTAP	74	288	3
NMTAP	75	0	2
NMTAP	75	0	3
NMTAP	75	96	3
NMTAP	75	96	4
NMTAP	75	192	4
NMTAP	75	192	5
NMHLD	75	288	3	96
NMHLD	75	288	6	96
NMTAP	76	96	3
NMTAP	76	96	6
NMTAP	76	192	3
NMTAP	76	192	6
NMTAP	76	288	4
NMTAP	76	288	5
NMTAP	77	0	3
NMTAP	77	0	6
NMTAP	77	96	2
NMTAP	77	96	5
NMTAP	77	192	1
NMTAP	77	192	4
NMTAP	77	288	0
NMTAP	77	288	5
NMTAP	78	0	1
NMTAP	78	0	6
NMTAP	78	96	2
NMTAP	78	96	7
NMTAP	78	192	0
NMTAP	78	192	1
NMTAP	78	288	0
NMTAP	78	288	1
NMSTR	79	0	7
NMSCL	79	0	7	96	96	4
NMSTR	79	192	0
NMSCR	79	192	0	96	96	3
NMSTR	80	0	7
NMSI_	80	0	7	96	96	3
NMSTR	80	192	0
NMSI_	80	192	0	96	96	4
BXHLD	81	0	5	384
NMHLD	82	0	4	384
NMHLD	83	0	3	384
NMHLD	84	0	2	384
NMHLD	85	0	6	384
NMHLD	86	0	7	384
NMHLD	87	0	0	384
NMSTR	88	0	1
NMSI_	88	0	1	96	96	5
BXTAP	89	0	7
NMTAP	90	0	3
NMTAP	90	0	4
NMTAP	90	96	4
NMTAP	90	144	4
NMTAP	90	192	3
NMTAP	90	288	2
NMTAP	90	288	5
EXTAP	91	0	0
EXTAP	91	0	1
NMTAP	91	96	3
NMTAP	91	96	5
NMTAP	91	192	6
NMTAP	91	192	7
NMTAP	91	288	2
NMTAP	91	288	4
NMTAP	92	0	0
NMTAP	92	0	1
NMTAP	92	96	3
NMTAP	92	96	5
NMTAP	92	192	6
NMTAP	92	192	7
NMTAP	92	288	6
NMTAP	92	288	7
NMTAP	93	0	0
NMTAP	93	0	1
NMTAP	93	96	2
NMTAP	93	96	3
NMTAP	93	192	4
NMTAP	93	192	5
NMTAP	93	288	6
NMTAP	93	288	7
NMTAP	94	0	6
NMTAP	94	0	7
NMTAP	94	96	4
NMTAP	94	96	5
NMTAP	94	192	2
NMTAP	94	192	3
NMTAP	94	288	2
NMTAP	94	288	3
NMHLD	95	0	2	96
NMHLD	95	96	0	96
NMHLD	95	192	7	96
NMTAP	95	288	5
NMHLD	96	0	5	96
NMHLD	96	96	7	96
NMHLD	96	192	0	96
NMTAP	96	288	1
NMHLD	97	0	2	96
NMHLD	97	0	7	96
NMHLD	97	192	0	96
NMHLD	97	192	5	96
NMTAP	98	0	1
NMTAP	98	0	4
NMTAP	98	96	2
NMTAP	98	96	3
EXTAP	98	192	3
EXTAP	98	192	7
BRTAP	99	0	0
BRTAP	99	0	1
BRTAP	99	96	6
BRTAP	99	96	7
NMTTP	99	192	4	B	0	M1
NMTTP	99	192	4	E	0	M1
NMTTP	99	192	5	B	0	M1
NMTTP	99	192	5	E	1	M1
NMTTP	99	192	6	E	0	M1
BRTAP	100	0	6
BRTAP	100	0	7
BRTAP	100	96	0
BRTAP	100	96	1
NMTTP	100	192	2	B	0	M1
NMTTP	100	192	2	E	0	M1
NMTTP	100	192	3	B	0	M1
NMTTP	100	192	3	E	1	M1
NMTTP	100	192	4	E	0	M1
BRTAP	101	0	0
BRTAP	101	0	1
BRTAP	101	96	0
BRTAP	101	96	1
BRTAP	101	192	6
BRTAP	101	192	7
BRTAP	101	288	6
BRTAP	101	288	7
BRTAP	102	0	0
BRTAP	102	0	1
BRTAP	102	96	2
BRTAP	102	96	3
NMTTP	102	192	2	B	0	M1
NMTTP	102	192	2	E	0	M1
NMTTP	102	192	3	B	1	M1
NMTTP	102	192	4	B	0	M1
NMTTP	102	192	5	E	0	M1
NMTHO	103	0	0	384	C	0	M1
BXTAP	104	192	1
BXTAP	104	192	7
NMHLD	105	0	6	96
NMHLD	105	96	4	96
NMHLD	105	192	2	96
NMHLD	105	288	0	96
NMHLD	106	0	6	96
NMTAP	106	96	7
NMSTR	106	192	5
NMSI_	106	192	5	96	96	1
BRTAP	107	0	0

T_REC_TAP	297
T_REC_BRK	41
T_REC_XTP	17
T_REC_BXX	13
T_REC_HLD	76
T_REC_XHO	4
T_REC_BHO	0
T_REC_BXH	1
T_REC_STR	14
T_REC_BST	0
T_REC_XST	1
T_REC_XBS	0
T_REC_TTP	38
T_REC_THO	2
T_REC_SLD	15
T_REC_BSL	0
T_REC_ALL	519
T_NUM_TAP	367
T_NUM_BRK	55
T_NUM_HLD	82
T_NUM_SLD	15
T_NUM_ALL	519
T_JUDGE_TAP	421
T_JUDGE_HLD	282
T_JUDGE_SLD	15
T_JUDGE_ALL	718
TTM_EACHPAIRS	158
TTM_SCR_TAP	183500
TTM_SCR_BRK	143000
TTM_SCR_HLD	82000
TTM_SCR_SLD	22500
TTM_SCR_ALL	431000
TTM_SCR_S	412750
TTM_SCR_SS	425500
TTM_RAT_ACV	10129

