VERSION	0.00.00	1.04.00
FES_MODE	0
BPM_DEF	190.000	190.000	190.000	170.000
MET_DEF	4	4
RESOLUTION	384
CLK_DEF	384
COMPATIBLE_CODE	MA2

BPM	0	0	190.000
BPM	41	192	180.000
BPM	42	96	170.000
BPM	43	0	190.000
MET	0	0	4	4
MET	34	0	4	3
MET	43	0	4	4

NMHLD	2	0	2	192
NMHLD	2	0	4	192
NMHLD	2	288	3	672
NMHLD	4	0	5	192
NMHLD	4	288	4	336
NMTAP	5	144	3
NMTAP	5	240	3
NMTAP	5	288	4
NMTAP	6	0	3
NMTAP	6	0	4
NMTAP	6	96	1
NMTAP	6	96	5
NMTAP	6	192	3
NMTAP	6	192	4
NMTAP	6	288	1
NMTAP	6	288	5
NMTAP	7	0	3
NMTAP	7	0	4
NMTAP	7	96	2
NMTAP	7	96	6
NMTAP	7	192	3
NMTAP	7	192	4
NMTAP	7	288	2
NMTAP	7	288	6
NMHLD	8	0	1	96
NMHLD	8	0	7	96
NMHLD	8	144	3	96
NMHLD	8	144	4	96
NMSTR	8	288	0
NMSCR	8	288	0	96	96	3
NMSTR	8	288	6
NMSCL	8	288	6	96	96	3
CNSXL	9	96	3	0	192	7
CNSXR	9	96	3	0	192	7
NMHLD	10	0	0	48
NMTAP	10	0	1
NMTAP	10	48	1
NMHLD	10	144	6	48
NMTAP	10	144	7
NMTAP	10	192	7
NMTAP	10	288	4
NMHLD	10	288	5	384
NMTAP	10	336	4
NMTTP	11	48	6	A	0	M1
NMTTP	11	144	4	B	0	M1
NMTAP	11	240	7
NMTAP	11	288	7
NMTAP	12	0	6
NMHLD	12	0	7	48
NMTAP	12	48	6
NMTAP	12	144	0
NMHLD	12	144	1	48
NMTAP	12	192	0
NMHLD	12	288	2	384
NMTAP	12	288	3
NMTAP	12	336	3
NMTAP	13	48	1
NMTAP	13	96	1
NMTTP	13	192	0	A	0	M1
NMTTP	13	288	6	B	0	M1
NMHLD	14	0	4	288
NMTAP	14	0	5
NMTAP	14	48	5
NMTAP	14	144	6
NMTAP	14	192	6
NMTAP	14	288	7
NMTAP	15	0	2
NMHLD	15	0	3	288
NMTAP	15	48	2
NMTAP	15	144	1
NMTAP	15	192	1
NMTAP	15	288	0
NMTAP	16	0	4
NMTAP	16	0	6
NMTAP	16	96	1
NMTAP	16	96	3
NMTAP	16	192	3
NMTAP	16	192	4
NMTAP	16	240	5
NMTAP	16	264	4
NMTAP	16	288	5
NMTAP	16	336	3
NMTAP	16	336	7
NMTAP	17	48	2
NMTAP	17	96	2
NMTAP	17	144	0
NMTAP	17	144	4
NMTAP	17	240	6
NMTAP	17	240	7
BRTAP	17	288	0
BRTAP	17	288	5
NMTAP	18	0	1
NMTAP	18	96	2
NMTAP	18	96	3
NMSTR	18	192	2
NMSCL	18	192	2	96	192	5
NMTAP	18	288	4
NMSTR	19	0	5
NMSCR	19	0	5	96	192	2
NMTAP	19	96	4
NMTAP	19	192	3
NMHLD	19	288	3	96
NMTAP	20	0	1
NMTAP	20	96	0
NMTAP	20	96	3
NMTAP	20	192	1
NMTAP	20	240	3
NMTAP	20	288	2
NMTAP	20	336	4
NMTAP	21	0	3
NMTAP	21	0	4
NMTAP	21	96	5
NMTAP	21	144	3
NMTAP	21	192	6
NMTAP	21	240	4
NMTAP	21	288	4
NMTAP	21	288	7
NMTAP	22	0	6
NMTAP	22	96	4
NMTAP	22	96	5
NMSTR	22	192	5
NMSCL	22	192	5	96	96	2
NMSTR	22	288	2
NMSXL	22	288	2	96	288	5
NMTAP	23	0	1
NMTAP	23	96	0
NMTAP	23	192	7
NMTAP	23	288	6
NMHLD	24	0	6	96
NMTAP	24	0	7
NMHLD	24	96	4	96
NMTAP	24	192	5
NMSTR	24	240	5
NMSUL	24	240	5	96	240	3
NMSXL	24	240	5	96	240	3
NMTAP	24	288	3
NMTAP	24	336	5
NMTAP	25	288	0
NMTAP	25	288	1
NMSTR	26	0	7
NMSCL	26	0	7	96	48	4
NMTAP	26	96	0
NMSTR	26	192	1
NMSCR	26	192	1	96	48	4
NMTAP	26	240	0
NMTAP	26	288	0
NMSTR	27	0	6
NMSCL	27	0	6	96	48	3
NMTAP	27	96	7
NMSTR	27	192	0
NMSCR	27	192	0	96	48	3
NMTAP	27	240	7
NMTAP	27	288	7
NMSTR	28	0	4
NMSCR	28	0	4	96	48	7
NMTAP	28	96	3
NMSTR	28	192	2
NMSCL	28	192	2	96	48	7
NMTAP	28	240	3
NMTAP	28	288	3
NMSTR	29	0	5
NMSCR	29	0	5	96	48	0
NMTAP	29	96	4
NMSTR	29	192	3
NMSCL	29	192	3	96	48	0
NMTAP	29	240	4
NMTAP	29	288	4
NMSTR	30	0	5
NMSCL	30	0	5	96	48	2
NMTAP	30	96	7
NMSTR	30	192	1
NMSCL	30	192	1	96	48	6
NMTAP	30	240	3
NMTAP	30	288	3
NMSTR	31	0	5
NMSCL	31	0	5	96	48	2
NMTAP	31	96	6
NMSTR	31	192	1
NMSCL	31	192	1	96	48	6
NMTAP	31	240	2
NMTAP	31	288	2
NMTAP	32	0	5
NMTAP	32	48	6
NMTAP	32	96	7
NMTAP	32	144	0
NMTAP	32	192	1
NMSTR	32	240	2
NMSLR	32	240	2	96	96	7
NMSTR	32	240	5
NMSLL	32	240	5	96	96	0
NMTAP	32	336	2
NMTAP	32	336	5
NMTTP	33	144	0	B	0	M1
NMTTP	33	144	0	E	1	M1
NMTTP	33	144	1	B	0	M1
NMTTP	33	144	1	E	0	M1
NMTTP	33	144	6	B	0	M1
NMTTP	33	144	7	B	0	M1
NMTTP	33	144	7	E	0	M1
NMHLD	34	0	4	96
NMTAP	34	96	3
NMTAP	34	160	3
NMHLD	34	192	2	192
NMTTP	34	288	3	B	0	M1
NMTTP	34	288	3	E	0	M1
NMTTP	35	0	1	B	0	M1
NMTTP	35	0	2	E	0	M1
NMHLD	35	192	0	96
NMTAP	35	288	1
NMTAP	35	352	1
NMHLD	36	0	2	192
NMTTP	36	96	1	B	0	M1
NMTTP	36	96	2	E	0	M1
NMTTP	36	192	3	B	0	M1
NMTTP	36	192	3	E	0	M1
NMHLD	37	0	4	96
NMTAP	37	96	5
NMTAP	37	160	5
NMTAP	37	192	6
NMHLD	37	288	7	96
NMTAP	38	0	0
NMTAP	38	64	0
NMTAP	38	96	1
NMHLD	38	192	2	192
NMTTP	38	288	2	E	0	M1
NMTTP	38	320	3	E	0	M1
NMTTP	38	352	4	E	0	M1
NMTTP	39	0	5	E	0	M1
NMHLD	39	96	5	192
NMTTP	39	192	6	E	0	M1
NMTTP	39	224	5	E	0	M1
NMTTP	39	256	4	E	0	M1
NMTTP	39	288	3	E	0	M1
NMHLD	40	0	1	96
NMTAP	40	96	3
NMTAP	40	160	3
NMTAP	40	192	4
NMTAP	40	256	4
NMHLD	40	288	5	96
NMTAP	41	0	7
NMTAP	41	160	1
NMTAP	41	192	0
NMTAP	41	192	1
NMTAP	41	288	6
NMTAP	41	288	7
NMTAP	42	0	4
NMTAP	42	0	5
NMHLD	42	96	2	96
NMTAP	42	96	3
NMHLD	42	192	3	96
NMHLD	42	288	4	96
NMTAP	43	0	5
NMTAP	43	96	1
NMTAP	43	96	3
NMTAP	43	192	4
NMTAP	43	192	5
NMTAP	43	288	1
NMTAP	43	288	3
NMTAP	44	0	2
NMTAP	44	0	3
NMTAP	44	96	4
NMTAP	44	96	6
NMTAP	44	192	2
NMTAP	44	192	3
NMTAP	44	288	4
NMTAP	44	288	6
NMHLD	45	0	0	96
NMHLD	45	0	1	96
NMHLD	45	144	3	96
NMHLD	45	144	4	96
NMSTR	45	288	6
NMSXR	45	288	6	96	216	0
NMSTR	45	288	7
NMSCL	45	288	7	96	216	1
NMTAP	46	336	2
NMTAP	46	336	3
NMTAP	47	0	1
NMTAP	47	96	4
NMTAP	47	96	5
NMTAP	47	144	6
NMTAP	47	240	3
NMTAP	47	240	4
NMTAP	47	288	1
NMTAP	47	288	6
NMTAP	48	0	0
NMTAP	48	0	5
NMTAP	48	48	6
NMTAP	48	72	7
NMTAP	48	96	6
NMTAP	48	144	1
NMTAP	48	192	3
NMTAP	48	216	2
NMTAP	48	240	3
BRTAP	48	288	0
BRTAP	48	288	4
NMSTR	49	0	1
NMSCR	49	0	1	96	120	7
EXTAP	49	96	7
EXSTR	49	192	0
NMSI_	49	192	0	96	48	4
NMTAP	49	288	3
NMTAP	49	336	2
NMSTR	50	0	1
NMSLR	50	0	1	96	72	7
NMTAP	50	96	4
NMSTR	50	144	4
NMSCL	50	144	4	96	96	0
NMSTR	50	240	0
NMSCL	50	240	0	96	96	4
NMTAP	50	336	4
NMSTR	51	96	1
NMSI_	51	96	1	96	48	4
NMTAP	51	192	0
CNSI_	51	240	4	0	48	2
CNSI_	51	288	2	0	48	7
NMTAP	51	336	6
NMSTR	52	0	6
NMSCR	52	0	6	96	48	1
NMTAP	52	96	4
NMHLD	52	144	4	96
NMTAP	52	240	3
NMTAP	52	288	2
NMTAP	52	288	4
NMSTR	53	0	1
NMSI_	53	0	1	96	48	3
NMSTR	53	0	5
NMSI_	53	0	5	96	48	7
NMTAP	53	96	1
NMTAP	53	96	5
NMTAP	53	192	4
NMTAP	53	240	3
NMTAP	53	288	2
NMSTR	53	336	1
NMSCL	53	336	1	96	96	6
NMSTR	54	48	6
NMSCL	54	48	6	96	96	3
NMSTR	54	144	3
NMSCL	54	144	3	96	96	0
NMTAP	54	240	0
NMTAP	54	336	5
NMTAP	55	0	4
NMTAP	55	0	6
NMTAP	55	96	2
NMTAP	55	144	1
NMTAP	55	144	3
NMTAP	55	240	4
NMTAP	55	240	5
NMSTR	55	288	3
NMSCR	55	288	3	96	168	2
NMHLD	55	288	6	288
NMTTP	56	192	4	D	0	M1
NMTTP	56	216	5	D	0	M1
NMTTP	56	240	6	D	0	M1
NMTTP	56	264	7	D	0	M1
NMTTP	56	288	0	D	0	M1
NMTTP	56	312	1	D	0	M1
NMTTP	56	336	2	D	0	M1
NMTTP	56	360	3	D	0	M1
NMSTR	57	0	6
NMSCL	57	0	6	96	120	0
EXTAP	57	96	0
EXSTR	57	192	7
NMSI_	57	192	7	96	48	3
NMTAP	57	288	3
NMTAP	57	336	4
NMTAP	58	0	5
NMSTR	58	48	6
NMSXR	58	48	6	96	168	0
NMTAP	58	144	6
NMTAP	58	144	7
NMTAP	58	240	1
NMTAP	58	288	2
NMTAP	58	336	3
NMTAP	59	0	0
NMTAP	59	0	4
NMTAP	59	96	2
NMSTR	59	96	6
NMSI_	59	96	6	96	48	3
NMTAP	59	192	7
CNSI_	59	240	3	0	48	5
CNSI_	59	288	5	0	48	0
NMTAP	59	336	1
NMSTR	60	0	1
NMSCL	60	0	1	96	48	6
NMTAP	60	96	3
NMHLD	60	144	3	96
NMTAP	60	240	4
NMTAP	60	288	3
NMTAP	60	288	5
NMTAP	61	0	1
NMTAP	61	0	4
NMTAP	61	96	6
NMTAP	61	96	7
NMTAP	61	192	5
NMTAP	61	240	4
NMTAP	61	288	3
NMSTR	61	336	2
NMSI_	61	336	2	96	48	0
NMSTR	62	48	4
NMSI_	62	48	4	96	48	6
NMSTR	62	144	0
NMSI_	62	144	0	96	48	4
NMTAP	62	240	7
NMTAP	62	336	5
NMTAP	63	0	4
NMTAP	63	0	6
NMTAP	63	96	2
NMTAP	63	144	1
NMTAP	63	144	3
NMTAP	63	240	0
NMTAP	63	240	7
NMTAP	63	288	0
NMSTR	63	288	7
NMSCL	63	288	7	96	96	4
NMSTR	64	0	4
NMSCL	64	0	4	96	96	1
NMSTR	64	96	1
BRSCL	64	96	1	96	192	1
CNSLL	64	192	1	0	96	5
CNSLL	64	288	5	0	96	1
EXHLD	65	96	0	96
NMTAP	65	192	3
NMTAP	65	240	1
NMTAP	65	240	3
EXHLD	65	336	7	96
NMTAP	66	48	4
NMTAP	66	96	4
NMTAP	66	96	6
NMTAP	66	192	1
NMTAP	66	192	3
NMTAP	66	288	7
NMTAP	66	312	6
EXHLD	66	336	5	288
NMTAP	67	96	3
NMSTR	67	144	1
NMSCR	67	144	1	96	48	4
NMTAP	67	240	1
NMSTR	67	336	6
NMSLL	67	336	6	96	96	0
NMTAP	68	48	3
NMTAP	68	96	2
NMSTR	68	144	1
NMSI_	68	144	1	96	48	3
NMTAP	68	240	4
NMTAP	68	288	5
BRHLD	68	336	4	96
NMHLD	68	336	6	96
NMTTP	69	96	5	B	0	M1
NMTTP	69	96	5	E	0	M1
BRTAP	69	96	7
NMTTP	69	192	1	B	0	M1
NMTTP	69	192	1	E	0	M1
BRTAP	69	192	3
NMTAP	69	336	2
NMTAP	69	336	6
NMTAP	70	0	3
NMTAP	70	48	3
NMTAP	70	96	7
NMTAP	70	144	2
NMTAP	70	192	5
NMTAP	70	240	5
NMTAP	70	288	2
NMHLD	70	336	1	96
BRHLD	70	336	3	96
BRTAP	71	96	0
NMTTP	71	96	2	B	0	M1
NMTTP	71	96	3	E	0	M1
BRTAP	71	192	4
NMTTP	71	192	6	B	0	M1
NMTTP	71	192	7	E	0	M1
NMTAP	71	336	1
NMTAP	71	336	5
NMTAP	72	0	4
NMTAP	72	48	3
NMTAP	72	96	2
NMTAP	72	144	1
NMTAP	72	192	0
BRTAP	72	240	1
BRTAP	72	240	7
BRTAP	72	288	1
BRTAP	72	288	7
BRTAP	72	336	2
BRSTR	72	336	6
NMSCL	72	336	6	96	96	3
NMSTR	73	48	3
NMSCL	73	48	3	96	96	0
NMSTR	73	144	0
NMSCL	73	144	0	96	96	5
NMSTR	73	240	5
NMSCL	73	240	5	96	96	2
NMSTR	73	336	2
NMSCL	73	336	2	96	96	7
NMSTR	74	48	7
NMSCL	74	48	7	96	96	4
NMTAP	74	144	1
NMTAP	74	192	1
NMTAP	74	288	0
NMSTR	74	336	0
NMSCR	74	336	0	96	96	3
NMSTR	75	48	3
NMSCR	75	48	3	96	96	6
NMSTR	75	144	6
NMSCR	75	144	6	96	96	1
NMSTR	75	240	1
NMSCR	75	240	1	96	96	4
NMSTR	75	336	4
NMSI_	75	336	4	96	96	2
CNSSL	76	48	4	0	240	0
CNSI_	76	144	2	0	48	6
CNSI_	76	192	6	0	96	0
EXHLD	77	0	2	192
EXHLD	77	0	6	192
NMHLD	77	288	3	384
NMTTP	78	96	4	D	0	M1
NMTTP	78	120	3	D	0	M1
NMTTP	78	144	2	D	0	M1
NMTTP	78	168	1	D	0	M1
NMTTP	78	192	0	D	0	M1
NMTTP	78	216	7	D	0	M1
NMTTP	78	240	6	D	0	M1
NMTTP	78	264	5	D	0	M1
NMTTP	78	288	4	D	0	M1
EXHLD	79	0	2	192
EXHLD	79	0	4	192
NMHLD	79	288	3	288
NMHLD	80	192	5	384
EXHLD	81	0	1	192
NMTHO	81	288	0	480	C	0	M1
NMHLD	83	0	7	96
NMTAP	83	144	0
NMTAP	83	144	6
NMHLD	83	288	1	192
NMHLD	83	288	5	192
NMTTP	84	192	1	B	0	M1
NMTTP	84	192	5	B	0	M1
NMTTP	85	0	5	E	0	M1
NMTAP	85	96	1
NMTAP	85	192	1
NMTTP	85	192	5	B	0	M1
NMHLD	85	288	3	192
NMTTP	86	0	6	B	0	M1
NMTAP	86	192	4
NMTTP	86	192	7	E	0	M1
NMTAP	86	288	4
NMTTP	87	0	3	E	0	M1
NMTAP	87	96	6
NMTTP	87	192	2	B	0	M1
NMTAP	87	192	6
NMTAP	87	288	5
NMTTP	88	0	1	B	0	M1
NMTAP	88	0	5
NMTAP	88	96	4
NMTTP	88	192	1	E	0	M1
NMTAP	88	192	4
NMTAP	88	288	3
NMTAP	89	0	2
NMTAP	89	0	3
NMTAP	89	96	4
NMTAP	89	96	6
NMTAP	89	192	2
NMTAP	89	192	3
NMTAP	89	288	4
NMTAP	89	288	6
NMTAP	90	0	4
NMTAP	90	0	5
NMTAP	90	96	1
NMTAP	90	96	3
NMTAP	90	192	4
NMTAP	90	192	5
NMTAP	90	288	1
NMTAP	90	288	3
NMHLD	91	0	6	96
NMHLD	91	0	7	96
NMHLD	91	144	2	96
NMHLD	91	144	3	96
NMSTR	91	288	1
NMSXL	91	288	1	96	120	0
NMSTR	91	288	5
NMSXL	91	288	5	96	120	4
BRTAP	92	192	1
BRTAP	92	192	5
NMSTR	93	0	2
BRSCL	93	0	2	96	96	4
NMTAP	93	0	4
NMTTP	93	96	6	B	0	M1
NMTTP	93	96	7	B	0	M1
NMTTP	93	96	7	E	1	M1
NMSTR	93	192	3
NMSI_	93	192	3	96	48	7
NMTAP	93	288	3
NMTAP	93	336	1
NMSTR	94	0	2
NMSI_	94	0	2	96	48	5
NMTAP	94	96	0
NMTAP	94	96	2
NMSTR	94	144	0
NMSI_	94	144	0	96	48	4
NMSTR	94	240	0
NMSCL	94	240	0	96	144	1
NMTAP	94	240	2
NMTAP	94	336	0
NMTAP	94	336	5
NMSTR	95	96	6
NMSI_	95	96	6	96	48	3
NMTAP	95	192	6
NMTAP	95	192	7
CNSI_	95	240	3	0	48	5
CNSI_	95	288	5	0	48	0
NMTAP	95	336	1
NMSTR	96	0	1
NMSI_	96	0	1	96	48	5
NMTAP	96	96	0
NMTAP	96	96	1
NMSTR	96	144	0
NMSCL	96	144	0	96	48	5
NMSTR	96	240	0
NMSCR	96	240	0	96	48	3
NMTAP	96	336	0
NMTAP	97	48	6
NMHLD	97	96	6	240
NMTAP	97	96	7
NMTAP	97	192	4
NMTAP	97	240	3
NMTAP	97	288	2
NMSTR	97	336	1
NMSCR	97	336	1	96	72	4
NMSTR	98	48	4
NMSCR	98	48	4	96	96	7
NMSTR	98	144	7
NMSCR	98	144	7	96	96	2
NMTAP	98	240	2
NMTAP	98	336	5
NMSTR	99	0	3
NMSI_	99	0	3	96	48	0
NMTAP	99	48	4
NMTAP	99	96	3
NMSTR	99	144	6
NMSI_	99	144	6	96	48	3
NMTAP	99	192	7
NMTAP	99	240	6
NMHLD	99	288	1	192
NMTTP	100	0	2	E	0	M1
NMTTP	100	24	1	E	0	M1
NMTTP	100	48	0	E	0	M1
NMTTP	100	72	7	E	0	M1
NMTTP	100	96	6	E	0	M1
NMTTP	100	120	5	E	0	M1
NMTTP	100	144	4	E	0	M1
NMTTP	100	168	3	E	0	M1
NMTAP	100	192	0
NMTAP	100	216	1
NMTAP	100	240	2
NMTAP	100	264	3
NMTAP	100	288	4
NMTAP	100	312	5
NMTAP	100	336	6
NMTAP	100	360	7
NMSTR	101	0	0
BRSCL	101	0	0	96	96	2
NMTTP	101	96	1	B	0	M1
NMTTP	101	96	2	B	0	M1
NMTTP	101	96	2	E	1	M1
NMSTR	101	192	7
NMSI_	101	192	7	96	48	3
NMTAP	101	288	3
CNSI_	101	336	3	0	48	1
NMTAP	101	336	4
NMTAP	102	0	5
NMSTR	102	48	6
NMSLL	102	48	6	96	96	0
NMTAP	102	144	6
NMTAP	102	144	7
NMTAP	102	240	2
NMTAP	102	288	2
NMTAP	102	336	3
NMTAP	103	0	1
NMSTR	103	0	5
NMSCR	103	0	5	96	96	3
NMTAP	103	96	3
NMSTR	103	192	4
NMSI_	103	192	4	96	48	0
NMTAP	103	288	7
CNSI_	103	336	0	0	48	2
NMTAP	103	336	6
NMSTR	104	0	5
NMSLR	104	0	5	96	96	3
NMTAP	104	96	0
NMSTR	104	144	0
NMSCR	104	144	0	96	96	4
NMSTR	104	240	4
NMSCR	104	240	4	96	96	0
NMTAP	104	336	0
NMHLD	105	96	2	96
NMTAP	105	96	6
NMTAP	105	192	4
NMTAP	105	240	2
NMTAP	105	288	3
NMTAP	105	336	4
NMSTR	105	336	6
NMSI_	105	336	6	96	48	3
NMSTR	106	48	1
NMSI_	106	48	1	96	48	5
NMTAP	106	48	6
NMTAP	106	144	1
NMSTR	106	144	7
NMSI_	106	144	7	96	48	3
NMTAP	106	240	0
NMTAP	106	240	7
NMTAP	106	336	2
NMSTR	107	0	2
NMSI_	107	0	2	96	48	7
NMTAP	107	48	3
NMTAP	107	96	2
NMSTR	107	144	5
NMSI_	107	144	5	96	48	0
NMTAP	107	192	4
NMTAP	107	240	5
NMSTR	107	288	3
NMSCL	107	288	3	96	96	7
NMSTR	108	0	7
NMSCL	108	0	7	96	96	3
BRSTR	108	96	3
BRSXR	108	96	3	96	96	3
CNSXL	108	192	3	0	96	3
NMTAP	109	0	1
NMTAP	109	0	5
NMTAP	109	48	4
NMTAP	109	96	1
NMTAP	109	144	4
NMTAP	109	192	1
NMTAP	109	192	3
NMTAP	109	288	1
NMTAP	109	288	3
NMHLD	109	336	2	288
NMTTP	110	48	0	B	0	M1
NMTTP	110	144	4	B	0	M1
NMTTP	110	240	2	B	0	M1
NMTAP	110	288	1
NMTAP	110	288	3
NMTAP	111	0	2
NMTAP	111	0	6
NMTAP	111	48	3
NMTAP	111	96	6
NMTAP	111	144	3
NMTAP	111	192	4
NMTAP	111	192	6
NMTAP	111	288	4
NMTAP	111	288	6
NMTAP	111	336	5
NMTAP	112	0	6
NMTAP	112	48	7
NMSTR	112	96	0
NMSCR	112	96	0	96	48	3
NMTAP	112	96	6
NMTAP	112	192	0
NMSTR	112	192	7
NMSCL	112	192	7	96	48	4
NMTAP	112	288	4
NMTAP	112	288	7
NMTAP	113	0	0
NMTAP	113	0	3
NMTAP	113	48	1
NMTAP	113	96	3
NMTAP	113	144	1
NMTAP	113	192	2
NMSTR	113	192	3
NMSI_	113	192	3	96	48	0
NMTAP	113	288	2
NMTAP	113	288	3
NMTAP	114	0	4
NMTAP	114	0	7
NMTAP	114	48	6
NMTAP	114	96	4
NMTAP	114	144	6
NMSTR	114	192	4
NMSI_	114	192	4	96	48	7
NMTAP	114	192	5
NMTAP	114	288	4
NMTAP	114	288	5
NMTAP	115	0	0
NMTAP	115	0	3
NMTAP	115	48	1
NMTAP	115	96	4
NMTAP	115	96	7
NMTAP	115	144	6
NMTAP	115	192	0
NMTAP	115	192	3
NMSTR	115	240	1
NMSI_	115	240	1	96	48	5
NMTAP	115	264	3
NMTAP	115	288	2
BRTAP	115	336	1
NMSTR	116	48	6
NMSI_	116	48	6	96	48	2
NMTAP	116	96	5
NMTAP	116	96	7
BRTAP	116	144	6
NMTAP	116	240	0
BRSTR	116	288	2
NMSCL	116	288	2	96	1104	4
BRTAP	116	288	6
NMTHO	117	0	0	1104	C	0	M1

T_REC_TAP	417
T_REC_BRK	18
T_REC_XTP	2
T_REC_HLD	59
T_REC_XHO	8
T_REC_STR	95
T_REC_BST	3
T_REC_XST	2
T_REC_TTP	79
T_REC_THO	2
T_REC_SLD	101
T_REC_ALL	786
T_NUM_TAP	595
T_NUM_BRK	21
T_NUM_HLD	69
T_NUM_SLD	101
T_NUM_ALL	786
T_JUDGE_TAP	616
T_JUDGE_HLD	263
T_JUDGE_SLD	101
T_JUDGE_ALL	980
TTM_EACHPAIRS	134
TTM_SCR_TAP	297500
TTM_SCR_BRK	54600
TTM_SCR_HLD	69000
TTM_SCR_SLD	151500
TTM_SCR_ALL	572600
TTM_SCR_S	553400
TTM_SCR_SS	570500
TTM_RAT_ACV	10036

