VERSION	0.00.00	1.04.00
FES_MODE	0
BPM_DEF	190.000	190.000	190.000	190.000
MET_DEF	4	4
RESOLUTION	384
CLK_DEF	384
COMPATIBLE_CODE	MA2

BPM	0	0	190.000
MET	0	0	4	4

NMSTR	1	0	0
NMSSL	1	0	0	96	288	4
NMTAP	2	96	5
NMHLD	2	192	4	192
NMHLD	2	192	5	192
NMTAP	3	192	3
NMTAP	3	192	4
NMTAP	4	0	3
NMTAP	4	96	2
NMHLD	4	192	2	192
NMHLD	4	192	3	192
NMTAP	5	192	3
NMTAP	5	192	4
NMTAP	6	0	4
NMTAP	6	96	5
NMTAP	6	192	6
NMTAP	6	288	7
NMTAP	7	0	3
NMTAP	7	96	2
NMTAP	7	192	1
NMTAP	7	288	0
NMHLD	8	0	7	96
NMTAP	8	96	0
NMTAP	8	144	0
NMTAP	8	240	1
NMTAP	8	240	6
NMHLD	8	288	1	288
NMHLD	8	288	6	288
EXTAP	9	288	0
EXTAP	9	288	7
NMTAP	10	0	1
NMTAP	10	96	2
NMTAP	10	192	3
NMHLD	10	288	2	96
NMHLD	10	288	4	96
NMTAP	11	96	5
NMTAP	11	192	3
NMTAP	11	192	6
NMTAP	12	0	5
NMTAP	12	96	5
NMTAP	12	192	4
NMHLD	12	288	3	96
NMHLD	12	288	5	96
NMTAP	13	96	2
NMTAP	13	192	1
NMTAP	13	192	4
NMTAP	14	0	0
NMTAP	14	0	1
NMSTR	14	96	0
NMSI_	14	96	0	96	96	5
NMSTR	14	96	1
NMSI_	14	96	1	96	96	4
NMTAP	15	0	6
NMTAP	15	0	7
NMSTR	15	96	6
NMSI_	15	96	6	96	96	3
NMSTR	15	96	7
NMSI_	15	96	7	96	96	2
NMTAP	16	0	0
NMTAP	16	0	1
NMTAP	16	96	0
NMTAP	16	96	1
NMTAP	16	192	0
NMTAP	16	192	7
NMHLD	16	288	0	240
NMHLD	16	288	7	240
NMTAP	18	0	2
NMTAP	18	0	4
NMHLD	18	96	1	576
NMTAP	18	288	3
NMTAP	19	96	2
NMTAP	19	288	3
NMTAP	20	0	0
NMTAP	20	0	4
NMSTR	20	192	2
NMSCL	20	192	2	96	288	5
NMTAP	22	0	3
NMTAP	22	0	5
NMHLD	22	96	6	576
NMTAP	22	288	4
NMTAP	23	96	5
NMTAP	23	288	4
NMTAP	24	0	3
NMTAP	24	0	7
NMSTR	24	192	5
NMSV_	24	192	5	96	144	2
EXTAP	25	144	1
EXTAP	25	192	1
NMTAP	25	288	0
NMTAP	25	288	7
NMTAP	26	0	0
NMTAP	26	0	7
NMTAP	26	96	6
NMTAP	26	192	6
NMTAP	26	192	7
NMTAP	26	288	6
NMTAP	26	288	7
NMTAP	27	0	5
NMTAP	27	96	5
NMTAP	27	192	4
NMTAP	27	192	5
NMTAP	27	288	4
NMTAP	27	288	5
NMTAP	28	0	3
NMTAP	28	96	3
NMTAP	28	192	2
NMTAP	28	192	3
NMTAP	28	288	2
NMTAP	28	288	3
NMTAP	29	0	1
NMHLD	29	96	1	192
NMTAP	29	192	3
NMTAP	29	288	3
NMHLD	30	0	2	96
NMHLD	30	0	4	96
NMTAP	30	192	7
NMTAP	30	288	6
NMHLD	31	0	3	96
NMHLD	31	0	5	96
NMTAP	31	192	4
NMTAP	31	288	3
NMTAP	32	0	2
NMHLD	32	96	2	432
NMSTR	32	192	3
NMSXL	32	192	3	96	288	7
NMSTR	34	0	1
NMSCR	34	0	1	96	144	4
NMTTP	34	288	4	B	0	M1
NMTTP	35	0	5	B	0	M1
NMSTR	35	192	3
NMSCL	35	192	3	96	144	0
NMTTP	36	96	0	E	0	M1
NMTTP	36	192	7	E	0	M1
NMSTR	37	0	6
NMSCL	37	0	6	96	144	3
NMTTP	37	288	0	B	0	M1
NMTTP	38	0	1	B	0	M1
NMSTR	38	192	4
NMSCR	38	192	4	96	144	7
NMTTP	39	96	3	E	0	M1
NMTTP	39	192	4	E	0	M1
NMSTR	40	0	1
NMSCR	40	0	1	96	144	4
NMTTP	40	288	5	B	0	M1
NMTTP	41	0	6	B	0	M1
NMTAP	41	192	4
NMTAP	41	288	3
NMTAP	42	0	2
NMTHO	42	96	0	240	C	0	M1
EXTAP	43	144	0
EXTAP	43	144	7
EXTAP	43	240	0
EXTAP	43	240	7
NMTAP	44	0	1
NMHLD	44	48	1	96
NMTAP	44	144	3
NMTAP	44	192	3
NMTAP	44	288	2
NMTAP	44	288	4
NMTAP	45	0	5
NMHLD	45	48	5	96
NMTAP	45	144	3
NMTAP	45	192	3
NMTAP	45	288	3
NMTAP	45	288	4
NMSTR	45	336	3
NMSCL	45	336	3	96	144	0
NMSTR	45	336	4
NMSCR	45	336	4	96	144	7
EXTAP	47	0	7
EXHLD	47	48	7	96
EXTAP	47	144	0
EXSTR	47	192	0
NMSSL	47	192	0	96	240	4
EXSTR	48	336	4
NMSXL	48	336	4	96	240	4
NMSXR	48	336	4	96	240	4
EXTAP	50	0	1
EXHLD	50	48	1	96
EXTAP	50	144	0
EXTAP	50	192	0
NMTAP	50	288	2
NMTAP	50	288	7
NMTAP	51	0	2
NMTAP	51	0	7
NMHLD	51	144	6	96
NMTAP	51	240	4
NMTAP	52	0	2
NMHLD	52	48	2	96
NMTAP	52	144	3
NMTAP	52	192	3
NMTAP	52	288	1
NMTAP	52	288	4
NMTAP	53	0	1
NMTAP	53	0	4
NMHLD	53	144	0	96
NMTAP	53	240	7
NMTAP	53	336	6
NMHLD	54	0	6	96
NMTAP	54	96	4
NMHLD	54	192	1	96
NMTAP	54	288	3
NMTAP	55	0	3
NMTAP	55	0	5
NMTAP	55	48	3
NMTAP	55	48	5
NMTAP	55	144	2
NMTAP	55	144	4
NMTAP	55	192	2
NMTAP	55	192	4
NMTAP	55	288	3
NMTAP	55	288	4
NMSTR	55	336	3
NMSUL	55	336	3	96	192	4
NMSTR	55	336	4
NMSUR	55	336	4	96	192	3
EXTAP	57	48	3
EXTAP	57	48	4
NMTAP	57	144	0
NMTAP	57	144	6
BRTAP	57	240	1
BRTAP	57	240	5
NMTAP	58	0	6
NMTAP	58	96	0
NMTAP	58	96	7
NMHLD	58	192	1	96
NMTAP	58	288	0
NMTAP	59	0	0
NMSTR	59	0	7
NMSLL	59	0	7	96	144	3
NMSLR	59	0	7	96	144	3
EXTAP	60	0	3
EXTAP	60	48	3
NMTAP	60	144	4
NMTAP	60	144	5
NMTAP	60	192	4
NMTAP	60	192	5
NMHLD	60	288	6	96
NMTAP	61	0	7
NMTAP	61	96	0
NMHLD	61	144	0	96
NMTAP	61	240	7
NMTAP	61	288	7
NMHLD	62	0	6	96
NMTAP	62	96	4
NMHLD	62	192	1	96
NMTAP	62	288	3
NMTAP	63	0	3
NMTAP	63	0	5
NMTAP	63	48	3
NMTAP	63	48	5
NMTAP	63	144	2
NMTAP	63	144	4
NMTAP	63	192	2
NMTAP	63	192	4
NMTAP	63	288	1
NMTAP	63	288	5
NMHLD	63	336	1	192
NMHLD	63	336	5	192
NMSTR	64	240	0
NMSCR	64	240	0	96	240	6
CNSUR	65	192	6	0	384	7
EXTAP	66	336	0
EXTAP	66	336	7
EXTAP	67	0	0
EXTAP	67	0	7
NMTAP	67	96	1
NMHLD	67	144	1	96
NMTAP	67	240	3
NMTAP	67	288	3
NMTAP	68	0	1
NMTAP	68	0	3
NMTAP	68	96	1
NMTAP	68	96	3
NMTAP	68	192	4
NMTAP	68	192	6
NMTAP	68	288	4
NMTAP	68	288	6
NMHLD	69	0	4	96
NMHLD	69	0	5	96
NMTAP	69	144	3
NMTAP	69	144	6
NMTAP	69	240	3
NMSTR	69	240	6
NMSI_	69	240	6	96	96	2
CNSI_	70	48	2	0	96	7
CNSI_	70	144	7	0	96	4
NMHLD	71	0	2	96
NMHLD	71	0	3	96
NMTAP	71	144	1
NMTAP	71	144	4
NMSTR	71	240	0
NMSCL	71	240	0	96	96	6
NMTAP	71	240	5
CNSI_	72	48	6	0	96	2
CNSCR	72	144	2	0	96	4
EXTAP	72	288	5
NMHLD	73	0	6	1056
NMTAP	73	144	7
NMTAP	73	336	7
NMTAP	74	144	0
NMSTR	74	240	0
NMSXR	74	240	0	96	336	4
BXHLD	76	0	3	336
BXHLD	76	0	5	336
NMSTR	77	48	2
NMSCR	77	48	2	96	144	5
EXHLD	78	48	7	288
NMSTR	79	48	1
NMSUR	79	48	1	96	336	4
NMSTR	81	48	5
NMSCL	81	48	5	96	144	2
EXTAP	81	336	0
EXHLD	82	0	0	336
NMSTR	83	48	7
NMSCL	83	48	7	96	192	3
NMTHO	83	336	0	288	C	0	M1
NMHLD	85	48	0	1440
NMTAP	85	48	7
NMTAP	85	336	7
NMTAP	86	144	6
NMTAP	86	336	5
NMTAP	87	144	4
NMTAP	87	336	3
NMTAP	88	144	3
NMTAP	88	336	4
NMTAP	89	48	4
NMTAP	89	144	5
NMTAP	89	240	6
NMTAP	89	336	7
NMTAP	90	48	0
NMTAP	90	144	1
NMTAP	90	240	2
NMTAP	90	240	4
NMTAP	90	288	2
NMTAP	90	288	4
NMTAP	91	0	3
NMTAP	91	0	5
NMTAP	91	48	3
NMTAP	91	48	5
NMTAP	91	144	2
NMTAP	91	144	4
NMTAP	91	192	2
BRSTR	91	192	4
BRSF_	91	192	4	96	144	0
EXTAP	92	240	2
EXTAP	92	240	6
EXSTR	92	336	3
BRSXL	92	336	3	96	240	3
BRSXR	92	336	3	96	240	3
NMTAP	94	0	6
NMHLD	94	48	6	96
NMTAP	94	144	7
NMTAP	94	192	7
NMTAP	94	288	0
NMTAP	94	288	5
NMTAP	95	0	0
NMTAP	95	0	5
NMHLD	95	144	2	96
NMTAP	95	240	3
NMTAP	96	0	5
NMHLD	96	48	5	96
NMTAP	96	144	4
NMTAP	96	192	4
NMTAP	96	288	6
NMTAP	96	288	7
NMTAP	97	0	0
NMTAP	97	0	1
NMTAP	97	96	2
NMTAP	97	144	2
NMTAP	97	240	3
NMTAP	97	240	5
NMTAP	97	336	6
NMHLD	98	0	6	96
NMTAP	98	96	4
NMHLD	98	192	1	96
NMTAP	98	288	3
NMTAP	99	0	2
NMTAP	99	0	4
NMTAP	99	48	2
NMTAP	99	48	4
NMTAP	99	144	3
NMTAP	99	144	5
NMTAP	99	192	3
NMTAP	99	192	5
NMTAP	99	288	3
NMTAP	99	288	4
NMSTR	99	336	3
NMSUL	99	336	3	96	192	4
NMSTR	99	336	4
NMSUR	99	336	4	96	192	3
EXTAP	101	48	2
EXTAP	101	48	5
BXTAP	101	144	3
BXTAP	101	144	4
BRTAP	101	240	1
BRTAP	101	240	6
NMHLD	102	0	0	96
NMHLD	102	0	7	96
NMHLD	102	192	6	96
NMTAP	102	288	4
NMSTR	103	0	3
NMSLL	103	0	3	96	144	7
NMSLR	103	0	3	96	144	7
NMTAP	103	0	4
NMTAP	104	0	7
NMTAP	104	48	7
NMTAP	104	144	0
NMTAP	104	144	6
NMTAP	104	192	0
NMTAP	104	192	6
NMHLD	104	288	1	96
NMTAP	105	0	3
NMTAP	105	96	3
NMTAP	105	96	5
NMTAP	105	144	3
NMTAP	105	144	5
NMTAP	105	240	6
NMHLD	105	288	6	96
NMHLD	106	0	4	96
NMHLD	106	96	3	96
NMHLD	106	192	1	96
NMTAP	106	288	7
NMTAP	107	0	0
NMTAP	107	0	6
NMTAP	107	48	0
NMTAP	107	48	6
NMTAP	107	144	1
NMTAP	107	144	7
NMTAP	107	192	1
NMTAP	107	192	7
NMTAP	107	288	3
NMTAP	107	288	4
NMSTR	107	336	3
BRSCL	107	336	3	96	96	0
NMSTR	107	336	4
BRSCR	107	336	4	96	96	7
BXTAP	108	240	0
BXTAP	108	240	7
BXTAP	108	336	1
BXTAP	108	336	6
NMHLD	109	48	2	96
NMTAP	109	144	3
NMHLD	109	240	5	96
NMTAP	109	336	4
NMTAP	110	48	6
NMSTR	110	144	6
NMSI_	110	144	6	96	96	3
NMSTR	110	144	7
NMSI_	110	144	7	96	96	2
NMHLD	111	48	5	96
NMTAP	111	144	4
NMHLD	111	240	2	96
NMTAP	111	336	3
NMTAP	112	48	1
NMSTR	112	144	0
NMSI_	112	144	0	96	96	5
NMSTR	112	144	1
NMSI_	112	144	1	96	96	4
NMHLD	113	48	3	96
NMHLD	113	48	6	96
NMHLD	113	192	4	96
NMHLD	113	192	5	96
NMTAP	113	336	3
NMTAP	113	336	6
NMHLD	114	48	1	96
NMHLD	114	48	4	96
NMHLD	114	192	2	96
NMHLD	114	192	3	96
NMTAP	114	336	1
NMTAP	114	336	4
NMHLD	115	48	2	96
NMHLD	115	48	5	96
NMTAP	115	240	0
NMTAP	115	240	7
NMTAP	115	288	0
NMTAP	115	288	7
NMHLD	116	0	1	192
NMHLD	116	0	6	192
NMTHO	117	48	0	1104	C	0	M1
NMTTP	117	48	1	B	0	M1
NMTTP	117	48	6	B	0	M1

T_REC_TAP	266
T_REC_BRK	4
T_REC_XTP	27
T_REC_BXX	6
T_REC_HLD	71
T_REC_XHO	4
T_REC_BHO	0
T_REC_BXH	2
T_REC_STR	35
T_REC_BST	1
T_REC_XST	3
T_REC_XBS	0
T_REC_TTP	12
T_REC_THO	3
T_REC_SLD	38
T_REC_BSL	5
T_REC_ALL	477
T_NUM_TAP	343
T_NUM_BRK	18
T_NUM_HLD	78
T_NUM_SLD	38
T_NUM_ALL	477
T_JUDGE_TAP	354
T_JUDGE_HLD	314
T_JUDGE_SLD	43
T_JUDGE_ALL	711
TTM_EACHPAIRS	122
TTM_SCR_TAP	171500
TTM_SCR_BRK	46800
TTM_SCR_HLD	78000
TTM_SCR_SLD	57000
TTM_SCR_ALL	353300
TTM_SCR_S	341000
TTM_SCR_SS	351500
TTM_RAT_ACV	10051

