VERSION	0.00.00	1.04.00
FES_MODE	0
BPM_DEF	190.000	190.000	190.000	170.000
MET_DEF	4	4
RESOLUTION	384
CLK_DEF	384
COMPATIBLE_CODE	MA2

BPM	0	0	190.000
BPM	41	192	180.000
BPM	42	96	170.000
BPM	43	0	190.000
MET	0	0	4	4
MET	34	0	4	3
MET	43	0	4	4

NMTAP	2	0	2
NMTAP	2	192	2
NMTAP	3	0	1
NMTAP	3	192	1
NMTAP	4	0	0
NMTAP	4	192	0
NMTAP	5	0	7
NMTAP	5	192	7
NMTAP	6	0	6
NMTAP	6	192	6
NMTAP	7	0	5
NMTAP	7	192	5
EXTAP	8	0	3
EXTAP	8	0	4
EXTAP	8	144	3
EXTAP	8	144	4
EXHLD	8	288	3	288
EXHLD	8	288	4	288
NMHLD	10	0	5	192
NMTAP	10	192	4
NMHLD	11	0	6	192
NMTAP	11	192	7
NMHLD	12	0	1	192
NMTAP	12	192	0
NMHLD	13	0	2	192
NMTAP	13	192	3
NMTAP	14	0	5
NMTAP	14	96	5
NMTAP	14	192	4
NMTAP	14	192	5
NMTAP	15	0	2
NMTAP	15	96	2
NMTAP	15	192	2
NMTAP	15	192	3
NMTAP	16	0	3
NMTAP	16	0	4
NMTAP	16	96	3
NMTAP	16	96	4
EXTAP	16	192	3
EXTAP	16	192	4
EXHLD	16	336	3	192
EXHLD	16	336	4	192
NMTAP	18	0	5
NMTAP	18	96	5
NMTAP	18	192	5
NMTAP	19	0	6
NMTAP	19	96	6
NMTAP	19	192	6
NMTAP	20	0	7
NMTAP	20	96	7
NMTAP	20	192	7
NMTAP	21	0	0
NMTAP	21	0	1
NMTAP	21	192	0
NMTAP	21	192	1
NMTAP	22	0	2
NMTAP	22	96	2
NMTAP	22	192	2
NMTAP	23	0	1
NMTAP	23	96	1
NMTAP	23	192	1
NMTAP	24	0	0
NMTAP	24	96	0
NMTAP	24	192	0
NMTAP	25	0	6
NMTAP	25	0	7
NMTAP	25	192	6
NMTAP	25	192	7
NMHLD	26	0	5	192
NMHLD	26	192	4	192
NMHLD	27	0	3	192
NMTAP	27	192	2
NMHLD	28	0	2	192
NMHLD	28	192	3	192
NMHLD	29	0	4	192
NMTAP	29	192	5
NMHLD	30	0	6	192
NMTAP	30	192	7
NMHLD	31	0	1	192
NMTAP	31	192	0
NMHLD	32	0	2	192
NMTAP	32	192	3
NMHLD	33	0	4	192
NMHLD	33	0	5	192
NMSTR	34	0	6
NMSI_	34	0	6	96	240	3
NMSTR	35	192	1
NMSI_	35	192	1	96	240	4
NMSTR	37	0	5
NMSI_	37	0	5	96	240	0
NMSTR	38	192	2
NMSI_	38	192	2	96	240	7
NMSTR	40	0	6
NMSI_	40	0	6	96	240	2
NMSTR	41	192	1
NMSI_	41	192	1	96	240	5
NMTAP	43	0	6
NMTAP	43	96	6
NMTAP	43	192	6
NMTAP	44	0	5
NMTAP	44	96	5
NMTAP	44	192	5
EXTAP	45	0	3
EXTAP	45	0	4
EXTAP	45	144	3
EXTAP	45	144	4
EXHLD	45	288	3	288
EXHLD	45	288	4	288
NMTHO	47	0	0	384	C	1	L1
NMTAP	49	0	1
NMTAP	49	96	1
NMTAP	49	192	0
NMTAP	49	288	0
NMTAP	50	0	7
NMTAP	50	96	7
NMTAP	50	192	6
NMTAP	50	192	7
NMTAP	51	0	6
NMTAP	51	96	6
NMTAP	51	192	7
NMTAP	51	288	7
NMTAP	52	0	0
NMTAP	52	96	0
NMTAP	52	192	0
NMTAP	52	192	1
NMTAP	53	0	1
NMTAP	53	96	1
NMTAP	53	192	0
NMTAP	53	288	0
NMTAP	54	0	7
NMTAP	54	96	7
NMTAP	54	192	6
NMTAP	54	192	7
BXTAP	55	0	4
BXTAP	55	0	5
BXTAP	55	144	4
BXTAP	55	144	5
EXHLD	55	288	4	288
EXHLD	55	288	5	288
NMTAP	57	0	5
NMTAP	57	96	5
NMTAP	57	192	6
NMTAP	57	288	6
NMTAP	58	0	7
NMTAP	58	96	7
NMTAP	58	192	0
NMTAP	58	192	1
NMTAP	59	0	2
NMTAP	59	96	2
NMTAP	59	192	1
NMTAP	59	288	1
NMTAP	60	0	0
NMTAP	60	96	0
NMTAP	60	192	6
NMTAP	60	192	7
NMTAP	61	0	5
NMTAP	61	96	5
NMTAP	61	192	6
NMTAP	61	288	6
NMTAP	62	0	7
NMTAP	62	96	7
NMTAP	62	192	0
NMTAP	62	192	1
BXTAP	63	0	2
BXTAP	63	0	3
BXTAP	63	144	2
BXTAP	63	144	3
EXHLD	63	288	2	288
EXHLD	63	288	3	288
NMTTP	65	0	1	B	0	L1
NMTTP	65	96	2	B	0	L1
NMTTP	65	192	3	B	0	L1
NMTTP	66	0	6	B	0	L1
NMTTP	66	96	5	B	0	L1
NMTTP	66	192	4	B	0	L1
NMTTP	67	0	0	B	0	L1
NMTTP	67	96	1	B	0	L1
NMTTP	67	192	2	B	0	L1
NMTTP	67	192	3	B	0	L1
NMTTP	68	0	7	B	0	L1
NMTTP	68	96	6	B	0	L1
NMTTP	68	192	4	B	0	L1
NMTTP	68	192	5	B	0	L1
NMTTP	69	0	1	B	0	L1
NMTTP	69	96	2	B	0	L1
NMTTP	69	192	3	B	0	L1
NMTTP	69	288	4	B	0	L1
NMTTP	70	0	0	C	0	L1
NMTTP	71	0	6	B	0	L1
NMTTP	71	96	5	B	0	L1
NMTTP	71	192	4	B	0	L1
NMTTP	71	288	3	B	0	L1
NMTTP	72	0	0	C	0	L1
NMTAP	73	0	1
NMTAP	73	96	1
NMTAP	73	192	0
NMTAP	73	192	1
NMTAP	74	0	2
NMTAP	74	96	2
NMTAP	74	192	2
NMTAP	74	192	3
NMTAP	75	0	5
NMTAP	75	96	5
NMTAP	75	192	4
NMTAP	75	192	5
EXHLD	76	0	6	192
EXHLD	76	0	7	192
NMSTR	77	0	6
NMSCL	77	0	6	96	288	3
NMSTR	77	0	7
NMSCR	77	0	7	96	288	2
NMSTR	79	0	0
NMSCL	79	0	0	96	288	5
NMSTR	79	0	1
NMSCR	79	0	1	96	288	4
NMSTR	81	0	6
NMSCL	81	0	6	96	288	3
NMSTR	81	0	7
NMSCR	81	0	7	96	288	2
NMSTR	83	0	0
NMSCL	83	0	0	96	288	5
NMSTR	83	0	1
NMSCR	83	0	1	96	288	4
NMHLD	85	0	6	192
NMHLD	85	0	7	192
NMHLD	86	0	4	192
NMHLD	86	0	5	192
NMHLD	87	0	2	192
NMHLD	87	0	3	192
NMHLD	88	0	0	192
NMHLD	88	0	1	192
NMTAP	89	0	1
NMTAP	89	96	1
NMTAP	89	192	1
NMTAP	90	0	2
NMTAP	90	96	2
NMTAP	90	192	2
EXTAP	91	0	3
EXTAP	91	0	4
EXTAP	91	144	3
EXTAP	91	144	4
EXHLD	91	288	3	288
EXHLD	91	288	4	288
NMTAP	93	0	2
BRTAP	93	96	2
NMTAP	93	192	0
NMTAP	93	192	1
NMTAP	93	288	0
NMTAP	93	288	1
NMTAP	94	0	7
NMTAP	94	96	7
NMTAP	94	192	6
NMTAP	94	192	7
NMTAP	95	0	5
NMTAP	95	96	5
NMTAP	95	192	6
NMTAP	95	192	7
NMTAP	95	288	6
NMTAP	95	288	7
NMTAP	96	0	0
NMTAP	96	96	0
NMTAP	96	192	0
NMTAP	96	192	1
NMTAP	97	0	2
NMTAP	97	96	2
NMTAP	97	192	0
NMTAP	97	192	1
NMTAP	97	288	0
NMTAP	97	288	1
NMTAP	98	0	7
NMTAP	98	96	7
NMTAP	98	192	6
NMTAP	98	192	7
BXTAP	99	0	4
BXTAP	99	0	5
BXTAP	99	144	4
BXTAP	99	144	5
EXHLD	99	288	4	288
EXHLD	99	288	5	288
NMTAP	101	0	5
BRTAP	101	96	5
NMTAP	101	192	6
NMTAP	101	192	7
NMTAP	101	288	6
NMTAP	101	288	7
NMTAP	102	0	0
NMTAP	102	96	0
NMTAP	102	192	0
NMTAP	102	192	1
NMTAP	103	0	2
NMTAP	103	96	2
NMTAP	103	192	0
NMTAP	103	192	1
NMTAP	103	288	0
NMTAP	103	288	1
NMTAP	104	0	7
NMTAP	104	96	7
NMTAP	104	192	6
NMTAP	104	192	7
NMTAP	105	0	5
NMTAP	105	96	5
NMTAP	105	192	6
NMTAP	105	192	7
NMTAP	105	288	6
NMTAP	105	288	7
NMTAP	106	0	0
NMTAP	106	96	0
NMTAP	106	192	0
NMTAP	106	192	1
BXTAP	107	0	2
BXTAP	107	0	3
BXTAP	107	144	2
BXTAP	107	144	3
EXHLD	107	288	2	288
EXHLD	107	288	3	288
NMTAP	109	0	2
NMTAP	109	96	2
NMTAP	109	192	2
NMTAP	109	288	2
NMTAP	109	288	3
NMTAP	110	0	1
NMTAP	110	96	1
NMTAP	110	192	1
NMTAP	110	288	0
NMTAP	110	288	1
NMTAP	111	0	7
NMTAP	111	96	7
NMTAP	111	192	7
NMTAP	111	288	6
NMTAP	111	288	7
NMHLD	112	0	4	192
NMHLD	112	0	5	192
NMTAP	113	0	5
NMTAP	113	96	5
NMTAP	113	192	5
NMTAP	113	288	4
NMTAP	113	288	5
NMTAP	114	0	6
NMTAP	114	96	6
NMTAP	114	192	6
NMTAP	114	288	6
NMTAP	114	288	7
NMTAP	115	0	0
NMTAP	115	96	0
NMTAP	115	192	0
NMTAP	115	288	0
NMTAP	115	288	1
NMHLD	116	0	2	192
NMHLD	116	0	3	192
NMTHO	117	0	0	1104	C	1	L1

T_REC_TAP	219
T_REC_BRK	2
T_REC_XTP	14
T_REC_BXX	16
T_REC_HLD	27
T_REC_XHO	18
T_REC_BHO	0
T_REC_BXH	0
T_REC_STR	14
T_REC_BST	0
T_REC_XST	0
T_REC_XBS	0
T_REC_TTP	24
T_REC_THO	2
T_REC_SLD	14
T_REC_BSL	0
T_REC_ALL	350
T_NUM_TAP	271
T_NUM_BRK	18
T_NUM_HLD	47
T_NUM_SLD	14
T_NUM_ALL	350
T_JUDGE_TAP	289
T_JUDGE_HLD	239
T_JUDGE_SLD	14
T_JUDGE_ALL	542
TTM_EACHPAIRS	76
TTM_SCR_TAP	135500
TTM_SCR_BRK	46800
TTM_SCR_HLD	47000
TTM_SCR_SLD	21000
TTM_SCR_ALL	250300
TTM_SCR_S	241050
TTM_SCR_SS	248500
TTM_RAT_ACV	10072

