VERSION	0.00.00	1.04.00
FES_MODE	0
BPM_DEF	225.000	225.000	225.000	225.000
MET_DEF	4	4
RESOLUTION	384
CLK_DEF	576
COMPATIBLE_CODE	MA2

BPM	0	0	225.000
MET	0	0	4	3

NMTAP	1	192	0
NMTAP	1	216	7
NMTAP	1	240	0
NMTAP	1	264	7
NMTAP	1	288	0
NMTAP	1	312	7
NMTAP	1	336	0
NMTAP	1	360	7
NMTAP	2	0	0
NMTAP	2	24	7
NMTAP	2	48	0
NMTAP	2	72	7
NMTAP	2	96	0
NMTAP	2	120	7
NMTAP	2	144	0
NMTAP	2	168	7
NMTAP	2	192	0
NMTAP	2	216	7
EXTAP	2	240	0
EXTAP	2	252	1
EXTAP	2	264	2
EXTAP	2	276	3
EXTAP	2	288	4
EXTAP	2	300	5
EXTAP	2	312	6
EXTAP	2	324	7
EXTAP	2	336	0
EXTAP	2	348	1
EXTAP	2	348	6
EXTAP	2	360	2
EXSTR	2	360	5
NMSXL	2	360	5	96	504	4
BXSTR	2	372	3
NMSXR	2	372	3	96	492	4
NMTTP	3	0	4	A	1	M1
CNSCL	4	192	4	0	432	4
CNSCR	4	192	4	0	432	4
NMTAP	6	0	2
NMTAP	6	48	7
NMTAP	6	96	2
NMTAP	6	144	5
NMTAP	6	192	0
NMTAP	6	240	5
NMTAP	6	288	1
NMTAP	6	336	1
NMTAP	7	0	6
NMTAP	7	48	6
NMTAP	7	96	3
NMTAP	7	144	4
NMTAP	7	192	1
NMTAP	7	240	3
NMTAP	7	288	1
NMTAP	7	336	6
NMTAP	8	0	4
NMTAP	8	48	6
NMTAP	8	96	0
NMTAP	8	96	2
NMTAP	8	192	5
NMTAP	8	192	7
NMTAP	8	288	1
NMTAP	8	288	6
BRTAP	9	0	0
BRTAP	9	0	7
NMTAP	9	12	1
NMTAP	9	12	6
NMSTR	9	24	2
NMSXR	9	24	2	96	504	3
NMTAP	9	24	5
BRSTR	9	36	4
NMSXL	9	36	4	96	492	3
NMTTP	9	48	3	A	1	M1
CNSCL	10	240	3	0	432	3
CNSCR	10	240	3	0	432	3
NMTAP	12	0	6
NMTAP	12	48	4
NMTAP	12	96	6
NMTAP	12	144	2
NMTAP	12	192	4
NMTAP	12	240	2
NMTAP	12	288	5
NMTAP	12	336	3
NMTAP	13	0	5
NMTAP	13	48	1
NMTAP	13	96	3
NMTAP	13	144	1
NMTAP	13	192	5
NMTAP	13	240	4
NMTAP	13	288	6
NMTAP	13	336	4
NMTAP	14	0	7
NMTAP	14	48	7
NMTAP	14	96	2
NMTAP	14	144	3
NMTAP	14	192	1
NMTAP	14	240	3
NMSTR	14	288	0
NMSCR	14	288	0	96	288	0
NMSTR	14	336	4
NMSSL	14	336	4	96	240	0
NMTTP	15	0	0	A	1	M1
EXSTR	16	192	1
NMSI_	16	192	1	96	48	3
EXTAP	16	192	6
NMTAP	16	288	1
NMTAP	16	288	4
NMSTR	16	336	5
NMSI_	16	336	5	96	48	7
NMTAP	17	48	4
NMTAP	17	48	5
NMTAP	17	96	3
NMTAP	17	192	1
NMTAP	17	240	1
NMTAP	17	288	3
NMTAP	17	336	2
NMTAP	18	0	3
NMSTR	18	0	5
NMSI_	18	0	5	96	48	3
NMTAP	18	96	2
NMTAP	18	96	5
NMTAP	18	144	1
NMSTR	18	192	0
NMSI_	18	192	0	96	48	4
NMTAP	18	240	7
NMTAP	18	288	6
NMTAP	19	0	3
NMHLD	19	0	5	96
NMSTR	19	96	4
NMSXL	19	96	4	96	192	0
NMTAP	19	144	3
NMTAP	19	192	2
NMTAP	19	288	2
NMTAP	20	0	1
NMTAP	20	48	1
NMTAP	20	96	0
NMTAP	20	96	1
NMHLD	20	192	6	96
NMTAP	20	192	7
NMTAP	20	288	3
NMTAP	20	336	5
NMSTR	21	0	1
NMSCR	21	0	1	96	48	3
NMTAP	21	48	4
NMTAP	21	96	1
NMSTR	21	144	7
NMSCL	21	144	7	96	48	5
NMTAP	21	192	4
NMTAP	21	240	7
NMSTR	21	288	0
NMSI_	21	288	0	96	48	4
NMTAP	21	336	4
NMTAP	22	0	0
NMTAP	22	48	6
NMTAP	22	96	7
NMTAP	22	144	0
EXTAP	22	192	1
EXSTR	22	192	6
NMSI_	22	192	6	96	48	4
NMTAP	22	288	3
NMTAP	22	288	6
NMSTR	22	336	2
NMSI_	22	336	2	96	48	0
NMTAP	23	48	2
NMTAP	23	48	3
NMTAP	23	96	4
NMTAP	23	192	6
NMTAP	23	240	6
NMTAP	23	288	4
NMTAP	23	336	5
NMSTR	24	0	2
NMSI_	24	0	2	96	48	4
NMTAP	24	0	4
NMTAP	24	96	2
NMTAP	24	96	5
NMTAP	24	144	6
NMSTR	24	192	7
NMSI_	24	192	7	96	48	3
NMTAP	24	240	0
NMTAP	24	288	1
NMTAP	25	0	2
NMTAP	25	0	4
NMSTR	25	96	3
NMSXR	25	96	3	96	192	7
NMTAP	25	144	3
NMTAP	25	192	6
NMTAP	25	288	4
NMSTR	26	0	5
NMSXL	26	0	5	96	192	1
NMTAP	26	48	5
NMTAP	26	96	2
NMTAP	26	192	4
NMSTR	26	288	3
NMSXR	26	288	3	96	192	0
NMTAP	26	336	3
NMTAP	27	0	7
NMTAP	27	96	4
NMTAP	27	192	7
NMTAP	27	224	6
NMTAP	27	256	5
NMSTR	27	288	2
NMSI_	27	288	2	96	48	5
NMTAP	27	288	4
NMTAP	28	0	2
NMSTR	28	0	6
NMSI_	28	0	6	96	48	1
NMSTR	28	96	0
NMSI_	28	96	0	96	48	4
NMTAP	28	96	6
EXTAP	28	192	0
EXTAP	28	192	7
NMTAP	28	288	5
NMTAP	28	336	5
NMSTR	29	0	4
NMSCL	29	0	4	96	48	2
NMTAP	29	48	6
NMHLD	29	96	7	96
NMTAP	29	192	0
NMTAP	29	240	0
NMSTR	29	288	6
NMSCL	29	288	6	96	48	4
NMTAP	29	336	2
NMHLD	30	0	1	96
NMTAP	30	96	3
NMTAP	30	144	3
NMSTR	30	192	0
NMSCL	30	192	0	96	48	6
NMTAP	30	240	1
NMHLD	30	288	2	96
NMTAP	31	0	4
NMTAP	31	48	4
NMSTR	31	96	2
NMSCL	31	96	2	96	48	0
NMTAP	31	144	6
NMHLD	31	192	7	96
NMTAP	31	288	4
NMHLD	31	336	5	96
NMTAP	32	48	2
NMHLD	32	96	3	96
NMHLD	32	192	1	96
NMSTR	32	288	2
NMSCL	32	288	2	96	192	5
NMSTR	32	336	2
NMSUL	32	336	2	96	144	5
NMTAP	33	288	0
NMTAP	33	320	1
NMTAP	33	352	2
NMSTR	34	0	3
NMSI_	34	0	3	96	48	1
NMTAP	34	0	5
NMTAP	34	96	3
NMSTR	34	96	7
NMSI_	34	96	7	96	48	3
EXTAP	34	192	0
EXTAP	34	192	7
NMTAP	34	288	2
NMTAP	34	336	2
NMSTR	35	0	3
NMSCR	35	0	3	96	48	6
NMTAP	35	48	1
NMHLD	35	96	0	96
NMTAP	35	192	7
NMTAP	35	240	7
NMSTR	35	288	0
NMSCR	35	288	0	96	48	3
NMTAP	35	336	5
NMHLD	36	0	6	96
NMTAP	36	96	4
NMTAP	36	144	4
NMSTR	36	192	5
NMSCR	36	192	5	96	48	0
NMTAP	36	240	3
NMHLD	36	288	2	96
NMTAP	37	0	3
NMTAP	37	48	3
NMTAP	37	96	2
NMTAP	37	144	3
NMHLD	37	192	0	96
NMTAP	37	192	4
NMTAP	37	288	2
NMHLD	37	336	2	96
NMTAP	38	48	4
NMSTR	38	96	4
NMSCR	38	96	4	96	96	7
NMSTR	38	192	7
NMSI_	38	192	7	96	96	3
NMSTR	38	288	3
NMSCL	38	288	3	96	96	0
NMSTR	39	0	0
NMSSL	39	0	0	96	96	4
NMSTR	39	192	5
NMSCR	39	192	5	96	192	2
NMSTR	39	240	5
NMSUR	39	240	5	96	144	2
BRTAP	40	192	0
BRTAP	40	192	7
NMTAP	40	288	2
NMTAP	40	336	1
NMSTR	40	336	3
NMSI_	40	336	3	96	48	7
NMTAP	41	48	0
NMSTR	41	96	1
NMSI_	41	96	1	96	48	5
NMTAP	41	192	1
NMSTR	41	192	6
NMSI_	41	192	6	96	48	0
NMSTR	41	288	2
NMSI_	41	288	2	96	48	4
NMTAP	41	288	6
NMTAP	42	0	2
NMTAP	42	0	5
NMTAP	42	96	5
NMSTR	42	144	4
NMSI_	42	144	4	96	48	0
NMTAP	42	144	6
NMTAP	42	240	7
NMSTR	42	288	6
NMSI_	42	288	6	96	48	2
NMSTR	43	0	1
NMSI_	43	0	1	96	48	7
NMTAP	43	0	6
NMTAP	43	96	1
NMSTR	43	96	5
NMSI_	43	96	5	96	48	3
NMTAP	43	192	2
NMTAP	43	192	5
NMTAP	43	288	2
NMSTR	43	336	1
NMSSR	43	336	1	96	96	5
NMTAP	43	336	3
NMTAP	44	48	6
NMSTR	44	96	7
NMSI_	44	96	7	96	48	3
NMSTR	44	192	7
NMSCR	44	192	7	96	96	2
NMSTR	44	288	2
NMSCR	44	288	2	96	96	5
NMTAP	45	0	5
NMTAP	45	96	7
NMTAP	45	144	0
NMSTR	45	144	6
NMSSL	45	144	6	96	96	2
NMTAP	45	240	1
NMSTR	45	288	0
NMSI_	45	288	0	96	48	4
NMSTR	46	0	0
NMSCL	46	0	0	96	96	5
NMSTR	46	96	5
NMSCL	46	96	5	96	192	6
NMTTP	46	192	0	C	1	M1
CNSCL	47	0	6	0	48	4
EXTAP	47	96	0
NMTAP	47	112	1
NMTAP	47	128	2
EXTAP	47	144	6
NMTAP	47	160	5
NMTAP	47	176	4
EXTAP	47	192	1
NMTAP	47	208	2
NMTAP	47	224	3
EXTAP	47	240	7
NMTAP	47	256	6
NMTAP	47	272	5
EXTAP	47	288	0
NMTAP	47	304	1
NMTAP	47	320	2
EXTAP	47	336	6
NMTAP	47	352	5
NMTAP	47	368	4
BRTAP	48	0	3
BRTAP	48	0	7
EXSTR	48	96	0
NMSI_	48	96	0	96	48	3
NMSTR	48	144	3
NMSI_	48	144	3	96	48	1
NMTAP	48	192	0
NMTAP	48	240	4
NMHLD	48	288	5	96
NMSTR	49	0	1
NMSI_	49	0	1	96	48	4
NMSTR	49	48	4
NMSI_	49	48	4	96	48	2
NMTAP	49	96	1
NMTAP	49	144	5
NMHLD	49	192	6	96
NMSTR	49	288	2
NMSI_	49	288	2	96	48	5
NMSTR	49	336	5
NMSI_	49	336	5	96	48	3
NMTAP	50	0	2
NMTAP	50	48	6
NMHLD	50	96	7	96
NMSTR	50	192	3
NMSI_	50	192	3	96	48	6
NMSTR	50	240	6
NMSI_	50	240	6	96	48	4
NMTAP	50	288	3
NMTAP	50	336	7
NMHLD	51	0	0	96
NMSTR	51	96	2
NMSI_	51	96	2	96	48	7
NMSTR	51	144	7
NMSI_	51	144	7	96	48	1
NMTAP	51	192	2
NMTAP	51	240	4
NMHLD	51	288	5	96
NMSTR	52	0	3
NMSI_	52	0	3	96	48	6
NMSTR	52	48	6
NMSI_	52	48	6	96	48	4
NMTAP	52	96	3
NMTAP	52	144	7
NMHLD	52	192	0	96
NMSTR	52	288	2
NMSI_	52	288	2	96	48	7
NMSTR	52	336	7
NMSI_	52	336	7	96	48	1
NMTAP	53	0	2
NMTAP	53	48	4
NMHLD	53	96	5	96
NMTAP	53	192	0
NMTAP	53	240	0
NMTAP	53	288	1
NMTAP	53	288	7
NMTAP	53	336	2
NMTAP	53	336	6
NMHLD	54	0	3	96
NMTAP	54	0	5
NMSTR	54	96	7
NMSI_	54	96	7	96	48	4
NMSTR	54	144	4
NMSI_	54	144	4	96	48	6
NMTAP	54	192	7
NMTAP	54	240	3
NMHLD	54	288	2	96
NMSTR	55	0	6
NMSI_	55	0	6	96	48	3
NMSTR	55	48	3
NMSI_	55	48	3	96	48	5
NMTAP	55	96	6
NMTAP	55	144	2
NMHLD	55	192	1	96
NMSTR	55	288	5
NMSI_	55	288	5	96	48	2
NMSTR	55	336	2
NMSI_	55	336	2	96	48	4
NMTAP	56	0	5
NMTAP	56	48	1
NMHLD	56	96	0	96
NMSTR	56	192	4
NMSI_	56	192	4	96	48	1
NMSTR	56	240	1
NMSI_	56	240	1	96	48	3
NMTAP	56	288	4
NMTAP	56	336	0
NMHLD	57	0	7	96
NMSTR	57	96	5
NMSI_	57	96	5	96	48	0
NMSTR	57	144	0
NMSI_	57	144	0	96	48	6
NMTAP	57	192	5
NMTAP	57	240	1
NMHLD	57	288	2	96
NMSTR	58	0	4
NMSI_	58	0	4	96	48	1
NMSTR	58	48	1
NMSI_	58	48	1	96	48	3
NMTAP	58	96	4
NMTAP	58	144	0
NMHLD	58	192	7	96
NMTAP	58	288	6
NMTAP	58	336	6
NMTAP	59	0	0
NMTAP	59	48	0
NMTTP	59	96	4	D	0	M1
NMTTP	59	108	3	D	0	M1
NMTTP	59	120	2	D	0	M1
NMTTP	59	132	1	D	0	M1
NMTTP	59	144	0	D	0	M1
NMTTP	59	156	7	D	0	M1
NMTTP	59	168	6	D	0	M1
NMTTP	59	180	5	D	0	M1
NMTTP	59	192	3	A	0	M1
NMTTP	59	204	2	A	0	M1
NMTTP	59	216	1	A	0	M1
NMTTP	59	228	0	A	0	M1
NMTTP	59	240	7	A	0	M1
NMTTP	59	252	6	A	0	M1
NMTTP	59	264	5	A	0	M1
NMTTP	59	276	4	A	0	M1
NMTTP	59	288	0	C	1	M1
BRTAP	60	0	0
BRTAP	60	0	7
NMSTR	60	96	7
NMSI_	60	96	7	96	48	4
NMTAP	60	144	1
NMTAP	60	192	7
NMTAP	60	240	3
CNSI_	60	240	4	0	48	6
NMTAP	60	288	2
NMTAP	60	336	2
NMSTR	61	0	6
NMSI_	61	0	6	96	48	4
NMTAP	61	48	0
NMTAP	61	96	6
NMTAP	61	144	2
CNSI_	61	144	4	0	48	0
NMTAP	61	192	1
NMTAP	61	240	1
NMSTR	61	288	5
NMSI_	61	288	5	96	48	2
NMTAP	61	336	7
NMTAP	62	0	5
NMTAP	62	48	1
CNSI_	62	48	2	0	48	4
NMTAP	62	96	0
NMTAP	62	144	0
NMSTR	62	192	4
NMSI_	62	192	4	96	48	2
NMTAP	62	240	2
NMTAP	62	288	4
NMTAP	62	336	0
CNSI_	62	336	2	0	48	6
NMTAP	63	0	7
NMTAP	63	48	7
NMSTR	63	96	5
NMSI_	63	96	5	96	48	0
NMTAP	63	144	4
NMTAP	63	192	5
CNSI_	63	240	0	0	48	6
NMTAP	63	240	2
NMTAP	63	288	3
NMTAP	63	336	3
NMSTR	64	0	7
NMSI_	64	0	7	96	48	1
NMTAP	64	48	1
NMTAP	64	96	7
CNSI_	64	144	1	0	48	5
NMTAP	64	144	4
NMTAP	64	192	3
NMTAP	64	240	3
NMTAP	64	288	6
NMSTR	64	336	7
NMSCL	64	336	7	96	48	4
NMTAP	65	0	0
NMTAP	65	48	1
NMSTR	65	96	2
NMSCL	65	96	2	96	48	7
NMTAP	65	144	3
NMTAP	65	192	4
NMSTR	65	240	5
NMSCL	65	240	5	96	48	2
NMTAP	65	288	6
NMTAP	65	336	7
BRTAP	66	0	0
NMSTR	66	96	0
NMSI_	66	96	0	96	48	3
NMTAP	66	144	6
NMTAP	66	192	0
CNSI_	66	240	3	0	48	1
NMTAP	66	240	4
NMTAP	66	288	5
NMTAP	66	336	5
NMSTR	67	0	1
NMSI_	67	0	1	96	48	3
NMTAP	67	48	7
NMTAP	67	96	1
CNSI_	67	144	3	0	48	7
NMTAP	67	144	5
NMTAP	67	192	6
NMTAP	67	240	6
NMSTR	67	288	2
NMSI_	67	288	2	96	48	5
NMTAP	67	336	0
NMTAP	68	0	2
CNSI_	68	48	5	0	48	3
NMTAP	68	48	6
NMTAP	68	96	7
NMTAP	68	144	7
NMSTR	68	192	3
NMSI_	68	192	3	96	48	5
NMTAP	68	240	5
NMTAP	68	288	3
CNSI_	68	336	5	0	48	1
NMTAP	68	336	7
NMTAP	69	0	0
NMTAP	69	48	0
NMSTR	69	96	2
NMSI_	69	96	2	96	48	7
NMTAP	69	144	3
NMTAP	69	192	2
NMTAP	69	240	5
CNSI_	69	240	7	0	48	1
NMTAP	69	288	4
NMTAP	69	336	4
NMSTR	70	0	0
NMSI_	70	0	0	96	48	4
NMTAP	70	48	6
NMTAP	70	96	0
NMTAP	70	144	7
NMTAP	70	192	2
NMTAP	70	192	6
NMTAP	70	240	2
NMTAP	70	240	6
NMTAP	70	288	1
NMTAP	70	288	5
NMTAP	70	336	1
NMTAP	70	336	5
NMTAP	71	0	0
NMTAP	71	0	4
NMTAP	71	48	0
NMTAP	71	48	4
NMTAP	71	96	3
NMSTR	71	96	7
NMSI_	71	96	7	96	48	2
NMSTR	71	192	5
NMSI_	71	192	5	96	48	0
NMTAP	71	192	7
NMTAP	71	288	4
NMTAP	71	288	5
BRTAP	72	0	1
BRSTR	72	0	7
NMSXL	72	0	7	96	672	3
CNSCL	74	0	3	0	384	4
NMHLD	75	0	3	576
NMTTP	75	288	2	B	0	M1
NMTAP	76	96	5
NMHLD	76	192	5	576
NMTTP	77	96	6	E	0	M1
NMTTP	77	192	5	E	0	M1
NMTTP	77	288	4	E	0	M1
NMHLD	78	0	2	576
NMTTP	78	288	2	E	0	M1
NMTAP	79	96	4
NMHLD	79	192	4	192
NMTAP	80	0	3
NMTAP	80	96	2
NMTAP	80	96	4
NMTAP	80	192	1
NMTAP	80	192	5
NMSTR	80	288	0
NMSI_	80	288	0	96	48	4
NMTAP	80	288	6
BRTAP	81	0	7
NMTAP	81	96	6
NMTAP	81	144	2
NMTAP	81	240	0
NMTAP	81	240	4
NMSTR	81	288	6
NMSI_	81	288	6	96	48	4
NMSTR	82	0	0
NMSI_	82	0	0	96	48	2
NMTAP	82	0	6
NMTAP	82	96	0
NMSTR	82	96	7
NMSI_	82	96	7	96	48	3
NMTAP	82	192	7
NMTAP	82	288	1
NMTAP	82	336	5
NMTAP	83	48	3
NMTAP	83	48	7
NMSTR	83	96	1
NMSI_	83	96	1	96	48	3
NMTAP	83	192	1
NMSTR	83	192	7
NMSI_	83	192	7	96	48	5
NMSTR	83	288	0
NMSI_	83	288	0	96	48	4
NMTAP	83	288	7
NMTTP	84	0	0	C	1	M1
NMTAP	84	96	6
NMTAP	84	144	6
NMTAP	84	192	4
NMTAP	84	240	4
NMTAP	84	288	5
NMTAP	84	336	5
NMTAP	85	0	2
NMTAP	85	48	2
NMTAP	85	96	3
NMTAP	85	144	3
NMTAP	85	192	0
NMTAP	85	240	0
NMTAP	85	288	2
NMTAP	85	336	2
NMTAP	86	0	4
NMTAP	86	48	4
NMTAP	86	96	3
NMSTR	86	96	6
NMSI_	86	96	6	96	48	2
NMSTR	86	192	1
NMSI_	86	192	1	96	48	5
NMTAP	86	192	6
NMTAP	86	288	1
NMTAP	86	288	7
NMTAP	87	0	6
NMTAP	87	48	6
NMTAP	87	96	4
NMTAP	87	144	4
NMTAP	87	192	5
NMTAP	87	240	5
NMTAP	87	288	2
NMTAP	87	336	2
NMTAP	88	0	3
NMTAP	88	48	3
NMTAP	88	96	0
NMTAP	88	144	0
NMSTR	88	192	6
NMSI_	88	192	6	96	48	0
NMTAP	88	240	6
NMSTR	88	288	2
NMSI_	88	288	2	96	48	4
NMTAP	88	336	2
NMSTR	89	0	6
NMSI_	89	0	6	96	48	2
NMTAP	89	48	6
NMTAP	89	96	0
NMTAP	89	192	1
NMTAP	89	240	1
NMTAP	89	288	1
NMTAP	89	336	1
NMTAP	90	0	0
NMHLD	90	0	3	96
NMSTR	90	96	7
NMSCR	90	96	7	96	96	2
NMSTR	90	192	2
NMSCR	90	192	2	96	96	5
NMTAP	90	288	5
NMTAP	91	0	6
NMTAP	91	48	6
NMTAP	91	96	6
NMTAP	91	144	6
NMHLD	91	192	4	96
NMTAP	91	192	7
NMSTR	91	288	0
NMSCL	91	288	0	96	96	5
NMSTR	92	0	5
NMSCL	92	0	5	96	96	2
NMTAP	92	96	2
NMTAP	92	192	0
NMTAP	92	288	1
NMTAP	92	288	3
NMTAP	92	336	1
NMTAP	92	336	3
EXHLD	93	0	0	96
EXSTR	93	0	4
NMSI_	93	0	4	96	48	0
NMTTP	93	144	1	A	0	M1
NMTTP	93	144	2	E	0	M1
NMTTP	93	144	2	A	1	M1
NMTTP	93	144	2	D	0	M1
NMTTP	93	144	3	E	0	M1
NMTTP	93	144	3	A	0	M1
NMTTP	93	144	3	D	0	M1
EXSTR	93	288	3
NMSI_	93	288	3	96	48	7
EXHLD	93	288	7	96
NMTTP	94	48	4	A	0	M1
NMTTP	94	48	5	E	0	M1
NMTTP	94	48	5	A	1	M1
NMTTP	94	48	5	D	0	M1
NMTTP	94	48	6	E	0	M1
NMTTP	94	48	6	A	0	M1
NMTTP	94	48	6	D	0	M1
EXHLD	94	192	0	96
EXHLD	94	192	4	96
NMTTP	94	336	0	C	1	M1
NMTTP	94	336	2	B	0	M1
NMTTP	94	336	2	A	0	M1
NMTTP	94	336	3	E	0	M1
NMTTP	94	336	6	B	0	M1
NMTTP	94	336	6	A	0	M1
NMTTP	94	336	7	E	0	M1
EXTAP	95	96	1
EXTAP	95	96	5
NMTAP	95	144	1
NMTAP	95	144	5
EXTAP	95	192	0
EXTAP	95	192	4
NMTAP	95	240	0
NMTAP	95	240	4
EXSTR	95	288	3
NMSUR	95	288	3	96	1728	5
EXTAP	95	288	7
NMTAP	95	336	3
NMSTR	95	336	7
BRSUR	95	336	7	96	1680	1
NMTAP	102	0	3
NMTAP	102	0	4
NMTAP	102	96	1
NMTAP	102	144	3
NMTAP	102	192	2
NMTAP	102	240	4
NMTAP	102	288	3
NMTAP	102	288	4
NMTAP	103	0	6
NMTAP	103	48	4
NMTAP	103	96	5
NMTAP	103	144	3
NMTAP	103	192	3
NMTAP	103	192	4
NMTAP	103	288	1
NMTAP	103	336	3
NMTAP	104	0	2
NMTAP	104	48	4
NMTAP	104	96	3
NMTAP	104	96	5
NMTAP	104	192	6
NMTAP	104	240	4
NMTAP	104	288	5
NMTAP	104	336	3
NMTAP	105	0	2
NMTAP	105	0	4
NMTAP	105	96	0
NMTAP	105	144	3
NMTAP	105	192	2
NMTAP	105	240	5
NMTAP	105	288	4
NMTAP	105	288	6
NMTAP	106	0	7
NMTAP	106	48	4
NMTAP	106	96	5
NMTAP	106	144	2
NMTAP	106	192	1
NMTAP	106	192	3
NMTAP	106	288	0
NMTAP	106	336	7
NMTAP	107	0	2
NMTAP	107	48	5
NMSTR	107	96	3
NMSI_	107	96	3	96	48	7
NMSTR	107	96	4
NMSI_	107	96	4	96	48	0
NMTAP	107	192	3
NMTAP	107	192	4
BRTAP	107	288	1
BRTAP	107	288	6
BRHLD	108	0	3	48
BRHLD	108	0	4	48
NMSTR	108	96	5
BRSI_	108	96	5	96	48	0
NMTAP	108	144	4
NMTAP	108	192	5
CNSI_	108	240	0	0	48	6
NMTAP	108	240	3
NMTAP	108	288	2
CNSI_	108	288	6	0	48	3
NMTAP	108	336	2
NMSTR	109	0	1
BRSI_	109	0	1	96	48	4
NMTAP	109	48	0
NMTAP	109	96	1
CNSI_	109	144	4	0	48	2
NMTAP	109	144	7
CNSI_	109	192	2	0	48	7
NMTAP	109	192	6
NMTAP	109	240	6
NMSTR	109	288	5
BRSI_	109	288	5	96	48	1
NMTAP	109	336	1
NMTAP	110	0	5
CNSI_	110	48	1	0	48	7
NMTAP	110	48	3
NMTAP	110	96	2
CNSI_	110	96	7	0	48	4
NMTAP	110	144	2
NMSTR	110	192	1
BRSI_	110	192	1	96	48	5
NMTAP	110	240	3
NMTAP	110	288	1
CNSI_	110	336	5	0	48	3
NMTAP	110	336	7
CNSI_	111	0	3	0	48	0
NMTAP	111	0	6
NMTAP	111	48	6
NMSTR	111	96	5
BRSI_	111	96	5	96	48	1
NMTAP	111	144	0
NMTAP	111	192	5
CNSI_	111	240	1	0	48	7
NMTAP	111	240	3
NMTAP	111	288	2
CNSI_	111	288	7	0	48	3
NMTAP	111	336	2
NMSTR	112	0	1
BRSI_	112	0	1	96	48	5
NMTAP	112	48	4
NMTAP	112	96	1
CNSI_	112	144	5	0	48	3
NMTAP	112	144	7
CNSI_	112	192	3	0	48	7
NMTAP	112	192	6
NMTAP	112	240	6
NMSTR	112	288	0
BRSI_	112	288	0	96	48	4
NMTAP	112	336	0
NMSTR	113	0	7
BRSI_	113	0	7	96	48	3
NMTAP	113	48	7
NMSTR	113	96	2
BRSV_	113	96	2	96	48	5
NMTAP	113	144	2
NMSTR	113	192	6
BRSI_	113	192	6	96	48	3
NMTAP	113	240	6
NMSTR	113	288	1
BRSI_	113	288	1	96	48	4
NMTAP	113	288	6
NMTAP	113	336	1
EXTAP	114	0	1
BRTAP	114	0	6
NMSTR	114	96	7
BRSI_	114	96	7	96	48	4
NMSTR	114	144	4
BRSI_	114	144	4	96	48	6
NMTAP	114	192	7
NMTAP	114	240	3
BRTAP	114	288	2
CNSI_	114	288	6	0	48	3
NMTAP	114	336	2
NMSTR	115	0	1
BRSI_	115	0	1	96	48	4
NMSTR	115	48	4
BRSI_	115	48	4	96	48	2
NMTAP	115	96	1
NMTAP	115	144	7
CNSI_	115	192	2	0	48	7
BRTAP	115	192	6
NMTAP	115	240	6
NMSTR	115	288	5
BRSI_	115	288	5	96	48	1
NMSTR	115	336	1
BRSI_	115	336	1	96	48	7
NMTAP	116	0	5
NMTAP	116	48	3
BRTAP	116	96	2
CNSI_	116	96	7	0	48	3
NMTAP	116	144	2
NMSTR	116	192	0
BRSI_	116	192	0	96	48	3
NMSTR	116	240	3
BRSI_	116	240	3	96	48	1
NMTAP	116	288	0
NMTAP	116	336	5
CNSI_	117	0	1	0	48	5
BRTAP	117	0	6
NMTAP	117	48	6
NMTAP	117	96	3
NMTAP	117	96	7
NMTAP	117	144	3
NMTAP	117	144	7
NMTAP	117	192	2
NMTAP	117	192	6
NMTAP	117	240	1
NMTAP	117	240	5
BRTAP	117	288	0
BRTAP	117	288	4
NMTAP	117	336	0
NMTAP	117	336	4
NMTAP	118	0	3
NMTAP	118	24	2
NMTAP	118	48	1
NMTAP	118	72	0
NMTAP	118	96	7
NMTAP	118	120	6
NMTAP	118	144	5
NMTAP	118	168	4
BRTAP	118	192	1
NMTAP	118	204	2
NMTAP	118	216	3
NMTAP	118	228	4
NMTAP	118	240	5
NMTAP	118	252	6
NMTAP	118	264	7
NMTAP	118	276	0
NMTAP	118	288	1
NMTAP	118	300	2
NMTAP	118	312	3
NMTAP	118	324	4
NMTAP	118	336	5
NMTAP	118	348	6
NMTAP	118	360	7
NMTAP	118	372	0
NMTAP	119	0	1
NMTAP	119	12	2
NMTAP	119	24	3
NMTAP	119	36	4
NMTAP	119	48	5
NMTAP	119	60	6
NMTAP	119	72	7
NMTAP	119	84	0
EXSTR	119	96	1
BRSI_	119	96	1	96	48	6
EXSTR	119	96	5
BRSI_	119	96	5	96	48	2
EXTAP	119	192	1
EXTAP	119	192	5
BRTAP	119	288	0
BRTAP	119	288	4
BRSTR	120	0	2
BRSXL	120	0	2	96	768	5
BRSTR	120	0	6
BRSXL	120	0	6	96	768	1
CNSCL	122	96	1	0	192	4
CNSCL	122	96	5	0	192	0
NMSTR	123	0	7
NMSCR	123	0	7	96	48	2
NMTAP	123	48	6
NMTAP	123	96	5
NMSTR	123	144	4
NMSCR	123	144	4	96	48	7
NMTAP	123	192	3
NMTAP	123	240	2
NMSTR	123	288	1
NMSCR	123	288	1	96	48	4
NMTAP	123	336	0
NMTAP	124	0	7
NMSTR	124	48	6
NMSCR	124	48	6	96	48	1
NMTAP	124	96	5
NMTAP	124	144	4
NMSTR	124	192	3
NMSCR	124	192	3	96	48	6
NMTAP	124	240	2
NMTAP	124	288	1
NMSTR	124	336	0
NMSCR	124	336	0	96	48	3
NMTAP	125	0	7
NMTAP	125	48	6
NMTAP	125	96	5
NMTAP	125	144	5
NMTAP	125	192	4
NMTAP	125	240	3
NMTAP	125	288	2
NMTAP	125	336	2
BRSTR	126	0	0
NMSI_	126	0	0	96	48	5
NMTAP	126	48	1
NMTAP	126	96	2
NMSTR	126	144	3
NMSI_	126	144	3	96	48	0
NMTAP	126	192	4
NMTAP	126	240	5
NMSTR	126	288	6
NMSI_	126	288	6	96	48	3
NMTAP	126	336	7
NMTAP	127	0	0
NMSTR	127	48	1
NMSI_	127	48	1	96	48	6
NMTAP	127	96	2
NMTAP	127	144	3
NMSTR	127	192	4
NMSI_	127	192	4	96	48	1
NMTAP	127	240	5
NMTAP	127	288	6
NMSTR	127	336	7
NMSI_	127	336	7	96	48	3
NMTAP	128	0	0
NMTAP	128	48	1
NMTAP	128	96	2
NMTAP	128	144	2
NMTAP	128	192	3
NMTAP	128	240	4
NMTAP	128	288	5
NMTAP	128	336	5
NMTAP	129	0	2
NMTAP	129	0	6
NMTAP	129	48	2
NMTAP	129	48	6
NMTAP	129	96	1
NMTAP	129	96	5
NMTAP	129	144	1
NMTAP	129	144	5
NMTAP	129	192	0
NMTAP	129	192	4
NMTAP	129	240	0
NMTAP	129	240	4
NMTAP	129	288	1
NMTAP	129	288	3
NMTAP	129	336	2
NMTAP	129	336	4
NMTAP	130	0	3
NMTAP	130	0	5
NMTAP	130	48	4
NMTAP	130	48	6
NMTAP	130	96	3
NMSTR	130	96	7
NMSCL	130	96	7	96	192	0
NMTHO	130	192	0	192	C	0	M1
BRTAP	131	96	6
BRTAP	131	96	7
BRTAP	131	144	2
BRTAP	131	144	3
BRSTR	131	192	0
NMSF_	131	192	0	96	48	4
BRTAP	131	192	1
BRSTR	131	240	4
BRSF_	131	240	4	96	48	0
BRTAP	131	240	5
BRTAP	131	288	0
NMTTP	131	336	0	C	1	M1

T_REC_TAP	589
T_REC_BRK	30
T_REC_XTP	32
T_REC_HLD	36
T_REC_XHO	4
T_REC_STR	144
T_REC_BST	8
T_REC_XST	9
T_REC_TTP	49
T_REC_THO	1
T_REC_SLD	161
T_REC_ALL	1063
T_NUM_TAP	823
T_NUM_BRK	38
T_NUM_HLD	41
T_NUM_SLD	161
T_NUM_ALL	1063
T_JUDGE_TAP	861
T_JUDGE_HLD	114
T_JUDGE_SLD	161
T_JUDGE_ALL	1136
TTM_EACHPAIRS	119
TTM_SCR_TAP	411500
TTM_SCR_BRK	98800
TTM_SCR_HLD	41000
TTM_SCR_SLD	241500
TTM_SCR_ALL	792800
TTM_SCR_S	765350
TTM_SCR_SS	789000
TTM_RAT_ACV	10048

