VERSION	0.00.00	1.04.00
FES_MODE	0
BPM_DEF	225.000	225.000	225.000	225.000
MET_DEF	4	4
RESOLUTION	384
CLK_DEF	576
COMPATIBLE_CODE	MA2

BPM	0	0	225.000
MET	0	0	4	3

NMTTP	1	192	3	B	0	M1
NMTTP	1	216	2	B	0	M1
NMTTP	1	240	1	B	0	M1
NMTTP	1	264	0	B	0	M1
NMTTP	1	288	7	B	0	M1
NMTTP	1	312	6	B	0	M1
NMTTP	1	336	5	B	0	M1
NMTTP	1	360	4	B	0	M1
NMTTP	2	0	3	E	0	M1
NMTTP	2	24	2	E	0	M1
NMTTP	2	48	1	E	0	M1
NMTTP	2	72	0	E	0	M1
NMTTP	2	96	7	E	0	M1
NMTTP	2	120	6	E	0	M1
NMTTP	2	144	5	E	0	M1
NMTTP	2	168	4	E	0	M1
NMTTP	2	192	3	D	0	M1
NMTTP	2	216	2	D	0	M1
NMTTP	2	240	1	D	0	M1
NMTTP	2	264	0	D	0	M1
NMTTP	2	288	7	D	0	M1
NMTTP	2	312	6	D	0	M1
NMTTP	2	336	5	D	0	M1
NMTTP	2	360	4	D	0	M1
NMTTP	3	0	0	C	1	M1
NMTAP	6	0	6
NMTAP	6	0	7
NMTAP	6	96	5
NMTAP	6	144	4
NMTAP	6	192	5
NMTAP	6	288	3
NMTAP	6	288	6
NMTAP	7	0	2
NMTAP	7	48	3
NMTAP	7	96	2
NMTAP	7	192	1
NMTAP	7	192	4
NMTAP	7	288	0
NMTAP	7	336	7
NMTAP	8	0	0
NMTAP	8	96	1
NMTAP	8	96	6
NMTAP	8	192	2
NMTAP	8	192	5
NMTAP	8	288	3
NMTAP	8	288	4
BRSTR	9	0	0
NMSCR	9	0	0	96	192	3
BRTAP	9	0	7
CNSUR	9	288	3	0	480	4
CNSCR	11	0	4	0	192	7
NMTAP	12	0	0
NMTAP	12	0	1
NMTAP	12	96	2
NMTAP	12	144	3
NMTAP	12	192	1
NMTAP	12	288	3
NMTAP	12	288	4
NMTAP	13	0	5
NMTAP	13	48	4
NMTAP	13	96	6
NMTAP	13	192	0
NMTAP	13	240	1
NMTAP	13	288	2
NMTAP	13	336	3
NMTAP	14	0	5
NMTAP	14	48	4
NMTAP	14	96	7
NMTAP	14	144	6
NMTAP	14	192	5
NMTAP	14	240	4
NMTAP	14	288	2
NMTAP	14	336	3
NMTTP	15	0	0	C	1	M1
NMTAP	16	192	3
NMTAP	16	192	4
NMTAP	16	288	1
NMHLD	16	336	1	96
NMTAP	17	48	3
NMHLD	17	96	3	96
NMTAP	17	192	2
NMTAP	17	288	1
NMTAP	17	288	3
NMTAP	18	0	6
NMTAP	18	0	7
NMTAP	18	96	4
NMTAP	18	96	5
NMSTR	18	192	2
NMSCL	18	192	2	96	216	4
NMTAP	18	192	3
NMHLD	18	288	7	192
NMHLD	19	192	2	192
NMTAP	19	288	4
NMTAP	20	0	6
NMHLD	20	96	0	192
NMTAP	20	192	2
NMTAP	20	288	4
NMTAP	21	0	2
NMTAP	21	0	6
NMTAP	21	96	1
NMTAP	21	144	1
NMTAP	21	192	3
NMTAP	21	240	2
NMTAP	21	288	5
NMTAP	21	336	5
NMTAP	22	0	4
NMTAP	22	48	6
NMSTR	22	96	0
NMSI_	22	96	0	96	72	4
EXTAP	22	192	0
NMTAP	22	288	6
NMHLD	22	336	6	96
NMTAP	23	48	4
NMHLD	23	96	4	96
NMTAP	23	192	5
NMTAP	23	288	4
NMTAP	23	288	6
NMTAP	24	0	0
NMTAP	24	0	1
NMTAP	24	96	2
NMTAP	24	96	3
NMTAP	24	192	4
NMSTR	24	192	5
NMSCR	24	192	5	96	216	3
NMHLD	24	288	0	192
NMSTR	25	192	4
NMSI_	25	192	4	96	72	0
NMTAP	25	288	3
NMTAP	26	0	1
NMSTR	26	96	2
NMSI_	26	96	2	96	72	6
NMTAP	26	192	3
NMTAP	26	288	5
NMSTR	27	0	7
NMSI_	27	0	7	96	72	3
NMTAP	27	96	0
NMTAP	27	192	2
NMTAP	27	288	1
NMTAP	27	288	3
NMTAP	28	0	4
NMTAP	28	0	6
NMTAP	28	96	0
NMTAP	28	96	7
NMHLD	28	192	1	96
NMTAP	28	288	3
NMTAP	29	0	2
NMTAP	29	0	4
NMHLD	29	96	5	96
NMTAP	29	192	3
NMTAP	29	288	3
NMTAP	29	288	4
NMHLD	30	0	2	96
NMTAP	30	96	4
NMTAP	30	192	3
NMTAP	30	192	5
NMHLD	30	288	6	96
NMTAP	31	0	4
NMTAP	31	96	4
NMTAP	31	96	5
NMHLD	31	192	3	96
NMHLD	31	192	5	96
NMHLD	31	336	2	96
NMHLD	31	336	4	96
NMTAP	32	96	1
NMTAP	32	96	3
NMTAP	32	192	0
NMSTR	32	288	1
NMSCR	32	288	1	96	96	4
NMTAP	32	288	7
NMHLD	33	0	6	192
NMTAP	33	192	5
NMTAP	33	288	3
NMTAP	33	336	3
NMTAP	34	0	4
NMTAP	34	96	2
NMTAP	34	96	6
NMHLD	34	192	1	96
NMTAP	34	288	3
NMTAP	35	0	2
NMTAP	35	0	3
NMHLD	35	96	4	96
NMTAP	35	192	3
NMTAP	35	288	2
NMTAP	35	288	4
NMHLD	36	0	3	96
NMTAP	36	96	5
NMTAP	36	192	3
NMTAP	36	192	4
NMHLD	36	288	5	96
NMTAP	37	0	4
NMTAP	37	96	4
NMSTR	37	96	6
NMSCL	37	96	6	96	96	3
NMHLD	37	192	1	192
NMTAP	38	0	2
NMTAP	38	96	3
NMTAP	38	96	4
NMTAP	38	192	5
NMSTR	38	288	2
NMSCR	38	288	2	96	96	5
NMHLD	39	0	6	192
NMSTR	39	192	7
NMSCL	39	192	7	96	192	0
EXHLD	40	192	6	144
EXTAP	40	192	7
NMHLD	40	336	5	144
NMTAP	41	96	4
NMTAP	41	192	4
NMTAP	41	288	3
NMTAP	41	288	5
NMTAP	42	0	0
NMHLD	42	0	1	144
NMHLD	42	144	2	144
NMTAP	42	288	3
NMTAP	43	0	3
NMTAP	43	96	2
NMTAP	43	96	4
NMTAP	43	192	0
NMHLD	43	192	6	144
NMHLD	43	336	4	144
NMTAP	44	96	3
NMTAP	44	192	5
NMTAP	44	288	4
NMTAP	44	288	6
NMHLD	45	0	1	144
NMTAP	45	0	7
NMHLD	45	144	3	144
NMTAP	45	288	4
NMTAP	46	0	2
NMTAP	46	96	1
NMSTR	46	96	3
NMSI_	46	96	3	96	72	7
BRTAP	46	192	0
NMTAP	47	96	1
NMTAP	47	96	5
NMTAP	47	144	1
NMTAP	47	144	5
NMTAP	47	192	1
NMTAP	47	192	5
NMTAP	47	240	1
NMTAP	47	240	5
NMTAP	47	288	1
NMTAP	47	288	5
BRTAP	48	0	0
BRTAP	48	0	7
NMTAP	48	96	1
NMTAP	48	144	0
NMTAP	48	192	1
NMTAP	48	240	7
NMHLD	48	288	7	96
NMTAP	49	0	1
NMTAP	49	48	0
NMTAP	49	96	1
NMTAP	49	144	6
NMHLD	49	192	6	96
NMTAP	49	288	1
NMTAP	49	336	0
NMTAP	50	0	1
NMTAP	50	48	5
NMHLD	50	96	5	96
NMTAP	50	192	2
NMTAP	50	240	3
NMTAP	50	288	2
NMTAP	50	336	6
NMHLD	51	0	6	96
NMTAP	51	96	1
NMTAP	51	144	0
NMTAP	51	192	1
NMTAP	51	240	4
NMHLD	51	288	4	96
NMTAP	52	0	2
NMTAP	52	48	3
NMTAP	52	96	2
NMTAP	52	144	7
NMHLD	52	192	7	96
NMTAP	52	288	1
NMTAP	52	336	0
NMTAP	53	0	1
NMTAP	53	48	3
NMSTR	53	96	3
NMSI_	53	96	3	96	48	6
NMSTR	53	192	1
NMSI_	53	192	1	96	48	4
BRTAP	54	0	7
NMTAP	54	96	5
NMTAP	54	144	4
NMTAP	54	192	5
NMTAP	54	240	3
NMHLD	54	288	3	96
NMTAP	55	0	6
NMTAP	55	48	7
NMTAP	55	96	6
NMTAP	55	144	2
NMHLD	55	192	2	96
NMTAP	55	288	5
NMTAP	55	336	4
NMTAP	56	0	5
NMTAP	56	48	1
NMHLD	56	96	1	96
NMTAP	56	192	6
NMTAP	56	240	7
NMTAP	56	288	6
NMTAP	56	336	0
NMHLD	57	0	0	96
NMTAP	57	96	5
NMTAP	57	144	4
NMTAP	57	192	5
NMTAP	57	240	7
NMHLD	57	288	7	96
NMTAP	58	0	4
NMTAP	58	48	3
NMTAP	58	96	4
NMTAP	58	144	0
NMHLD	58	192	0	96
NMTAP	58	288	3
NMTAP	58	336	2
NMTAP	59	0	3
NMTAP	59	48	1
NMSTR	59	96	1
NMSCR	59	96	1	96	48	4
NMSTR	59	192	7
NMSI_	59	192	7	96	48	3
BRTAP	60	0	0
BRTAP	60	0	6
NMTAP	60	96	2
NMTAP	60	144	2
NMTAP	60	192	3
NMTAP	60	240	1
NMHLD	60	288	1	96
NMTAP	61	0	3
NMTAP	61	48	3
NMTAP	61	96	2
NMTAP	61	144	4
NMHLD	61	192	4	96
NMTAP	61	288	2
NMTAP	61	336	2
NMTAP	62	0	3
NMTAP	62	48	1
NMHLD	62	96	1	96
NMTAP	62	192	3
NMTAP	62	240	3
NMTAP	62	288	2
NMTAP	62	336	4
NMHLD	63	0	4	96
NMTAP	63	96	2
NMTAP	63	144	2
NMTAP	63	192	3
NMTAP	63	240	0
NMHLD	63	288	0	96
NMTAP	64	0	4
NMTAP	64	48	4
NMTAP	64	96	3
NMTAP	64	144	6
NMHLD	64	192	6	96
NMTAP	64	288	2
NMTAP	64	336	2
NMTAP	65	0	3
NMTAP	65	48	1
NMTAP	65	96	0
NMTAP	65	96	7
NMTAP	65	144	6
NMTAP	65	192	5
NMTAP	65	240	4
NMTAP	65	288	3
NMTAP	65	336	2
BRTAP	66	0	0
BRTAP	66	0	1
NMTAP	66	96	5
NMTAP	66	144	5
NMTAP	66	192	4
NMTAP	66	240	6
NMHLD	66	288	6	96
NMTAP	67	0	3
NMTAP	67	48	3
NMTAP	67	96	4
NMTAP	67	144	2
NMHLD	67	192	2	96
NMTAP	67	288	5
NMTAP	67	336	5
NMTAP	68	0	4
NMTAP	68	48	7
NMHLD	68	96	7	96
NMTAP	68	192	2
NMTAP	68	240	2
NMTAP	68	288	3
NMTAP	68	336	1
NMHLD	69	0	1	96
NMTAP	69	96	5
NMTAP	69	144	5
NMTAP	69	192	4
NMTAP	69	240	0
NMHLD	69	288	0	96
NMTAP	70	0	2
NMTAP	70	48	2
NMTAP	70	96	3
NMTAP	70	144	0
NMHLD	70	192	0	96
NMTAP	70	288	5
NMTAP	70	336	5
NMTAP	71	0	4
NMTAP	71	48	6
NMSTR	71	96	6
NMSI_	71	96	6	96	48	2
NMSTR	71	192	1
NMSI_	71	192	1	96	48	5
EXSTR	71	288	7
NMSCL	71	288	7	96	960	0
BXTAP	72	0	0
NMHLD	75	0	6	576
NMHLD	76	192	4	288
NMHLD	77	96	3	288
NMHLD	78	0	1	576
NMSTR	79	192	6
NMSCL	79	192	6	96	96	4
NMSTR	80	96	1
NMSCR	80	96	1	96	96	3
NMHLD	81	0	4	96
NMHLD	81	0	5	96
NMTAP	81	144	4
NMTAP	81	144	5
NMTAP	81	288	6
NMTAP	82	0	5
NMTAP	82	96	4
NMHLD	82	192	2	96
NMHLD	82	192	3	96
NMTAP	82	336	2
NMTAP	82	336	3
NMTAP	83	96	1
NMTAP	83	192	2
NMTAP	83	288	3
NMTAP	84	0	4
NMTAP	84	0	5
NMTAP	84	96	6
NMTAP	84	192	5
NMTAP	84	288	3
NMTAP	84	288	4
NMTAP	85	0	5
NMTAP	85	96	4
NMTAP	85	192	2
NMTAP	85	192	3
NMTAP	85	288	4
NMTAP	86	0	3
NMTAP	86	96	1
NMTAP	86	96	2
NMTAP	86	192	2
NMTAP	86	192	3
NMTAP	86	288	4
NMTAP	86	288	5
NMTAP	87	0	5
NMTAP	87	0	6
NMTAP	87	96	7
NMTAP	87	192	6
NMTAP	87	288	4
NMTAP	87	288	5
NMTAP	88	0	6
NMTAP	88	96	5
NMTAP	88	192	3
NMTAP	88	192	4
NMTAP	88	288	5
NMTAP	89	0	4
NMTAP	89	96	2
NMTAP	89	96	3
NMTAP	89	192	0
NMTAP	89	192	1
NMSTR	89	288	6
NMSI_	89	288	6	96	72	2
NMTAP	89	288	7
NMHLD	90	0	1	192
NMTAP	90	192	0
NMTAP	90	288	0
NMTAP	90	288	1
NMTAP	91	0	2
NMTAP	91	0	3
NMTAP	91	96	0
NMSTR	91	96	1
NMSI_	91	96	1	96	72	5
NMHLD	91	192	6	192
NMTAP	92	0	7
NMTAP	92	96	6
NMTAP	92	96	7
NMTAP	92	192	4
NMTAP	92	192	5
NMTAP	92	288	6
NMTAP	92	288	7
BRSTR	93	0	0
NMSI_	93	0	0	96	72	4
BRSTR	93	0	5
NMSI_	93	0	5	96	72	7
BRSTR	93	288	2
NMSI_	93	288	2	96	72	0
BRSTR	93	288	7
NMSI_	93	288	7	96	72	3
BRSTR	94	192	0
NMSCR	94	192	0	96	96	3
BRSTR	94	192	4
NMSCR	94	192	4	96	96	7
NMTAP	95	96	0
NMTAP	95	96	4
NMTAP	95	192	3
NMTAP	95	192	7
NMTAP	95	288	2
NMTAP	95	288	6
BRSTR	96	0	1
NMSXR	96	0	1	96	768	6
BRSTR	96	0	5
NMSXR	96	0	5	96	768	2
NMTTP	99	0	1	B	0	M1
NMTTP	99	96	2	B	0	M1
NMTTP	99	192	3	B	0	M1
NMTTP	99	288	1	E	0	M1
NMTTP	100	0	2	E	0	M1
NMTTP	100	96	3	E	0	M1
NMTTP	100	192	0	A	0	M1
NMTTP	100	288	1	A	0	M1
NMTTP	101	0	2	A	0	M1
NMTTP	101	96	5	B	0	M1
NMTTP	101	96	6	B	0	M1
NMTTP	101	192	1	B	0	M1
NMTTP	101	192	2	B	0	M1
NMTTP	102	0	6	B	0	M1
NMTTP	102	96	5	B	0	M1
NMTTP	102	192	4	B	0	M1
NMTTP	102	288	7	E	0	M1
NMTTP	103	0	6	E	0	M1
NMTTP	103	96	5	E	0	M1
NMTTP	103	192	7	A	0	M1
NMTTP	103	288	6	A	0	M1
NMTTP	104	0	5	A	0	M1
NMTTP	104	96	0	A	0	M1
NMTTP	104	192	1	A	0	M1
NMTTP	104	288	2	A	0	M1
NMTTP	105	0	1	E	0	M1
NMTTP	105	96	2	E	0	M1
NMTTP	105	192	3	E	0	M1
NMTTP	105	288	1	B	0	M1
NMTTP	106	0	2	B	0	M1
NMTTP	106	96	3	B	0	M1
NMTTP	106	192	6	B	0	M1
NMTTP	106	192	6	E	0	M1
NMTTP	106	288	2	B	0	M1
NMTTP	106	288	2	E	0	M1
NMTTP	107	0	4	B	0	M1
NMTTP	107	0	4	E	0	M1
NMSTR	107	96	1
NMSI_	107	96	1	96	48	5
NMSTR	107	192	6
NMSI_	107	192	6	96	48	2
EXTAP	107	288	0
BRTAP	108	0	0
BRTAP	108	0	7
NMTAP	108	96	1
NMTAP	108	144	2
NMTAP	108	192	3
NMTAP	108	240	4
NMHLD	108	288	0	96
NMTAP	109	0	1
NMTAP	109	48	2
NMTAP	109	96	3
NMTAP	109	144	4
NMHLD	109	192	0	96
NMTAP	109	288	1
NMTAP	109	336	2
NMTAP	110	0	3
NMTAP	110	48	4
NMHLD	110	96	0	96
NMTAP	110	192	1
NMTAP	110	240	2
NMTAP	110	288	3
NMTAP	110	336	4
NMHLD	111	0	1	96
NMTAP	111	96	2
NMTAP	111	144	3
NMTAP	111	192	4
NMTAP	111	240	5
NMHLD	111	288	2	96
NMTAP	112	0	3
NMTAP	112	48	4
NMTAP	112	96	5
NMTAP	112	144	6
NMHLD	112	192	3	96
NMTAP	112	288	4
NMTAP	112	336	5
NMTAP	113	0	6
NMTAP	113	48	7
EXSTR	113	96	3
NMSI_	113	96	3	96	48	7
EXSTR	113	192	6
NMSCL	113	192	6	96	48	3
BRTAP	114	0	0
BRTAP	114	0	1
NMTAP	114	96	6
NMTAP	114	144	5
NMTAP	114	192	4
NMTAP	114	240	3
NMHLD	114	288	6	96
NMTAP	115	0	5
NMTAP	115	48	4
NMTAP	115	96	3
NMTAP	115	144	2
NMHLD	115	192	5	96
NMTAP	115	288	4
NMTAP	115	336	3
NMTAP	116	0	2
NMTAP	116	48	1
NMHLD	116	96	4	96
NMTAP	116	192	3
NMTAP	116	240	4
NMTAP	116	288	5
NMTAP	116	336	6
NMHLD	117	0	7	96
NMTAP	117	96	3
NMTAP	117	144	2
NMTAP	117	192	1
NMTAP	117	240	0
NMHLD	117	288	7	96
NMTAP	118	0	3
NMTAP	118	48	4
NMTAP	118	96	5
NMTAP	118	144	6
NMHLD	118	192	7	96
NMTAP	118	288	0
NMTAP	118	336	0
NMTAP	119	0	7
NMTAP	119	48	7
EXSTR	119	96	1
NMSI_	119	96	1	96	48	5
EXSTR	119	192	6
NMSI_	119	192	6	96	48	2
EXSTR	119	288	3
NMSI_	119	288	3	96	48	7
BXTAP	120	0	4
NMTAP	120	96	5
NMHLD	120	144	5	96
NMTAP	120	240	6
NMHLD	120	288	6	96
NMTAP	121	0	7
NMHLD	121	48	7	96
NMTAP	121	144	0
NMHLD	121	192	0	96
NMTAP	121	288	1
NMHLD	121	336	1	96
NMTAP	122	48	2
NMTAP	122	96	2
NMTAP	122	192	1
NMTAP	122	192	3
NMTAP	122	288	4
NMTAP	122	288	6
NMTAP	123	0	0
NMTAP	123	0	7
NMTAP	123	96	2
NMHLD	123	144	2	96
NMTAP	123	240	1
NMHLD	123	288	1	96
NMTAP	124	0	0
NMHLD	124	48	0	96
NMTAP	124	144	7
NMHLD	124	192	7	96
NMTAP	124	288	6
NMHLD	124	336	6	96
NMTAP	125	48	5
NMTAP	125	96	5
NMTAP	125	192	4
NMTAP	125	192	6
NMTAP	125	288	1
NMTAP	125	288	3
NMTAP	126	0	7
NMTAP	126	48	6
NMTAP	126	96	5
NMTAP	126	144	0
NMTAP	126	192	7
NMTAP	126	240	6
NMTAP	126	288	1
NMTAP	126	336	0
NMTAP	127	0	7
NMTAP	127	48	2
NMTAP	127	96	1
NMTAP	127	144	0
NMTAP	127	192	3
NMTAP	127	240	2
NMTAP	127	288	1
NMTAP	127	336	4
NMTAP	128	0	3
NMTAP	128	48	2
NMTAP	128	96	0
NMTAP	128	96	1
NMTAP	128	192	3
NMTAP	128	192	4
NMTAP	128	288	6
NMTAP	128	288	7
NMTAP	129	0	0
NMTAP	129	48	1
NMTAP	129	96	2
NMTAP	129	144	7
NMTAP	129	192	6
NMTAP	129	240	5
NMTAP	129	288	1
NMTAP	129	336	2
NMTAP	130	0	3
NMTAP	130	48	6
NMTAP	130	96	5
NMTAP	130	144	4
NMHLD	130	192	3	192
NMHLD	130	192	7	192
BRTAP	131	96	3
BRTAP	131	96	7
BRTAP	131	144	0
BRTAP	131	144	4
BRTAP	131	192	1
BRTAP	131	192	5
BRTAP	131	240	2
BRTAP	131	240	6
BRTAP	131	288	3
BRTAP	131	288	7
BRTAP	131	336	0
BRTAP	131	336	4

T_REC_TAP	457
T_REC_BRK	25
T_REC_XTP	3
T_REC_HLD	88
T_REC_XHO	1
T_REC_STR	23
T_REC_BST	9
T_REC_XST	6
T_REC_TTP	63
T_REC_THO	0
T_REC_SLD	38
T_REC_ALL	713
T_NUM_TAP	552
T_NUM_BRK	34
T_NUM_HLD	89
T_NUM_SLD	38
T_NUM_ALL	713
T_JUDGE_TAP	586
T_JUDGE_HLD	236
T_JUDGE_SLD	38
T_JUDGE_ALL	860
TTM_EACHPAIRS	99
TTM_SCR_TAP	276000
TTM_SCR_BRK	88400
TTM_SCR_HLD	89000
TTM_SCR_SLD	57000
TTM_SCR_ALL	510400
TTM_SCR_S	491800
TTM_SCR_SS	507000
TTM_RAT_ACV	10067

