VERSION	0.00.00	1.04.00
FES_MODE	0
BPM_DEF	225.000	225.000	225.000	225.000
MET_DEF	4	4
RESOLUTION	384
CLK_DEF	576
COMPATIBLE_CODE	MA2

BPM	0	0	225.000
MET	0	0	4	3

NMTAP	3	0	2
NMTAP	3	96	2
NMTAP	3	192	2
NMTAP	3	288	3
NMTAP	4	0	3
NMTAP	4	96	3
NMTAP	4	192	4
NMTAP	4	288	4
NMTAP	5	0	4
NMTAP	5	96	4
NMTAP	5	96	5
NMTAP	6	0	5
NMTAP	6	96	5
NMTAP	6	192	5
NMTAP	6	288	4
NMTAP	7	0	4
NMTAP	7	96	4
NMTAP	7	192	2
NMTAP	7	192	3
NMTAP	7	288	2
NMTAP	7	288	3
NMTAP	8	0	2
NMTAP	8	0	3
NMTAP	8	96	1
NMTAP	8	96	4
NMTAP	9	0	1
NMTAP	9	96	1
NMTAP	9	192	1
NMTAP	9	288	0
NMTAP	10	0	0
NMTAP	10	96	0
NMTAP	10	192	6
NMTAP	10	192	7
NMTAP	10	288	6
NMTAP	10	288	7
NMTAP	11	0	6
NMTAP	11	0	7
NMTAP	11	96	6
NMTAP	11	96	7
NMTAP	12	0	5
NMTAP	12	96	5
NMTAP	12	192	5
NMTAP	12	288	6
NMTAP	13	0	6
NMTAP	13	96	6
NMTAP	13	192	7
NMTAP	13	288	7
NMTAP	14	0	7
NMTAP	14	96	0
NMTAP	14	96	7
BRTAP	15	0	1
BRTAP	15	0	6
NMSTR	16	192	1
NMSCR	16	192	1	96	192	4
NMTAP	18	0	5
NMTAP	18	96	5
NMTAP	18	192	5
NMTAP	18	288	4
NMTAP	18	288	6
NMSTR	19	192	6
NMSCL	19	192	6	96	192	3
NMTAP	21	0	2
NMTAP	21	96	2
NMTAP	21	192	2
NMTAP	21	288	1
NMTAP	21	288	3
NMSTR	22	192	1
NMSUR	22	192	1	96	192	5
NMTAP	24	0	6
NMTAP	24	96	6
NMTAP	24	192	6
NMTAP	24	288	6
NMTAP	24	288	7
NMTAP	25	192	1
NMTAP	25	288	1
NMTAP	26	0	1
NMTAP	26	96	0
NMTAP	26	192	0
NMTAP	26	288	0
NMTAP	27	0	7
NMTAP	27	96	7
NMTAP	27	192	7
NMTAP	27	288	0
NMTAP	27	288	6
NMHLD	28	192	6	288
NMHLD	29	96	5	288
NMHLD	30	0	4	288
NMTAP	30	288	3
NMHLD	31	192	1	288
NMHLD	32	96	2	288
NMHLD	33	0	3	288
NMTAP	33	288	4
NMHLD	34	192	5	288
NMHLD	35	96	6	288
NMHLD	36	0	7	288
NMHLD	36	288	0	288
NMHLD	37	192	1	288
NMHLD	38	96	2	288
NMHLD	39	0	3	288
NMTAP	39	288	4
NMTTP	40	192	6	E	0	L1
NMTTP	40	288	5	B	0	L1
NMTTP	41	0	4	B	0	L1
NMTTP	41	96	4	E	0	L1
NMTTP	42	0	2	E	0	L1
NMTTP	42	96	2	B	0	L1
NMTTP	42	192	3	B	0	L1
NMTTP	42	288	4	E	0	L1
NMTTP	43	192	6	A	0	L1
NMTTP	43	288	6	E	0	L1
NMTTP	44	0	5	B	0	L1
NMTTP	44	96	4	B	0	L1
NMTTP	45	0	1	A	0	L1
NMTTP	45	96	2	E	0	L1
NMTTP	45	192	2	B	0	L1
NMTTP	45	288	3	B	0	L1
NMTHO	46	192	0	288	C	1	L1
NMTAP	48	0	7
NMTAP	48	96	7
NMTAP	48	192	7
NMTAP	48	288	0
NMTAP	49	0	0
NMTAP	49	96	0
NMTAP	49	192	1
NMTAP	49	288	2
NMTAP	50	0	3
NMTAP	50	96	2
NMTAP	50	96	4
NMTAP	51	0	3
NMTAP	51	96	3
NMTAP	51	192	3
NMTAP	51	288	4
NMTAP	52	0	4
NMTAP	52	96	4
NMTAP	52	192	5
NMTAP	52	288	6
NMTAP	53	0	7
NMTAP	53	96	0
NMTAP	53	96	6
NMTAP	54	0	5
NMTAP	54	96	5
NMTAP	54	192	5
NMTAP	54	288	3
NMTAP	55	0	3
NMTAP	55	96	3
NMTAP	55	192	2
NMTAP	55	192	4
NMTAP	55	288	2
NMTAP	55	288	4
NMTAP	56	0	2
NMTAP	56	0	4
NMTAP	56	96	1
NMTAP	56	96	5
NMTAP	57	0	0
NMTAP	57	96	0
NMTAP	57	192	0
NMTAP	57	288	7
NMTAP	58	0	7
NMTAP	58	96	7
NMTAP	58	192	0
NMTAP	58	192	7
NMTAP	58	288	0
NMTAP	58	288	7
NMTAP	59	0	1
NMTAP	59	0	6
BRTAP	59	96	1
BRTAP	59	96	6
NMTAP	60	0	2
NMTAP	60	96	2
NMTAP	60	192	1
NMTAP	60	192	3
NMTAP	60	288	4
NMTAP	61	0	4
NMTAP	61	96	3
NMTAP	61	96	5
NMTAP	61	192	3
NMTAP	61	288	2
NMTAP	61	288	4
NMTAP	62	0	1
NMTAP	62	0	5
NMTAP	62	96	0
NMTAP	62	96	6
NMTAP	63	0	5
NMTAP	63	96	5
NMTAP	63	192	4
NMTAP	63	192	6
NMTAP	63	288	3
NMTAP	64	0	3
NMTAP	64	96	2
NMTAP	64	96	4
NMTAP	64	192	4
NMTAP	64	288	3
NMTAP	64	288	5
NMTAP	65	0	2
NMTAP	65	0	6
NMTAP	65	96	1
NMTAP	65	96	7
NMTAP	66	0	1
NMTAP	66	96	1
NMTAP	66	192	0
NMTAP	66	192	1
NMTAP	66	288	6
NMTAP	67	0	6
NMTAP	67	96	6
NMTAP	67	96	7
NMTAP	67	192	5
NMTAP	67	288	5
NMTAP	68	0	4
NMTAP	68	0	6
NMTAP	68	96	3
NMTAP	68	192	3
NMTAP	68	288	2
NMTAP	68	288	4
NMTAP	69	0	1
NMTAP	69	96	1
NMTAP	69	192	0
NMTAP	69	192	1
NMTAP	69	288	7
NMTAP	70	0	7
NMTAP	70	96	0
NMTAP	70	96	7
NMTAP	70	192	1
NMTAP	70	192	6
NMTAP	70	288	1
NMTAP	70	288	6
NMTAP	71	0	1
NMTAP	71	0	6
NMTAP	71	96	2
NMTAP	71	96	5
NMTAP	71	192	2
NMTAP	71	192	5
NMTAP	71	288	2
NMTAP	71	288	5
BXSTR	72	0	3
NMSI_	72	0	3	96	480	0
BXSTR	72	0	4
NMSI_	72	0	4	96	480	7
NMSTR	75	0	0
NMSI_	75	0	0	96	480	5
NMSTR	75	0	1
NMSI_	75	0	1	96	480	4
NMSTR	78	0	6
NMSI_	78	0	6	96	480	3
NMSTR	78	0	7
NMSI_	78	0	7	96	480	2
NMHLD	81	0	0	192
NMHLD	81	0	1	192
EXTAP	81	288	0
EXTAP	81	288	1
NMHLD	82	192	6	192
NMHLD	82	192	7	192
EXTAP	83	96	6
EXTAP	83	96	7
NMSTR	84	0	0
NMSCR	84	0	0	96	192	3
NMSTR	85	192	4
NMSCR	85	192	4	96	192	7
NMSTR	87	0	0
NMSUR	87	0	0	96	192	4
NMSTR	88	192	6
NMSUL	88	192	6	96	192	2
NMHLD	90	0	1	288
NMHLD	90	288	2	288
NMHLD	91	192	3	288
NMTAP	92	96	4
EXTAP	93	0	4
EXTAP	93	0	5
EXTAP	93	96	4
EXTAP	93	96	5
EXTAP	93	288	3
EXTAP	93	288	6
EXTAP	94	0	3
EXTAP	94	0	6
EXTAP	94	192	2
EXTAP	94	192	5
EXTAP	94	288	2
EXTAP	94	288	5
EXTAP	95	96	1
EXTAP	95	96	4
NMTHO	96	0	0	1728	C	0	L1
NMTTP	102	0	6	A	0	L1
NMTTP	102	0	7	B	0	L1
NMTTP	102	288	4	B	0	L1
NMTTP	102	288	5	A	0	L1
NMTTP	103	192	2	A	0	L1
NMTTP	103	192	3	B	0	L1
NMTTP	104	96	0	B	0	L1
NMTTP	104	96	1	A	0	L1
NMTHO	105	0	0	576	C	1	L1
BRTAP	108	0	0
BRTAP	108	0	7
NMTAP	108	96	6
NMTAP	108	144	6
NMTAP	108	192	6
NMTAP	108	288	6
NMTAP	108	288	7
NMTAP	109	0	0
NMTAP	109	0	5
NMTAP	109	96	1
NMTAP	109	96	4
NMTAP	109	192	2
NMTAP	109	192	3
NMTAP	109	288	4
NMTAP	109	336	4
NMTAP	110	0	4
NMTAP	110	96	4
NMTAP	110	96	5
NMTAP	110	192	3
NMTAP	110	192	6
NMTAP	110	288	2
NMTAP	110	288	7
NMTAP	111	0	0
NMTAP	111	0	1
NMTAP	111	96	7
NMTAP	111	144	7
NMTAP	111	192	7
NMTAP	111	288	0
NMTAP	111	288	6
NMTAP	112	0	0
NMTAP	112	0	6
NMTAP	112	96	0
NMTAP	112	96	6
NMTAP	112	192	1
NMTAP	112	192	7
NMTAP	112	288	2
NMTAP	112	288	6
NMTAP	113	0	3
NMTAP	113	0	5
NMTAP	113	96	3
NMTAP	113	96	5
NMTAP	114	0	3
NMTAP	114	0	4
NMTAP	114	96	2
NMTAP	114	144	2
NMTAP	114	192	2
NMTAP	114	288	2
NMTAP	114	288	3
NMTAP	115	0	1
NMTAP	115	0	4
NMTAP	115	96	0
NMTAP	115	96	5
NMTAP	115	192	6
NMTAP	115	192	7
NMTAP	115	288	0
NMTAP	115	336	0
NMTAP	116	0	0
NMTAP	116	96	0
NMTAP	116	96	1
NMTAP	116	192	2
NMTAP	116	192	7
NMTAP	116	288	3
NMTAP	116	288	6
NMTAP	117	0	4
NMTAP	117	0	5
NMTAP	117	96	6
NMTAP	117	144	6
NMTAP	117	192	6
NMTAP	117	288	6
NMTAP	117	288	7
NMTAP	118	0	0
NMTAP	118	48	0
NMTAP	118	96	0
NMTAP	118	192	0
NMTAP	118	192	7
NMTAP	118	288	0
NMTAP	118	288	7
NMTAP	119	0	0
NMTAP	119	0	7
NMTAP	119	96	1
NMTAP	119	96	6
NMTAP	119	192	2
NMTAP	119	192	5
NMTAP	119	288	3
NMTAP	119	288	4
BXSTR	120	0	3
NMSXR	120	0	3	96	624	0
BXSTR	120	0	4
NMSXL	120	0	4	96	624	7
NMTAP	123	0	0
NMTAP	123	96	0
NMTAP	123	192	0
NMTAP	123	288	7
NMTAP	124	0	7
NMTAP	124	96	7
NMTAP	124	192	0
NMTAP	124	192	6
NMTAP	124	288	1
NMTAP	124	288	5
NMTAP	125	0	2
NMTAP	125	0	4
NMTAP	125	96	2
NMTAP	125	96	4
NMTAP	126	0	5
NMTAP	126	96	6
NMTAP	126	192	7
NMTAP	126	288	0
NMTAP	126	288	1
NMTAP	127	0	0
NMTAP	127	0	1
NMTAP	127	96	2
NMTAP	127	96	7
NMTAP	127	192	2
NMTAP	127	288	1
NMTAP	128	0	0
NMTAP	128	96	6
NMTAP	128	96	7
NMTAP	128	192	6
NMTAP	128	192	7
NMTAP	128	288	0
NMTAP	128	288	5
NMTAP	129	0	1
NMTAP	129	96	1
NMTAP	129	192	2
NMTAP	129	192	4
NMTAP	129	288	5
NMTAP	130	0	5
NMTAP	130	96	4
NMTAP	130	96	6
NMTAP	130	192	3
NMHLD	130	192	7	288
BXTAP	131	96	0
BXTAP	131	192	0
BXTAP	131	288	1
BXTAP	131	288	6
BXTAP	131	336	1
BXTAP	131	336	6

T_REC_TAP	318
T_REC_BRK	6
T_REC_XTP	18
T_REC_BXX	6
T_REC_HLD	21
T_REC_XHO	0
T_REC_BHO	0
T_REC_BXH	0
T_REC_STR	11
T_REC_BST	0
T_REC_XST	0
T_REC_XBS	4
T_REC_TTP	24
T_REC_THO	3
T_REC_SLD	15
T_REC_BSL	0
T_REC_ALL	426
T_NUM_TAP	371
T_NUM_BRK	16
T_NUM_HLD	24
T_NUM_SLD	15
T_NUM_ALL	426
T_JUDGE_TAP	387
T_JUDGE_HLD	172
T_JUDGE_SLD	15
T_JUDGE_ALL	574
TTM_EACHPAIRS	109
TTM_SCR_TAP	185500
TTM_SCR_BRK	41600
TTM_SCR_HLD	24000
TTM_SCR_SLD	22500
TTM_SCR_ALL	273600
TTM_SCR_S	263850
TTM_SCR_SS	272000
TTM_RAT_ACV	10058

