VERSION	0.00.00	1.04.00
FES_MODE	0
BPM_DEF	142.000	142.000	142.000	142.000
MET_DEF	4	4
RESOLUTION	384
CLK_DEF	384
COMPATIBLE_CODE	MA2

BPM	0	0	142.000
MET	0	0	4	4

NMTAP	2	0	6
NMHLD	2	48	6	48
NMTAP	2	96	4
NMTAP	2	120	5
NMHLD	2	192	5	48
NMTAP	2	240	4
NMTAP	2	264	5
NMTAP	2	336	3
NMTAP	2	336	4
NMTAP	3	0	2
NMHLD	3	48	2	48
NMTAP	3	96	3
NMTAP	3	120	2
NMHLD	3	192	1	48
NMTAP	3	240	3
NMTAP	3	264	2
NMTAP	3	336	3
NMTAP	3	336	4
NMTAP	4	0	5
NMHLD	4	48	5	48
NMTAP	4	96	4
NMTAP	4	120	5
NMHLD	4	192	3	48
NMTAP	4	240	4
NMTAP	4	264	3
NMTAP	4	336	2
NMTAP	4	336	3
NMHLD	5	0	1	48
NMHLD	5	0	2	48
NMHLD	5	72	2	48
NMHLD	5	72	3	48
NMHLD	5	144	3	48
NMHLD	5	144	4	48
NMHLD	5	216	4	48
NMHLD	5	216	5	48
NMTAP	5	288	5
NMTAP	5	288	6
NMTAP	6	0	3
NMSTR	6	0	7
NMSCL	6	0	7	96	48	4
NMSTR	6	96	2
NMSCL	6	96	2	96	48	7
NMTAP	6	192	3
NMTAP	6	264	4
NMTAP	6	264	5
NMSTR	6	336	1
NMSI_	6	336	1	96	32	3
NMSTR	6	336	3
NMSI_	6	336	3	96	32	5
NMTAP	7	48	1
NMTAP	7	48	3
NMTAP	7	144	6
NMTAP	7	192	5
NMTAP	7	240	4
NMTAP	7	288	3
NMTAP	7	336	2
NMHLD	8	0	0	72
NMSTR	8	0	1
NMSUR	8	0	1	96	48	5
NMTAP	8	144	6
NMSTR	8	192	6
NMSUL	8	192	6	96	48	2
NMHLD	8	192	7	72
NMTAP	8	336	0
NMHLD	9	0	1	72
NMTAP	9	0	7
NMHLD	9	72	3	72
NMTAP	9	144	4
NMSTR	9	192	4
NMSI_	9	192	4	96	32	2
NMSTR	9	192	6
NMSI_	9	192	6	96	32	4
NMTAP	9	288	4
NMTAP	9	288	6
NMSTR	10	0	0
NMSCR	10	0	0	96	48	3
NMSTR	10	96	5
NMSCR	10	96	5	96	48	0
NMTAP	10	192	4
NMTAP	10	264	2
NMTAP	10	264	3
NMTAP	10	336	4
NMHLD	10	336	6	96
NMTAP	11	48	7
NMTAP	11	96	5
NMTAP	11	120	4
NMTAP	11	168	2
NMTAP	11	168	6
NMTAP	11	240	4
NMTAP	11	288	3
NMTAP	11	336	2
NMSTR	12	0	1
NMSI_	12	0	1	96	32	7
NMSTR	12	0	5
NMSI_	12	0	5	96	32	3
NMTAP	12	96	1
NMTAP	12	96	5
NMTAP	12	192	2
NMHLD	12	192	6	72
NMHLD	12	264	4	72
NMSTR	12	336	3
NMSI_	12	336	3	96	48	7
NMTAP	13	48	0
NMTAP	13	96	0
NMTAP	13	192	4
NMTAP	13	192	6
NMTAP	13	240	3
NMTAP	13	256	4
NMTAP	13	272	2
NMSTR	13	288	3
NMSXL	13	288	3	96	240	4
NMTTP	14	0	0	A	0	M1
NMTTP	14	96	1	A	0	M1
NMTTP	14	192	2	A	0	M1
NMSTR	14	288	3
NMSXR	14	288	3	96	240	2
NMTTP	15	0	7	D	0	M1
NMTTP	15	96	6	D	0	M1
NMTTP	15	192	5	D	0	M1
NMSTR	15	288	4
NMSCR	15	288	4	96	96	7
NMSTR	16	0	7
NMSCR	16	0	7	96	96	2
NMSTR	16	96	2
NMSCR	16	96	2	96	96	5
NMSTR	16	192	5
NMSCR	16	192	5	96	96	0
NMSTR	16	288	0
NMSCR	16	288	0	96	96	3
NMTAP	17	0	3
NMTAP	17	96	6
NMTAP	17	192	0
NMTAP	17	240	0
NMTAP	17	288	1
NMTAP	17	288	7
NMSTR	18	0	3
NMSI_	18	0	3	96	32	1
NMSTR	18	96	5
NMSI_	18	96	5	96	32	3
NMTAP	18	192	0
NMTAP	18	288	2
NMTAP	18	336	2
NMSTR	19	0	4
NMSI_	19	0	4	96	32	6
NMSTR	19	96	2
NMSI_	19	96	2	96	32	4
NMTAP	19	192	7
NMTAP	19	288	5
NMTAP	19	336	5
NMTAP	20	0	3
NMTAP	20	48	3
NMTAP	20	96	4
NMTAP	20	144	4
NMTAP	20	192	2
NMTAP	20	240	2
NMTAP	20	288	4
NMTAP	20	304	3
NMTAP	20	320	5
NMSTR	20	336	4
NMSI_	20	336	4	96	48	0
NMTAP	21	48	6
NMSTR	21	96	6
NMSCL	21	96	6	96	48	3
NMTAP	21	144	7
NMTAP	21	192	6
NMHLD	21	240	0	48
NMHLD	21	288	2	48
NMHLD	21	336	4	48
NMSTR	22	0	6
NMSI_	22	0	6	96	48	2
NMSTR	22	96	2
NMSI_	22	96	2	96	48	6
NMSTR	22	192	6
NMSI_	22	192	6	96	48	2
NMSTR	22	288	2
NMSCR	22	288	2	96	192	1
NMTAP	23	0	6
NMTTP	23	192	0	C	1	M1
CNSCL	23	192	1	0	168	3
EXTAP	24	0	2
NMTAP	24	48	1
NMTAP	24	48	3
NMTAP	24	96	5
NMTAP	24	120	4
NMTAP	24	144	5
NMTAP	24	192	3
NMTAP	24	192	6
NMTAP	24	240	2
NMTAP	24	264	3
NMTAP	24	288	2
NMHLD	24	336	1	96
NMTAP	24	336	4
NMTAP	25	48	0
NMTAP	25	96	6
NMTAP	25	96	7
NMTAP	25	144	4
NMTAP	25	144	5
NMTAP	25	192	2
NMSTR	25	192	3
NMSF_	25	192	3	96	48	7
NMTAP	25	288	3
NMSTR	26	0	1
NMSI_	26	0	1	96	48	5
NMTAP	26	0	5
NMSTR	26	96	5
NMSI_	26	96	5	96	48	1
NMSTR	26	192	1
NMSI_	26	192	1	96	48	5
NMSTR	26	288	5
NMSCL	26	288	5	96	192	6
NMTAP	27	0	1
NMTTP	27	192	0	C	1	M1
CNSCR	27	192	6	0	168	4
EXTAP	28	0	5
NMTAP	28	48	6
NMTAP	28	48	7
NMTAP	28	96	1
NMTAP	28	120	0
NMTAP	28	144	1
NMTAP	28	192	2
NMTAP	28	192	7
NMTAP	28	240	6
NMTAP	28	264	7
NMTAP	28	288	6
NMTAP	28	336	0
NMHLD	28	336	5	96
NMTAP	29	48	4
NMTAP	29	96	4
NMTAP	29	96	6
NMTAP	29	144	1
NMTAP	29	144	3
NMSTR	29	192	0
NMSCR	29	192	0	96	48	3
NMSTR	29	192	7
NMSCL	29	192	7	96	48	4
BRTAP	29	288	0
BRTAP	29	288	7
NMTAP	30	0	1
NMTAP	30	0	6
NMTAP	30	48	0
NMTAP	30	96	6
NMTAP	30	96	7
NMTAP	30	144	5
NMTAP	30	192	2
NMTAP	30	192	4
NMTAP	30	240	2
NMTAP	30	240	4
NMTAP	30	288	1
NMTAP	30	288	5
NMSTR	30	336	0
NMSI_	30	336	0	96	48	4
NMHLD	31	0	5	48
NMSTR	31	48	0
NMSCR	31	48	0	96	48	3
NMHLD	31	96	7	48
NMTAP	31	144	0
NMTAP	31	192	6
NMSTR	31	240	5
NMSCL	31	240	5	96	32	3
NMTAP	31	288	3
NMTAP	31	336	5
NMTAP	32	0	2
NMSTR	32	48	6
NMSUL	32	48	6	96	48	2
NMTAP	32	96	2
NMTAP	32	144	6
NMTAP	32	192	1
NMSTR	32	240	7
NMSLL	32	240	7	96	48	3
NMTAP	32	288	1
NMTAP	32	336	7
NMTAP	33	0	0
NMTAP	33	48	1
NMSTR	33	96	2
NMSCL	33	96	2	96	96	4
NMTAP	33	144	3
NMTAP	33	192	2
NMTAP	33	288	7
NMTAP	33	336	7
NMSTR	34	0	1
NMSI_	34	0	1	96	48	4
NMSTR	34	0	5
NMSI_	34	0	5	96	48	0
NMTAP	34	96	1
NMTAP	34	96	5
NMTAP	34	192	3
NMTAP	34	192	7
NMTAP	34	240	6
NMTAP	34	288	5
NMHLD	34	336	2	48
NMTAP	35	0	3
NMHLD	35	48	6	48
NMTAP	35	96	4
NMTAP	35	144	0
NMTAP	35	144	1
NMSTR	35	240	2
NMSI_	35	240	2	96	32	4
NMTAP	35	288	4
NMTAP	35	336	2
NMSTR	35	336	6
NMSI_	35	336	6	96	48	2
NMSTR	36	48	1
NMSI_	36	48	1	96	48	4
NMTAP	36	48	6
NMTAP	36	144	1
NMSTR	36	144	7
NMSCL	36	144	7	96	48	4
NMTAP	36	240	3
NMTAP	36	240	7
NMTAP	36	288	2
NMSTR	36	336	1
NMSI_	36	336	1	96	48	5
NMTAP	36	336	3
NMTAP	37	48	7
NMTAP	37	96	6
NMTAP	37	144	4
EXSTR	37	192	3
NMSCL	37	192	3	96	48	0
EXSTR	37	192	7
NMSCL	37	192	7	96	48	4
EXTAP	37	288	3
EXTAP	37	288	7
BRTAP	38	0	1
BRTAP	38	0	5
NMTAP	38	96	7
NMTAP	38	144	0
NMHLD	38	168	0	72
NMTAP	38	240	5
NMTAP	38	288	7
NMTAP	38	336	6
NMHLD	38	360	6	72
NMTAP	39	48	4
NMTAP	39	96	5
NMTAP	39	144	2
NMHLD	39	168	2	72
NMTAP	39	240	3
NMTAP	39	288	4
NMTAP	39	336	5
NMHLD	40	0	4	72
NMTAP	40	0	6
NMTAP	40	72	5
NMTAP	40	144	3
NMTAP	40	192	4
NMTAP	40	240	1
NMTAP	40	240	3
NMTAP	40	288	2
NMTAP	40	336	5
NMTAP	40	360	4
NMTAP	41	0	5
NMTAP	41	48	6
NMTAP	41	96	7
NMTAP	41	144	0
NMTAP	41	192	1
NMTAP	41	240	2
NMSTR	41	288	3
NMSUR	41	288	3	96	288	4
NMTAP	41	336	4
NMHLD	42	288	5	48
NMTAP	43	0	4
NMTAP	43	0	6
NMTAP	43	48	3
NMTAP	43	72	4
NMTAP	43	96	3
NMTAP	43	144	5
NMTAP	43	192	2
NMTAP	43	240	1
NMTAP	43	240	3
EXTAP	43	288	0
EXTAP	43	320	0
EXTAP	43	352	0
NMTAP	44	0	6
EXHLD	44	0	7	72
NMTAP	44	72	4
NMTAP	44	144	0
EXHLD	44	144	1	72
NMTAP	44	216	3
EXHLD	44	288	5	72
NMTAP	44	288	6
NMTAP	44	360	4
NMTAP	45	48	2
EXHLD	45	48	3	72
NMTAP	45	120	4
EXSTR	45	192	2
NMSI_	45	192	2	96	48	5
EXSTR	45	192	6
NMSI_	45	192	6	96	48	1
NMTAP	45	288	2
NMTAP	45	288	6
NMSTR	46	0	0
NMSCR	46	0	0	96	48	3
NMTAP	46	96	0
NMSTR	46	96	5
NMSCR	46	96	5	96	48	0
NMTAP	46	192	4
NMTAP	46	192	5
NMTAP	46	264	1
NMTAP	46	264	3
NMSTR	46	336	6
NMSI_	46	336	6	96	48	4
NMSTR	46	336	7
NMSI_	46	336	7	96	48	3
NMTAP	47	48	6
NMTAP	47	48	7
NMTAP	47	144	1
NMTAP	47	192	2
NMTAP	47	240	3
NMTAP	47	288	4
NMTAP	47	336	5
NMSTR	48	0	6
NMSUL	48	0	6	96	48	2
NMHLD	48	0	7	72
NMTAP	48	144	1
NMHLD	48	192	0	72
NMSTR	48	192	1
NMSUR	48	192	1	96	48	5
NMTAP	48	336	7
NMTAP	49	0	0
NMHLD	49	0	6	72
NMHLD	49	72	4	72
NMTAP	49	144	3
NMSTR	49	192	0
NMSI_	49	192	0	96	48	4
NMSTR	49	192	1
NMSI_	49	192	1	96	48	3
NMTAP	49	288	0
NMTAP	49	288	1
NMSTR	50	0	7
NMSCL	50	0	7	96	48	4
NMSTR	50	96	2
NMSCL	50	96	2	96	48	7
NMTAP	50	96	7
NMTAP	50	192	2
NMTAP	50	192	3
NMTAP	50	264	4
NMTAP	50	264	6
NMTAP	50	336	0
NMHLD	50	336	1	96
NMTAP	51	48	3
NMTAP	51	96	6
NMTAP	51	120	7
NMTAP	51	168	1
NMTAP	51	168	5
NMTAP	51	240	3
NMTAP	51	288	4
NMTAP	51	336	5
NMSTR	52	0	2
NMSI_	52	0	2	96	32	4
NMSTR	52	0	6
NMSI_	52	0	6	96	32	0
NMTAP	52	96	2
NMTAP	52	96	6
NMHLD	52	192	1	72
NMTAP	52	192	5
NMHLD	52	264	3	72
NMSTR	52	336	4
NMSI_	52	336	4	96	48	0
NMTAP	53	48	7
NMTAP	53	96	7
NMTAP	53	192	1
NMTAP	53	192	3
NMTAP	53	240	4
NMTAP	53	256	3
NMTAP	53	272	5
NMSTR	53	288	4
NMSV_	53	288	4	96	120	2
NMTTP	54	0	7	D	0	M1
NMTTP	54	96	6	D	0	M1
CNSCR	54	120	2	0	48	3
CNSV_	54	168	3	0	120	1
NMTTP	54	192	5	D	0	M1
NMSTR	54	288	4
NMSXL	54	288	4	96	288	7
NMTTP	55	0	0	A	0	M1
NMTTP	55	96	1	A	0	M1
NMTTP	55	192	2	A	0	M1
NMSTR	55	288	3
NMSCL	55	288	3	96	96	0
NMSTR	56	0	0
NMSCL	56	0	0	96	96	5
NMSTR	56	96	5
NMSCL	56	96	5	96	96	2
NMSTR	56	192	2
NMSCL	56	192	2	96	96	7
NMSTR	56	288	7
NMSCL	56	288	7	96	96	4
NMTAP	57	0	4
NMTAP	57	96	7
NMHLD	57	144	7	96
NMTAP	57	240	0
NMTAP	57	288	1
NMTAP	57	288	6
NMTAP	57	336	2
NMTAP	57	336	5
NMTAP	58	0	3
NMSTR	58	0	4
NMSI_	58	0	4	96	32	6
NMSTR	58	96	0
NMSI_	58	96	0	96	48	4
NMTAP	58	192	7
NMTAP	58	288	5
NMTAP	58	336	5
NMSTR	59	0	3
NMSI_	59	0	3	96	32	1
NMSTR	59	96	7
NMSI_	59	96	7	96	48	3
NMTAP	59	192	0
NMTAP	59	288	1
NMTAP	59	336	1
NMTAP	60	0	3
NMTAP	60	48	3
NMTAP	60	96	4
NMTAP	60	144	4
NMTAP	60	192	6
NMTAP	60	240	6
NMTAP	60	288	0
NMTAP	60	304	7
NMTAP	60	320	0
NMSTR	60	336	7
NMSI_	60	336	7	96	48	3
NMTAP	61	48	2
NMSTR	61	96	1
NMSCR	61	96	1	96	48	4
NMTAP	61	144	0
NMTAP	61	192	1
NMTHO	61	288	0	48	C	0	M1
NMTTP	62	0	1	E	0	M1
NMTTP	62	0	1	D	0	M1
EXTAP	62	0	7
NMTTP	62	72	2	E	0	M1
NMTTP	62	72	2	D	0	M1
NMTAP	62	72	7
NMTTP	62	144	3	E	0	M1
NMTTP	62	144	3	D	0	M1
NMTAP	62	144	7
NMTTP	62	216	4	E	0	M1
NMTTP	62	216	4	D	0	M1
NMTAP	62	216	7
NMTTP	62	288	5	E	0	M1
NMTTP	62	288	5	D	0	M1
NMTAP	62	288	7
EXTAP	63	0	1
NMTTP	63	0	7	E	0	M1
NMTTP	63	0	7	D	0	M1
NMTAP	63	72	1
NMTTP	63	72	6	E	0	M1
NMTTP	63	72	6	D	0	M1
NMTAP	63	144	1
NMTTP	63	144	5	E	0	M1
NMTTP	63	144	5	D	0	M1
NMTAP	63	216	1
NMTTP	63	216	4	E	0	M1
NMTTP	63	216	4	D	0	M1
NMTAP	63	288	1
NMTTP	63	288	3	E	0	M1
NMTTP	63	288	3	D	0	M1
NMTTP	64	0	0	B	0	M1
NMTTP	64	0	0	A	0	M1
EXTAP	64	0	5
NMTTP	64	72	1	B	0	M1
NMTTP	64	72	1	A	0	M1
NMTAP	64	72	5
NMTTP	64	144	2	B	0	M1
NMTTP	64	144	2	A	0	M1
NMTAP	64	144	5
NMTTP	64	216	3	B	0	M1
NMTTP	64	216	3	A	0	M1
NMTAP	64	216	5
NMTTP	64	288	4	B	0	M1
NMTTP	64	288	4	A	0	M1
NMTAP	64	288	5
EXHLD	65	0	3	48
NMTTP	65	0	7	B	0	M1
NMTTP	65	0	7	A	0	M1
NMHLD	65	72	3	48
NMTTP	65	72	6	B	0	M1
NMTTP	65	72	6	A	0	M1
NMTAP	65	144	3
NMTTP	65	144	5	B	0	M1
NMTTP	65	144	5	A	0	M1
NMTTP	65	192	3	E	0	M1
NMTTP	65	192	3	D	0	M1
EXHLD	65	192	4	48
NMTTP	65	264	2	E	0	M1
NMTTP	65	264	2	D	0	M1
NMHLD	65	264	4	48
NMTTP	65	336	1	E	0	M1
NMTTP	65	336	1	D	0	M1
NMTAP	65	336	4
EXHLD	66	0	5	96
EXHLD	66	0	7	96
EXTAP	66	144	3
EXTAP	66	144	4
NMTAP	66	240	1
NMTAP	66	256	0
NMTAP	66	272	1
BRTAP	66	288	7
NMTAP	67	0	2
NMTAP	67	0	6
NMTAP	67	48	4
NMTAP	67	96	0
NMTAP	67	96	1
NMTAP	67	144	2
NMTAP	67	192	3
NMTAP	67	192	5
NMTAP	67	240	3
NMTAP	67	240	5
NMTAP	67	288	2
NMTAP	67	288	6
NMSTR	67	336	7
NMSI_	67	336	7	96	48	3
NMHLD	68	0	2	48
NMSTR	68	48	7
NMSCL	68	48	7	96	48	4
NMHLD	68	96	0	48
NMTAP	68	144	7
NMTAP	68	192	1
NMSTR	68	240	2
NMSCR	68	240	2	96	32	4
NMTAP	68	288	4
NMTAP	68	336	2
NMTAP	69	0	5
NMSTR	69	48	1
NMSUR	69	48	1	96	48	5
NMTAP	69	96	5
NMTAP	69	144	1
NMTAP	69	192	6
NMSTR	69	240	0
NMSLR	69	240	0	96	48	4
NMTAP	69	288	6
NMTAP	69	336	0
NMTAP	70	0	7
NMTAP	70	48	6
NMSTR	70	96	5
NMSCR	70	96	5	96	96	3
NMTAP	70	144	4
NMTAP	70	192	3
NMTAP	70	192	5
NMTAP	70	288	0
NMTAP	70	336	1
NMTAP	70	336	7
NMSTR	71	0	2
NMSI_	71	0	2	96	48	7
NMSTR	71	0	6
NMSI_	71	0	6	96	48	3
NMTAP	71	96	2
NMTAP	71	96	6
NMTAP	71	192	0
NMTAP	71	192	4
NMTAP	71	240	1
NMTAP	71	288	2
NMTAP	71	336	3
NMTAP	71	336	5
NMTAP	72	0	7
NMTAP	72	48	1
NMTAP	72	48	3
NMTAP	72	96	0
NMTAP	72	144	2
NMTAP	72	144	6
NMTAP	72	192	4
NMSTR	72	240	5
NMSI_	72	240	5	96	32	3
NMTAP	72	288	3
NMSTR	72	336	1
NMSI_	72	336	1	96	48	5
NMTAP	72	336	5
NMTAP	73	48	1
NMSTR	73	48	6
NMSI_	73	48	6	96	48	3
NMSTR	73	144	0
NMSCR	73	144	0	96	48	3
NMTAP	73	144	6
NMTAP	73	240	0
NMTAP	73	240	4
NMTAP	73	288	5
NMTAP	73	336	4
NMSTR	73	336	6
NMSI_	73	336	6	96	48	2
NMTAP	74	48	2
NMTAP	74	96	1
NMTAP	74	144	0
EXSTR	74	192	1
NMSI_	74	192	1	96	48	5
EXSTR	74	192	7
NMSI_	74	192	7	96	48	5
EXSTR	74	288	1
NMSI_	74	288	1	96	48	3
EXSTR	74	288	7
NMSI_	74	288	7	96	48	3
BRTAP	75	0	1
BRTAP	75	0	7
NMTAP	75	96	4
NMTAP	75	96	6
NMTAP	75	144	5
NMTAP	75	192	1
NMTAP	75	192	3
NMTAP	75	240	2
NMTAP	75	288	3
NMTAP	75	288	7
NMTAP	75	336	6
NMSTR	76	0	1
NMSI_	76	0	1	96	32	7
NMTAP	76	0	5
NMSTR	76	96	5
NMSI_	76	96	5	96	32	3
NMSTR	76	192	1
NMSI_	76	192	1	96	48	5
NMTAP	76	288	7
NMTAP	77	0	0
NMTAP	77	0	6
NMTAP	77	48	1
NMTAP	77	96	2
NMTAP	77	96	7
NMTAP	77	144	6
NMTAP	77	192	1
NMTAP	77	192	5
NMTAP	77	240	2
NMTAP	77	288	3
NMTAP	77	288	4
NMTAP	77	336	5
NMTAP	78	0	4
NMTAP	78	0	6
NMTAP	78	48	2
NMTAP	78	96	1
NMTAP	78	96	3
NMTAP	78	144	4
NMTAP	78	192	4
NMTAP	78	192	5
NMTAP	78	240	3
NMTAP	78	288	2
NMSTR	78	288	3
NMSI_	78	288	3	96	48	5
NMSTR	79	0	1
NMSI_	79	0	1	96	48	3
NMSTR	79	96	7
NMSI_	79	96	7	96	48	1
NMSTR	79	192	5
NMSI_	79	192	5	96	48	7
NMSTR	79	288	3
NMSI_	79	288	3	96	48	5
NMHLD	80	0	6	144
CNSI_	80	48	5	0	72	1
CNSI_	80	120	1	0	48	7
NMTAP	80	240	5
NMSTR	80	288	4
NMSI_	80	288	4	96	48	2
NMTAP	80	336	3
NMHLD	81	0	2	144
CNSI_	81	48	2	0	72	6
CNSI_	81	120	6	0	48	0
NMTAP	81	240	2
NMTAP	81	288	3
NMTAP	81	336	4
NMTAP	81	336	5
NMTAP	82	48	2
NMTAP	82	72	3
NMTAP	82	96	2
NMTAP	82	144	1
NMTAP	82	144	4
NMSTR	82	192	3
NMSCL	82	192	3	96	32	1
NMSTR	82	192	6
NMSCL	82	192	6	96	32	4
NMTAP	82	288	3
NMTAP	82	288	6
NMTAP	83	0	0
NMHLD	83	48	0	48
NMTAP	83	96	3
NMTAP	83	120	1
NMHLD	83	192	1	48
NMTAP	83	240	3
NMTAP	83	264	2
NMTAP	83	312	1
NMTAP	83	336	0
NMTAP	83	360	1
NMTAP	84	0	7
NMHLD	84	48	7	48
NMTAP	84	96	4
NMTAP	84	120	5
NMHLD	84	192	6	48
NMTAP	84	240	4
NMTAP	84	264	5
NMTAP	84	312	6
NMTAP	84	336	7
NMTAP	84	360	6
NMTAP	85	0	1
NMHLD	85	48	1	48
NMTAP	85	96	3
NMTAP	85	120	2
NMHLD	85	192	6	48
NMTAP	85	240	4
NMTAP	85	264	5
NMTAP	85	312	2
NMTAP	85	336	4
NMTAP	85	360	3
NMHLD	86	0	5	48
NMHLD	86	72	4	48
NMHLD	86	72	6	48
NMHLD	86	144	2	48
NMHLD	86	144	3	48
NMHLD	86	216	4	48
NMHLD	86	216	5	48
NMHLD	86	288	1	48
NMHLD	86	288	3	48
NMHLD	86	360	6	48
NMHLD	86	360	7	48
NMHLD	87	48	0	48
NMHLD	87	48	1	48
NMHLD	87	120	3	48
NMHLD	87	120	4	48
NMTAP	87	192	0
NMSTR	87	192	7
NMSI_	87	192	7	96	48	3
NMSTR	87	288	3
NMSF_	87	288	3	96	288	7

T_REC_TAP	430
T_REC_BRK	7
T_REC_XTP	12
T_REC_HLD	70
T_REC_XHO	8
T_REC_STR	103
T_REC_BST	0
T_REC_XST	8
T_REC_TTP	56
T_REC_THO	1
T_REC_SLD	111
T_REC_ALL	806
T_NUM_TAP	609
T_NUM_BRK	7
T_NUM_HLD	79
T_NUM_SLD	111
T_NUM_ALL	806
T_JUDGE_TAP	616
T_JUDGE_HLD	110
T_JUDGE_SLD	111
T_JUDGE_ALL	837
TTM_EACHPAIRS	135
TTM_SCR_TAP	304500
TTM_SCR_BRK	18200
TTM_SCR_HLD	79000
TTM_SCR_SLD	166500
TTM_SCR_ALL	568200
TTM_SCR_S	550500
TTM_SCR_SS	567500
TTM_RAT_ACV	10012

