VERSION	0.00.00	1.04.00
FES_MODE	0
BPM_DEF	142.000	142.000	142.000	142.000
MET_DEF	4	4
RESOLUTION	384
CLK_DEF	384
COMPATIBLE_CODE	MA2

BPM	0	0	142.000
MET	0	0	4	4

NMHLD	2	0	1	672
NMTAP	2	96	0
NMTAP	2	288	7
NMTAP	3	96	0
NMTAP	3	288	7
NMHLD	4	0	6	288
NMTAP	4	96	7
NMTAP	4	288	0
EXTAP	5	0	6
EXTAP	5	0	7
EXTAP	5	72	6
EXTAP	5	72	7
EXTAP	5	144	0
EXTAP	5	144	1
EXTAP	5	216	0
EXTAP	5	216	1
EXTAP	5	288	2
EXTAP	5	288	5
NMTAP	6	0	2
NMHLD	6	0	3	96
NMHLD	6	96	1	96
NMTAP	6	192	3
NMTAP	6	288	1
NMTAP	6	288	3
NMTAP	7	0	2
NMTAP	7	0	3
NMTAP	7	96	4
NMTAP	7	192	3
NMTAP	7	192	5
NMTAP	7	288	3
NMTAP	7	288	5
NMHLD	8	0	4	96
NMTAP	8	0	5
NMHLD	8	96	6	96
NMTAP	8	192	4
NMTAP	8	288	4
NMTAP	8	288	6
NMTAP	9	0	4
NMTAP	9	0	5
NMTAP	9	96	3
NMTAP	9	192	2
NMTAP	9	192	4
NMTAP	9	288	3
NMHLD	10	0	4	96
NMTAP	10	0	5
NMHLD	10	96	6	96
NMTAP	10	192	4
NMTAP	10	288	4
NMTAP	10	288	6
NMTAP	11	0	4
NMTAP	11	0	5
NMTAP	11	96	3
NMTAP	11	96	4
NMTAP	11	192	4
NMTAP	11	192	5
NMTAP	11	288	2
NMTAP	11	288	3
NMHLD	12	0	2	96
NMTAP	12	0	3
NMHLD	12	96	4	96
NMTAP	12	192	2
NMTAP	12	288	2
NMTAP	12	288	4
NMTAP	13	0	2
NMTAP	13	0	3
NMSTR	13	96	3
NMSI_	13	96	3	96	96	0
NMTAP	13	96	4
NMHLD	14	0	6	192
NMHLD	14	192	4	192
NMHLD	15	0	5	192
NMHLD	15	192	3	192
NMHLD	16	0	4	192
NMHLD	16	192	2	192
NMHLD	17	0	3	192
NMHLD	17	192	1	192
NMTAP	18	0	2
NMTAP	18	96	2
NMTAP	18	96	3
NMTAP	18	192	2
NMTAP	18	192	3
NMTAP	18	288	1
NMTAP	18	288	4
NMTAP	19	0	5
NMTAP	19	96	4
NMTAP	19	96	5
NMTAP	19	192	4
NMTAP	19	192	5
NMTAP	19	288	3
NMTAP	19	288	6
NMTAP	20	0	2
NMTAP	20	96	0
NMTAP	20	96	1
NMTAP	20	192	2
NMTAP	20	192	7
NMTAP	20	288	3
NMTAP	20	288	6
NMTAP	20	336	3
NMTAP	20	336	6
EXTAP	21	48	2
EXTAP	21	48	7
EXTAP	21	96	2
EXTAP	21	96	7
EXTAP	21	144	2
EXTAP	21	144	7
BXTAP	21	192	2
BXTAP	21	192	7
EXTAP	22	0	1
EXTAP	22	0	3
EXTAP	22	96	1
EXTAP	22	96	3
EXTAP	22	192	4
EXTAP	22	192	6
EXSTR	22	288	4
NMSI_	22	288	4	96	96	1
EXSTR	22	288	6
NMSI_	22	288	6	96	96	3
BXHLD	23	192	0	96
BXHLD	23	192	7	96
NMTAP	24	0	4
NMTAP	24	0	6
NMTAP	24	96	5
NMHLD	24	144	5	96
NMTAP	24	240	4
NMTAP	24	288	4
NMHLD	25	0	4	288
NMTAP	25	0	6
NMTAP	25	96	7
NMTAP	25	192	6
NMTAP	25	288	5
EXTAP	26	0	4
EXTAP	26	0	6
EXTAP	26	96	4
EXTAP	26	96	6
EXTAP	26	192	1
EXTAP	26	192	3
EXSTR	26	288	1
NMSI_	26	288	1	96	96	4
EXSTR	26	288	3
NMSI_	26	288	3	96	96	6
BXHLD	27	192	0	96
BXHLD	27	192	7	96
NMTAP	28	0	1
NMTAP	28	0	3
NMTAP	28	96	2
NMHLD	28	144	2	96
NMTAP	28	240	3
NMTAP	28	288	3
NMTAP	29	0	1
NMHLD	29	0	3	192
NMTAP	29	96	0
NMTAP	29	192	1
NMTAP	29	240	1
BXTAP	29	288	1
BXTAP	29	288	3
NMTAP	30	0	7
NMTAP	30	96	4
NMTAP	30	96	5
NMTAP	30	192	1
NMHLD	30	192	7	96
NMTAP	30	288	5
NMHLD	31	0	0	96
NMTAP	31	96	2
NMTAP	31	192	3
NMTAP	31	192	4
NMSTR	31	288	5
NMSI_	31	288	5	96	96	0
NMTAP	32	0	2
NMSTR	32	96	2
NMSI_	32	96	2	96	96	7
NMTAP	32	192	6
NMTAP	32	288	5
NMTAP	33	0	4
NMTAP	33	0	5
NMTAP	33	96	2
NMTAP	33	96	3
NMSTR	33	192	1
NMSCR	33	192	1	96	96	4
NMTAP	33	192	7
NMTAP	34	0	5
NMTAP	34	96	4
NMTAP	34	96	5
NMTAP	34	192	2
NMTAP	34	240	2
NMTAP	34	288	3
NMTAP	35	0	1
NMTAP	35	96	0
NMTAP	35	96	7
NMTAP	35	192	6
NMTAP	35	240	6
NMTAP	35	288	7
NMHLD	36	0	6	96
NMHLD	36	96	4	96
NMTAP	36	192	3
NMTAP	36	288	0
NMTAP	36	288	1
NMHLD	37	0	1	96
NMHLD	37	96	3	96
NMTAP	37	192	4
NMTAP	37	288	1
NMTAP	37	288	6
NMHLD	38	0	0	192
NMHLD	38	0	7	192
NMSTR	39	0	2
NMSUR	39	0	2	96	192	5
NMSTR	40	0	6
NMSUR	40	0	6	96	192	1
NMSTR	41	0	0
NMSCL	41	0	0	96	144	5
NMSCR	41	0	0	96	144	3
NMSTR	42	0	2
NMSI_	42	0	2	96	96	0
NMSTR	42	0	4
NMSI_	42	0	4	96	96	6
CNSI_	42	192	0	0	96	3
CNSI_	42	192	6	0	96	3
NMSTR	43	0	1
NMSCL	43	0	1	96	144	6
NMSTR	43	0	5
NMSCL	43	0	5	96	144	2
EXTAP	44	0	6
EXTAP	44	0	7
EXTAP	44	72	6
EXTAP	44	72	7
EXTAP	44	144	4
EXTAP	44	144	5
EXTAP	44	216	4
EXTAP	44	216	5
EXTAP	44	288	2
EXTAP	44	288	3
EXTAP	44	360	2
EXTAP	44	360	3
EXTAP	45	48	0
EXTAP	45	48	1
EXTAP	45	120	0
EXTAP	45	120	1
BXTAP	45	192	3
BXTAP	45	192	6
BXTAP	45	288	0
BXTAP	45	288	7
NMTAP	46	0	2
NMTAP	46	96	0
NMTAP	46	96	1
NMTAP	46	192	0
NMTAP	46	192	7
NMTAP	46	288	0
NMTAP	46	288	1
NMTAP	47	0	0
NMTAP	47	0	7
NMTAP	47	96	6
NMTAP	47	96	7
NMTAP	47	192	0
NMTAP	47	192	7
NMTAP	47	288	6
NMTAP	47	288	7
NMTAP	48	0	4
NMHLD	48	0	5	96
NMTAP	48	96	7
NMTAP	48	192	4
NMHLD	48	192	5	96
NMTAP	48	288	7
NMTAP	49	0	4
NMTAP	49	96	2
NMTAP	49	96	3
NMTAP	49	192	0
NMTAP	49	192	1
NMTAP	49	288	2
NMTAP	49	288	7
NMTAP	50	0	1
NMTAP	50	96	2
NMTAP	50	96	3
NMTAP	50	192	4
NMTAP	50	192	5
NMTAP	50	288	6
NMTAP	50	288	7
NMTAP	51	0	5
NMTAP	51	96	3
NMTAP	51	96	4
NMTAP	51	192	2
NMTAP	51	288	0
NMTAP	51	288	1
NMSTR	52	0	1
NMSI_	52	0	1	96	96	3
NMSTR	52	192	0
NMSI_	52	192	0	96	96	4
NMSTR	53	0	2
NMSCR	53	0	2	96	96	5
NMHLD	54	0	7	192
NMHLD	54	192	6	192
NMHLD	55	0	5	192
NMHLD	55	192	4	192
NMHLD	56	0	3	192
NMHLD	56	192	2	192
NMHLD	57	0	1	192
NMTAP	57	192	0
NMTAP	58	0	2
NMTAP	58	0	3
NMTAP	58	96	1
NMTAP	58	96	4
NMTAP	58	192	2
NMTAP	58	192	3
NMTAP	58	288	3
NMTAP	58	288	4
NMTAP	59	0	4
NMTAP	59	0	5
NMTAP	59	96	3
NMTAP	59	96	6
NMTAP	59	192	4
NMTAP	59	192	5
NMTAP	59	288	3
NMTAP	59	288	4
NMTAP	60	0	2
NMTAP	60	0	3
NMTAP	60	96	1
NMTAP	60	96	4
NMTAP	60	192	0
NMTAP	60	192	5
NMTAP	60	288	6
NMTAP	60	288	7
NMTAP	60	336	6
NMTAP	60	336	7
EXTAP	61	48	1
EXTAP	61	48	4
EXTAP	61	96	1
EXTAP	61	96	4
EXTAP	61	144	1
EXTAP	61	144	4
BXTAP	61	192	1
BXTAP	61	192	4
EXTAP	62	0	2
EXTAP	62	0	3
EXTAP	62	72	2
EXTAP	62	72	3
EXTAP	62	144	2
EXTAP	62	144	3
EXTAP	62	216	2
EXTAP	62	216	3
BXTAP	62	288	1
BXTAP	62	288	4
EXTAP	63	0	4
EXTAP	63	0	5
EXTAP	63	72	4
EXTAP	63	72	5
EXTAP	63	144	4
EXTAP	63	144	5
EXTAP	63	216	4
EXTAP	63	216	5
BXTAP	63	288	3
BXTAP	63	288	6
EXTAP	64	0	6
EXTAP	64	0	7
EXTAP	64	72	6
EXTAP	64	72	7
EXTAP	64	144	6
EXTAP	64	144	7
EXTAP	64	216	6
EXTAP	64	216	7
BXTAP	64	288	0
BXTAP	64	288	5
EXTAP	65	0	0
EXTAP	65	0	1
EXTAP	65	72	0
EXTAP	65	72	1
EXTAP	65	144	0
EXTAP	65	144	1
EXTAP	65	192	0
EXTAP	65	192	7
EXTAP	65	264	0
EXTAP	65	264	7
EXTAP	65	336	0
EXTAP	65	336	7
BXHLD	66	0	1	144
BXTAP	66	0	6
BXTAP	66	144	3
NMTAP	67	0	0
NMTAP	67	96	3
NMTAP	67	96	4
NMHLD	67	192	0	96
NMTAP	67	192	6
NMTAP	67	288	2
NMTAP	68	0	3
NMHLD	68	0	4	96
NMTAP	68	96	6
NMTAP	68	192	0
NMSTR	68	288	6
NMSI_	68	288	6	96	96	3
NMTAP	69	0	7
NMSTR	69	96	7
NMSI_	69	96	7	96	96	2
NMTAP	69	192	4
NMTAP	69	288	5
NMTAP	70	0	1
NMTAP	70	0	4
NMTAP	70	96	4
NMTAP	70	96	5
NMTAP	70	192	6
NMTAP	70	192	7
NMTAP	70	288	0
NMTAP	70	288	7
NMTAP	71	0	1
NMTAP	71	96	2
NMTAP	71	96	4
NMTAP	71	192	5
NMTAP	71	240	5
NMTAP	71	288	4
NMTAP	72	0	6
NMTAP	72	96	1
NMTAP	72	96	7
NMTAP	72	192	2
NMTAP	72	240	2
NMTAP	72	288	3
NMHLD	73	0	1	96
NMHLD	73	96	3	96
NMTAP	73	192	4
NMTAP	73	288	5
NMTAP	73	288	7
NMHLD	74	0	6	96
NMHLD	74	96	4	96
NMTAP	74	192	3
NMTAP	74	288	0
NMTAP	74	288	2
BRHLD	75	0	1	192
BRHLD	75	0	6	192
NMHLD	76	0	2	96
NMTAP	76	0	4
NMTAP	76	96	3
NMHLD	76	192	5	96
NMTAP	76	288	4
NMHLD	77	0	1	96
NMTAP	77	96	3
NMHLD	77	192	6	96
NMTAP	77	288	4
NMHLD	78	0	1	96
NMTAP	78	96	0
NMHLD	78	192	6	96
NMTAP	78	288	7
NMHLD	79	0	3	96
NMHLD	79	96	4	96
NMHLD	79	192	5	96
NMHLD	79	288	6	288
NMHLD	80	0	7	192
NMSTR	80	288	6
NMSCL	80	288	6	96	288	7
NMTAP	82	0	3
NMTAP	82	96	0
NMTAP	82	96	2
NMTAP	82	192	6
NMTAP	82	192	7
NMTAP	82	240	6
NMTAP	82	240	7
BRTAP	82	288	0
BRTAP	82	288	5
NMHLD	83	0	2	1056
NMTAP	83	96	7
NMTAP	83	288	0
NMTAP	84	96	1
NMTAP	84	288	3
NMTAP	85	96	4
NMTAP	85	288	5
EXTAP	86	0	0
EXTAP	86	0	7
EXTAP	86	72	0
EXTAP	86	72	7
EXTAP	86	144	1
EXTAP	86	144	3
EXTAP	86	216	1
EXTAP	86	216	3
EXTAP	86	288	4
EXTAP	86	288	5
EXTAP	86	360	4
EXTAP	86	360	5
EXTAP	87	48	3
EXTAP	87	48	6
EXTAP	87	120	3
EXTAP	87	120	6
BXTAP	87	192	0
BXTAP	87	192	1
BXSTR	87	288	3
BRSSR	87	288	3	96	288	7
BXSTR	87	288	4
BRSSL	87	288	4	96	288	0

T_REC_TAP	244
T_REC_BRK	2
T_REC_XTP	102
T_REC_BXX	20
T_REC_HLD	57
T_REC_XHO	0
T_REC_BHO	2
T_REC_BXH	5
T_REC_STR	17
T_REC_BST	0
T_REC_XST	4
T_REC_XBS	2
T_REC_TTP	0
T_REC_THO	0
T_REC_SLD	22
T_REC_BSL	2
T_REC_ALL	479
T_NUM_TAP	367
T_NUM_BRK	33
T_NUM_HLD	57
T_NUM_SLD	22
T_NUM_ALL	479
T_JUDGE_TAP	391
T_JUDGE_HLD	215
T_JUDGE_SLD	24
T_JUDGE_ALL	630
TTM_EACHPAIRS	159
TTM_SCR_TAP	183500
TTM_SCR_BRK	85800
TTM_SCR_HLD	57000
TTM_SCR_SLD	33000
TTM_SCR_ALL	359300
TTM_SCR_S	345350
TTM_SCR_SS	356000
TTM_RAT_ACV	10092

