VERSION	0.00.00	1.04.00
FES_MODE	0
BPM_DEF	132.000	132.000	132.000	132.000
MET_DEF	4	4
RESOLUTION	384
CLK_DEF	384
COMPATIBLE_CODE	MA2

BPM	0	0	132.000
MET	0	0	4	4

NMHLD	1	0	3	288
NMHLD	1	0	5	96
NMSTR	1	144	6
NMSCL	1	144	6	96	48	4
NMTAP	1	192	6
NMTAP	1	336	2
NMHLD	2	0	2	96
NMHLD	2	0	4	288
NMSTR	2	144	1
NMSCR	2	144	1	96	48	3
NMTAP	2	192	1
NMTAP	2	336	6
NMHLD	3	0	3	96
NMHLD	3	0	6	96
NMTAP	3	144	1
NMTAP	3	144	4
NMHLD	3	192	1	96
NMHLD	3	192	4	96
NMHLD	4	0	3	96
NMTAP	4	0	6
NMHLD	4	96	2	96
NMSTR	4	192	1
NMSI_	4	192	1	96	48	3
NMTAP	4	288	5
NMTAP	5	0	3
NMTAP	5	0	7
NMTAP	5	48	2
NMTAP	5	96	1
NMTAP	5	96	5
NMTAP	5	144	0
NMTAP	5	192	0
NMTAP	5	192	4
NMTAP	5	240	5
NMTAP	5	288	2
NMTAP	5	288	6
NMTAP	5	336	7
NMTAP	6	0	3
NMTAP	6	0	7
NMTAP	6	48	2
NMTAP	6	96	1
NMTAP	6	96	5
NMTAP	6	144	0
NMSTR	6	192	0
NMSI_	6	192	0	96	96	4
NMTAP	6	192	4
NMSTR	6	288	4
NMSCR	6	288	4	96	96	0
NMSTR	7	0	0
NMSCR	7	0	0	96	96	3
NMTAP	7	96	5
NMHLD	7	192	6	96
NMTTP	7	336	1	B	0	M1
NMTTP	7	336	5	B	0	M1
NMTTP	8	0	2	B	0	M1
NMTTP	8	0	6	B	0	M1
NMTTP	8	144	3	E	0	M1
NMTTP	8	144	7	E	0	M1
NMTTP	8	192	2	E	0	M1
NMTTP	8	192	6	E	0	M1
NMHLD	8	288	0	96
NMTAP	9	0	4
NMTAP	9	48	5
NMTAP	9	96	2
NMTAP	9	96	6
NMTAP	9	144	7
NMTAP	9	192	3
NMTAP	9	192	7
NMTAP	9	240	2
NMTAP	9	288	1
NMTAP	9	288	5
NMTAP	9	336	0
NMTAP	10	0	0
NMTAP	10	0	4
NMTAP	10	48	5
NMTAP	10	96	2
NMTAP	10	96	6
NMTAP	10	144	7
NMTAP	10	192	3
NMSTR	10	192	7
NMSI_	10	192	7	96	96	3
NMSTR	10	288	3
NMSCL	10	288	3	96	96	7
NMSTR	11	0	7
NMSCL	11	0	7	96	96	4
NMTAP	11	96	2
NMHLD	11	192	1	96
NMTTP	11	336	3	E	0	M1
NMTTP	11	336	7	E	0	M1
NMTTP	12	0	2	E	0	M1
NMTTP	12	0	6	E	0	M1
NMTTP	12	144	1	E	0	M1
NMTTP	12	144	5	E	0	M1
NMTTP	12	192	2	E	0	M1
NMTTP	12	192	6	E	0	M1
NMTAP	12	288	3
NMHLD	13	0	4	96
NMTAP	13	0	6
NMTAP	13	96	5
NMTAP	13	192	1
NMHLD	13	192	3	96
NMTAP	13	288	2
EXTAP	13	336	3
EXHLD	14	0	4	96
EXTAP	14	0	6
NMTAP	14	96	5
NMSTR	14	192	1
NMSUR	14	192	1	96	48	5
NMTAP	14	192	3
NMHLD	15	0	4	96
NMTAP	15	0	6
NMTAP	15	96	5
NMTAP	15	192	1
NMTAP	15	192	3
NMTAP	15	288	0
EXTAP	15	336	0
EXSTR	16	0	7
NMSXR	16	0	7	96	96	7
NMTAP	16	96	0
NMTAP	16	144	1
NMTAP	16	192	2
NMTAP	16	288	1
NMTAP	16	288	7
NMTAP	17	0	1
NMHLD	17	0	3	96
NMTAP	17	96	2
NMTAP	17	144	3
NMHLD	17	192	4	96
NMTAP	17	192	6
NMTAP	17	288	5
EXTAP	17	336	4
EXTAP	18	0	1
EXHLD	18	0	3	96
NMTAP	18	96	2
NMTAP	18	144	3
NMTAP	18	192	4
NMSTR	18	192	6
NMSCL	18	192	6	96	48	4
NMTAP	18	288	3
NMTAP	18	336	3
NMHLD	19	0	2	96
NMHLD	19	0	4	96
NMTAP	19	144	3
NMTAP	19	144	6
NMHLD	19	192	3	96
NMHLD	19	192	6	96
NMSTR	19	336	2
NMSXL	19	336	2	96	144	5
NMTAP	19	336	5
NMTAP	20	48	6
NMTAP	20	96	6
NMTAP	20	192	7
NMTAP	20	288	2
NMTAP	20	288	6
NMTAP	21	0	3
NMSTR	21	0	5
NMSV_	21	0	5	96	96	0
NMTAP	21	96	3
NMTAP	21	144	2
NMSTR	21	192	1
NMSCR	21	192	1	96	96	4
NMTAP	21	288	7
NMTAP	21	336	6
NMSTR	22	0	5
NMSUR	22	0	5	96	96	1
NMTAP	22	96	4
NMTAP	22	144	3
NMTAP	22	192	2
NMSTR	22	288	2
NMSXR	22	288	2	96	144	7
NMTAP	22	288	3
NMTAP	23	0	3
NMTAP	23	48	4
NMSTR	23	96	5
NMSXL	23	96	5	96	144	0
NMTAP	23	192	4
NMTAP	23	240	3
NMTAP	23	288	2
NMSTR	24	0	1
NMSI_	24	0	1	96	48	5
NMTAP	24	96	1
NMSTR	24	96	7
NMSI_	24	96	7	96	48	3
NMTAP	24	192	4
NMTAP	24	192	7
NMHLD	24	288	2	96
EXSTR	25	0	6
NMSCL	25	0	6	96	96	3
NMTAP	25	96	0
NMTAP	25	144	1
EXSTR	25	192	2
NMSCL	25	192	2	96	96	7
NMTAP	25	288	4
NMTAP	25	336	5
EXSTR	26	0	6
NMSCL	26	0	6	96	96	3
NMTAP	26	96	0
NMTAP	26	144	1
NMTAP	26	192	2
NMSTR	26	288	1
NMSI_	26	288	1	96	48	5
NMTAP	26	288	5
NMTAP	27	0	1
NMSTR	27	0	4
NMSCR	27	0	4	96	48	7
NMTAP	27	96	2
NMSTR	27	96	4
NMSCL	27	96	4	96	48	1
NMTAP	27	192	4
NMTAP	27	192	6
NMTAP	27	288	1
NMTAP	27	288	5
NMTAP	27	336	1
NMTAP	27	336	5
NMTAP	28	48	2
NMTAP	28	48	6
NMSTR	28	96	2
NMSV_	28	96	2	96	24	7
NMSTR	28	96	6
NMSV_	28	96	6	96	24	3
NMTAP	28	192	2
NMTAP	28	192	6
NMTTP	28	204	0	C	1	M1
EXSTR	28	288	0
NMSI_	28	288	0	96	48	4
EXTAP	28	288	6
NMTAP	29	0	0
NMTAP	29	0	7
NMSTR	29	48	6
NMSI_	29	48	6	96	48	2
NMTAP	29	96	5
NMTAP	29	144	4
NMTAP	29	144	6
NMTAP	29	192	3
NMTAP	29	240	2
NMSTR	29	288	1
NMSI_	29	288	1	96	48	5
NMTAP	29	336	0
NMTAP	30	0	1
NMSTR	30	0	7
NMSI_	30	0	7	96	48	3
NMTAP	30	48	6
NMSTR	30	96	0
NMSF_	30	96	0	96	48	4
NMTAP	30	96	7
NMTAP	30	144	1
NMTAP	30	192	0
NMTAP	30	288	2
NMTAP	30	288	6
NMTAP	31	0	2
NMTAP	31	0	7
NMTAP	31	48	3
NMTAP	31	96	4
NMTAP	31	96	6
NMTAP	31	144	5
NMTAP	31	192	1
NMTAP	31	192	4
NMTAP	31	240	2
NMTAP	31	288	3
NMTAP	31	288	7
NMHLD	31	336	6	96
NMTAP	32	48	7
NMTAP	32	72	0
NMTAP	32	96	1
NMTAP	32	144	7
NMTTP	32	192	3	B	0	M1
NMTTP	32	192	4	B	1	M1
NMTTP	32	192	5	B	0	M1
NMTAP	32	288	1
NMSTR	32	288	7
NMSI_	32	288	7	96	48	3
NMTAP	33	0	0
NMTAP	33	0	7
NMSTR	33	48	1
NMSI_	33	48	1	96	48	5
NMTAP	33	96	2
NMTAP	33	144	1
NMTAP	33	144	3
NMTAP	33	192	4
NMTAP	33	240	5
NMSTR	33	288	6
NMSI_	33	288	6	96	48	2
NMTAP	33	336	7
NMSTR	34	0	0
NMSI_	34	0	0	96	48	4
NMTAP	34	0	6
NMTAP	34	48	1
NMTAP	34	96	0
NMSTR	34	96	6
NMSUL	34	96	6	96	48	2
NMTAP	34	144	7
NMTAP	34	192	0
NMTAP	34	192	6
NMTAP	34	288	1
NMSTR	34	288	7
NMSI_	34	288	7	96	48	3
NMSTR	35	0	2
NMSI_	35	0	2	96	48	4
NMTAP	35	0	7
NMTAP	35	96	2
NMSTR	35	96	6
NMSI_	35	96	6	96	48	0
NMSTR	35	192	1
NMSI_	35	192	1	96	48	5
NMTAP	35	192	6
NMTAP	35	288	1
NMSTR	35	288	5
NMSCR	35	288	5	96	240	3
NMTAP	35	336	6
NMTAP	36	0	7
NMHLD	36	96	4	96
NMTAP	36	240	4
NMHLD	36	288	4	96
NMTAP	37	48	2
NMTAP	37	48	5
NMHLD	37	96	3	192
NMSTR	37	96	6
NMSI_	37	96	6	96	48	0
CNSI_	37	240	0	0	96	4
CNSI_	37	336	4	0	48	2
NMTAP	38	0	1
NMTAP	38	144	3
NMTAP	38	144	5
NMTAP	38	192	3
NMTAP	38	192	5
NMTTP	38	288	4	E	0	M1
NMTTP	38	288	5	E	0	M1
NMHLD	39	0	3	96
NMTAP	39	0	4
NMSTR	39	96	1
NMSCR	39	96	1	96	48	3
NMTAP	39	288	4
NMTAP	39	288	5
NMHLD	40	0	3	96
NMHLD	40	0	6	96
NMTAP	40	144	3
NMTAP	40	144	5
NMTAP	40	192	3
NMTAP	40	192	5
NMTTP	40	288	4	E	0	M1
NMTTP	40	288	5	E	0	M1
NMTAP	41	0	4
NMHLD	41	0	5	96
NMHLD	41	96	6	96
NMSTR	41	192	7
NMSCL	41	192	7	96	48	5
NMTAP	41	240	7
NMHLD	42	0	1	96
NMHLD	42	0	4	96
NMTAP	42	144	2
NMTAP	42	144	4
NMTAP	42	192	2
NMTAP	42	192	4
NMTTP	42	288	3	E	0	M1
NMTTP	42	288	4	E	0	M1
NMHLD	43	0	3	96
NMTAP	43	0	4
NMHLD	43	96	2	96
NMHLD	43	192	1	96
NMTAP	43	336	1
NMTAP	43	336	3
NMHLD	44	0	1	96
NMHLD	44	0	3	96
NMTAP	44	144	4
NMTAP	44	144	6
NMHLD	44	192	4	96
NMHLD	44	192	6	96
NMTAP	44	336	1
NMSTR	45	0	1
NMSUR	45	0	1	96	96	5
NMSTR	45	96	5
NMSUR	45	96	5	96	96	1
NMTAP	45	192	1
NMTAP	45	288	5
NMHLD	46	0	0	96
NMTAP	46	96	1
NMHLD	46	144	1	48
NMHLD	46	192	2	96
NMTAP	46	288	3
NMHLD	46	336	3	48
NMSTR	47	0	4
NMSCL	47	0	4	96	192	4
NMSCR	47	0	4	96	192	4
NMSTR	48	0	3
NMSCL	48	0	3	96	48	0
NMTTP	48	96	3	B	0	M1
NMSTR	48	192	2
NMSCR	48	192	2	96	48	5
NMTTP	48	288	2	B	0	M1
NMHLD	49	0	1	96
NMTAP	49	96	2
NMTAP	49	144	3
NMTAP	49	192	4
NMTTP	49	240	0	B	0	M1
NMTTP	49	240	1	B	0	M1
NMTTP	49	288	0	B	0	M1
NMTTP	49	288	1	B	0	M1
NMHLD	50	0	4	48
NMHLD	50	0	5	48
NMHLD	50	96	3	48
NMHLD	50	96	6	48
NMHLD	50	192	2	48
NMHLD	50	192	7	48
NMHLD	50	288	0	48
NMSTR	50	288	1
NMSI_	50	288	1	96	48	4
NMSTR	51	0	0
NMSI_	51	0	0	96	48	5
NMTAP	51	96	3
NMTAP	51	192	4
NMTTP	51	240	0	B	0	M1
NMTTP	51	240	1	B	0	M1
NMTTP	51	288	0	B	0	M1
NMTTP	51	288	1	B	0	M1
NMHLD	52	0	3	96
NMHLD	52	96	2	96
NMHLD	52	192	1	96
NMSTR	52	288	0
NMSI_	52	288	0	96	48	4
NMTAP	52	336	0
NMSTR	53	0	7
NMSI_	53	0	7	96	48	3
NMTAP	53	48	7
NMTAP	53	96	6
NMHLD	53	192	5	96
NMTAP	53	288	2
EXTAP	54	0	3
EXTAP	54	0	4
EXTAP	54	48	3
EXTAP	54	48	4
EXTAP	54	96	3
EXTAP	54	96	4
EXTAP	54	144	3
EXTAP	54	144	4
EXTAP	54	192	3
EXTAP	54	192	4
NMHLD	54	288	6	672
NMSTR	55	0	1
NMSV_	55	0	1	96	96	4
NMSTR	56	0	0
NMSCR	56	0	0	96	96	3
NMHLD	56	288	2	672
NMSTR	57	0	7
NMSCL	57	0	7	96	144	3
NMSTR	58	0	6
NMSV_	58	0	6	96	96	3
NMHLD	58	288	4	768
NMTAP	59	0	0
NMTAP	59	96	0
NMTAP	59	192	0
NMTAP	59	288	0
NMTAP	60	0	1
NMTAP	60	96	1
NMTAP	60	192	1
NMTAP	60	288	1
NMTAP	61	0	2
NMTAP	61	48	2
NMTAP	61	96	4
NMTAP	61	144	4
NMTAP	61	192	6
NMTAP	61	240	6
NMTAP	61	288	0
NMTAP	61	336	0
NMHLD	62	0	2	96
NMHLD	62	96	4	96
EXSTR	62	192	6
NMSCR	62	192	6	96	96	2
NMTAP	63	96	4
NMTAP	63	120	3
NMTAP	63	144	4
NMTAP	63	168	3
BRSTR	63	192	4
BRSXL	63	192	4	96	96	4
BRSXR	63	192	4	96	96	4
BRTAP	64	96	1
BRTAP	64	96	7
BRTAP	64	192	1
BRTAP	64	192	7
NMTAP	64	240	7
NMTAP	64	264	0
BXTAP	64	288	1
BXTAP	64	288	6
NMTAP	65	0	1
NMTAP	65	0	6
NMTAP	65	48	5
NMTAP	65	72	4
NMTAP	65	96	6
NMTAP	65	144	2
NMTAP	65	168	3
NMTAP	65	192	1
NMTAP	65	240	5
NMTAP	65	264	4
NMTAP	65	288	7
NMTAP	65	336	2
NMTAP	65	360	3
NMTAP	66	0	0
NMTAP	66	48	5
NMTAP	66	72	3
BRTAP	66	96	7
BRTAP	66	144	3
BRTAP	66	144	4
BRTAP	66	192	0
BRTAP	66	192	6
NMTAP	66	288	1
NMSTR	66	288	6
BRSLL	66	288	6	96	96	0
NMTAP	67	0	0
NMTAP	67	0	6
NMSTR	67	48	1
NMSI_	67	48	1	96	48	5
NMTAP	67	96	2
NMTAP	67	144	1
NMTAP	67	144	3
NMTAP	67	192	4
NMSTR	67	240	2
NMSI_	67	240	2	96	48	7
NMSTR	67	240	6
BRSI_	67	240	6	96	48	3
BRTAP	67	336	2
BRTAP	67	336	6
NMTAP	68	48	0
NMTAP	68	48	4
EXSTR	68	96	1
NMSUR	68	96	1	96	24	5
EXSTR	68	96	5
BRSUR	68	96	5	96	24	1
NMTTP	68	204	0	C	1	M1
NMTAP	68	288	0
NMTAP	69	0	2
NMSTR	69	0	6
BRSI_	69	0	6	96	48	2
NMSTR	69	96	0
NMSI_	69	96	0	96	48	5
NMTAP	69	96	6
NMTAP	69	192	0
NMSTR	69	192	7
BRSI_	69	192	7	96	48	3
NMSTR	69	288	3
BRSCL	69	288	3	96	192	4
NMTAP	69	288	7
NMTAP	69	336	2
NMTAP	70	0	1
BXTAP	70	96	3
BXTAP	70	240	3
BXHLD	70	288	3	96
EXTAP	71	48	4
NMTAP	71	96	1
EXTAP	71	96	4
NMTAP	71	144	2
NMTAP	71	144	5
NMTAP	71	192	2
NMTAP	71	240	3
NMTAP	71	240	6
NMTAP	71	288	4
NMTAP	71	288	7
NMHLD	72	0	3	576
NMSTR	72	0	7
NMSI_	72	0	7	96	48	2
NMTAP	72	96	7
NMSTR	72	192	7
NMSI_	72	192	7	96	48	5
NMTAP	72	288	7
NMSTR	73	0	7
NMSCR	73	0	7	96	48	2
NMSTR	73	96	7
NMSUL	73	96	7	96	96	5
NMTAP	73	192	7
NMSTR	74	0	0
NMSI_	74	0	0	96	48	5
NMHLD	74	0	4	576
NMTAP	74	96	0
NMSTR	74	192	0
NMSI_	74	192	0	96	48	2
NMTAP	74	288	0
NMSTR	75	0	0
NMSCL	75	0	0	96	48	5
NMSTR	75	96	0
NMSUR	75	96	0	96	96	2
NMTAP	75	192	0
NMHLD	76	0	3	576
NMSTR	76	0	7
NMSCR	76	0	7	96	48	2
NMSTR	76	96	7
NMSCL	76	96	7	96	48	4
NMSTR	76	192	7
NMSI_	76	192	7	96	48	1
NMSTR	76	288	7
NMSI_	76	288	7	96	48	4
NMSTR	77	0	7
NMSI_	77	0	7	96	48	2
NMSTR	77	96	7
NMSUL	77	96	7	96	96	5
NMTAP	77	192	7
NMTAP	78	0	2
NMHLD	78	0	6	96
NMHLD	78	96	4	96
NMHLD	78	192	2	96
NMHLD	78	288	0	96
NMTAP	79	0	6
NMTAP	79	48	1
NMTAP	79	48	5
NMSTR	79	96	2
NMSXR	79	96	2	96	144	5
NMTAP	79	96	4
NMTAP	80	0	6
NMTAP	80	144	5
NMHLD	80	192	4	192
NMTTP	80	288	0	B	0	M1
NMTTP	81	0	0	C	0	M1

T_REC_TAP	287
T_REC_BRK	11
T_REC_XTP	18
T_REC_BXX	4
T_REC_HLD	70
T_REC_XHO	2
T_REC_BHO	0
T_REC_BXH	1
T_REC_STR	77
T_REC_BST	1
T_REC_XST	8
T_REC_XBS	0
T_REC_TTP	39
T_REC_THO	0
T_REC_SLD	80
T_REC_BSL	8
T_REC_ALL	606
T_NUM_TAP	429
T_NUM_BRK	25
T_NUM_HLD	72
T_NUM_SLD	80
T_NUM_ALL	606
T_JUDGE_TAP	445
T_JUDGE_HLD	217
T_JUDGE_SLD	88
T_JUDGE_ALL	750
TTM_EACHPAIRS	123
TTM_SCR_TAP	214500
TTM_SCR_BRK	65000
TTM_SCR_HLD	72000
TTM_SCR_SLD	120000
TTM_SCR_ALL	471500
TTM_SCR_S	454950
TTM_SCR_SS	469000
TTM_RAT_ACV	10053

