VERSION	0.00.00	1.04.00
FES_MODE	0
BPM_DEF	132.000	132.000	132.000	132.000
MET_DEF	4	4
RESOLUTION	384
CLK_DEF	384
COMPATIBLE_CODE	MA2

BPM	0	0	132.000
MET	0	0	4	4

NMHLD	1	0	5	192
NMTAP	1	192	4
NMTAP	1	288	3
NMHLD	2	0	2	192
NMTAP	2	192	3
NMTAP	2	288	4
NMTAP	3	0	5
NMTAP	3	96	5
NMTAP	3	192	4
NMTAP	3	288	3
NMTAP	4	0	2
NMTAP	4	96	2
NMTAP	4	96	3
NMTAP	4	192	5
NMTAP	4	288	4
NMTAP	4	288	5
NMSTR	5	0	6
NMSCL	5	0	6	96	96	3
NMTAP	5	192	2
NMTAP	5	288	2
NMSTR	6	0	1
NMSCR	6	0	1	96	96	4
NMTAP	6	192	5
NMTAP	6	288	5
NMHLD	7	0	3	96
NMHLD	7	0	6	96
NMTAP	7	192	2
NMTAP	7	288	2
EXHLD	8	0	1	96
EXHLD	8	0	4	96
NMTAP	8	192	2
NMTAP	8	192	3
NMTAP	8	288	2
NMTAP	8	288	3
NMSTR	9	0	1
NMSCR	9	0	1	96	96	4
NMTAP	9	192	5
NMTAP	9	288	5
NMSTR	10	0	6
NMSCL	10	0	6	96	96	3
NMTAP	10	192	2
NMTAP	10	288	2
NMHLD	11	0	1	96
NMHLD	11	0	4	96
NMTAP	11	192	5
NMTAP	11	288	5
EXHLD	12	0	3	96
EXHLD	12	0	6	96
NMTAP	12	192	4
NMTAP	12	192	5
NMTAP	12	288	4
NMTAP	12	288	5
NMTAP	13	0	6
NMTAP	13	48	6
NMTAP	13	96	4
NMTAP	13	192	3
NMTAP	13	192	5
NMTAP	13	288	2
NMTAP	13	336	2
NMTAP	14	0	3
NMTAP	14	96	1
NMTAP	14	96	4
NMTAP	14	192	1
NMTAP	14	192	4
NMHLD	14	288	5	96
NMTAP	15	0	4
NMTAP	15	96	4
NMTAP	15	192	3
NMTAP	15	192	6
NMTAP	15	288	7
NMSTR	16	0	7
NMSXR	16	0	7	96	144	7
NMHLD	17	0	6	96
NMTAP	17	96	4
NMHLD	17	192	1	96
NMTAP	17	288	3
NMHLD	18	0	5	96
NMTAP	18	96	4
NMTAP	18	192	3
NMTAP	18	192	6
NMTAP	18	288	2
NMTAP	18	336	2
NMTAP	19	0	4
NMTAP	19	96	6
NMSTR	19	192	7
NMSSR	19	192	7	96	144	3
NMTAP	20	192	2
NMTAP	20	288	2
NMTAP	20	288	3
NMTAP	21	0	1
NMTAP	21	48	1
NMTAP	21	96	3
NMTAP	21	192	2
NMTAP	21	192	4
NMTAP	21	288	6
NMTAP	21	336	6
NMTAP	22	0	4
NMTAP	22	96	3
NMTAP	22	96	5
NMTAP	22	192	3
NMTAP	22	192	5
NMHLD	22	288	6	96
NMTAP	23	0	7
NMTAP	23	96	4
NMTAP	23	96	5
NMTAP	23	192	2
NMTAP	23	192	3
NMTAP	23	288	2
NMTAP	23	288	3
NMSTR	24	0	1
NMSI_	24	0	1	96	96	6
NMSTR	24	0	5
NMSI_	24	0	5	96	96	2
EXTAP	24	288	0
EXTAP	24	288	7
NMHLD	25	0	5	96
NMTAP	25	96	4
NMTAP	25	192	3
NMTAP	25	288	2
NMTAP	25	336	2
NMTAP	26	0	3
NMTAP	26	96	2
NMTAP	26	96	4
NMTAP	26	192	2
NMTAP	26	192	4
NMTAP	26	288	5
NMTAP	26	336	5
NMTAP	27	0	3
NMHLD	27	96	1	96
NMHLD	27	192	3	96
NMHLD	27	288	4	96
NMHLD	28	0	6	96
NMTAP	28	96	0
NMTAP	28	192	1
NMTAP	28	192	5
BRTAP	28	288	1
BRTAP	28	288	5
NMHLD	29	0	6	96
NMTAP	29	96	7
NMTAP	29	144	7
NMTAP	29	240	4
NMTAP	29	240	5
NMHLD	29	336	2	96
NMTAP	30	48	3
NMSTR	30	96	3
NMSUR	30	96	3	96	96	7
NMHLD	31	0	1	96
NMTAP	31	96	0
NMTAP	31	144	0
NMTAP	31	240	2
NMTAP	31	240	7
NMHLD	31	336	6	96
NMTAP	32	48	4
NMTAP	32	96	4
NMTAP	32	192	3
NMTAP	32	192	7
NMTAP	32	288	3
NMTAP	32	288	7
NMHLD	33	0	1	96
NMTAP	33	96	3
NMTAP	33	144	3
NMTAP	33	240	2
NMTAP	33	240	5
NMHLD	33	336	6	96
NMTAP	34	48	4
NMTAP	34	96	4
NMTAP	34	192	3
NMTAP	34	192	5
NMHLD	34	288	2	96
NMHLD	35	0	0	96
NMHLD	35	96	7	96
NMHLD	35	192	5	96
NMSTR	35	288	4
NMSCR	35	288	4	96	240	3
NMTAP	37	48	3
NMTAP	37	48	4
NMSTR	37	96	3
NMSUR	37	96	3	96	192	4
NMTAP	37	96	4
NMHLD	38	0	5	144
NMTAP	38	144	4
NMTAP	38	192	4
NMTAP	38	288	3
NMTAP	38	288	5
NMSTR	39	0	2
NMSCL	39	0	2	96	96	7
NMSTR	39	192	6
NMSCL	39	192	6	96	96	3
NMHLD	40	0	2	144
NMTAP	40	144	3
NMTAP	40	192	3
NMTAP	40	288	2
NMTAP	40	288	4
NMTAP	41	0	1
NMTAP	41	96	0
NMTAP	41	96	1
NMTAP	41	192	6
NMTAP	41	288	6
NMTAP	41	288	7
NMHLD	42	0	5	144
NMTAP	42	144	4
NMTAP	42	192	4
NMTAP	42	288	3
NMTAP	42	288	5
NMSTR	43	0	2
NMSCL	43	0	2	96	96	7
NMSTR	43	192	6
NMSCL	43	192	6	96	96	3
NMHLD	44	0	2	144
NMTAP	44	144	0
NMHLD	44	192	0	144
NMTAP	44	336	7
NMTAP	45	0	7
EXTAP	45	96	1
EXTAP	45	96	6
EXTAP	45	192	2
EXTAP	45	192	5
EXTAP	45	288	2
EXTAP	45	288	5
NMHLD	46	0	0	96
NMHLD	46	96	1	96
NMHLD	46	192	2	96
NMHLD	46	288	3	96
NMSTR	47	0	4
NMSUR	47	0	4	96	144	3
NMTAP	48	0	5
NMTAP	48	96	4
NMTAP	48	96	6
NMTAP	48	192	2
NMTAP	48	288	1
NMTAP	48	288	3
NMTAP	49	0	0
NMTAP	49	0	1
NMSTR	49	96	0
NMSCL	49	96	0	96	96	5
NMSTR	49	96	1
NMSCR	49	96	1	96	96	4
NMHLD	50	0	4	96
NMHLD	50	96	5	96
NMHLD	50	192	6	96
NMHLD	50	288	7	96
NMTAP	51	0	0
NMSTR	51	96	0
NMSI_	51	96	0	96	96	3
NMSTR	51	96	7
NMSI_	51	96	7	96	96	4
NMTAP	52	0	2
NMTAP	52	96	1
NMTAP	52	96	3
NMTAP	52	192	5
NMTAP	52	288	4
NMTAP	52	288	6
NMTAP	53	0	4
NMTAP	53	0	5
NMSTR	53	96	4
NMSCL	53	96	4	96	96	1
NMSTR	53	96	5
NMSCR	53	96	5	96	96	0
NMTAP	54	0	7
NMTAP	54	48	7
NMTAP	54	96	0
NMTAP	54	192	1
NMTAP	54	192	6
NMHLD	55	0	5	768
NMTTP	55	192	0	C	0	M1
NMTTP	56	0	7	E	0	M1
NMTTP	56	96	0	E	0	M1
NMTTP	56	192	1	E	0	M1
NMHLD	57	0	2	768
NMTTP	57	192	0	C	0	M1
NMTTP	58	0	1	E	0	M1
NMTTP	58	96	0	E	0	M1
NMTTP	58	192	7	E	0	M1
NMTAP	59	0	5
NMTAP	59	96	5
NMTAP	59	192	5
NMTAP	59	288	5
NMTAP	60	0	4
NMTAP	60	96	4
NMTAP	60	192	4
NMTAP	60	288	4
NMTAP	61	0	3
NMTAP	61	96	3
NMTAP	61	192	3
NMTAP	61	288	3
NMTAP	62	0	2
NMTAP	62	96	2
NMHLD	62	192	2	96
BRTAP	62	288	3
NMTAP	63	0	1
NMSTR	63	0	4
BRSI_	63	0	4	96	96	7
NMHLD	63	192	0	96
EXTAP	63	288	7
EXTAP	64	0	2
EXTAP	64	0	5
NMTTP	64	96	5	E	0	M1
NMTTP	64	192	3	E	0	M1
NMTTP	64	288	0	C	1	M1
NMTTP	64	288	3	B	0	M1
NMTTP	64	288	4	B	0	M1
EXTAP	65	0	0
EXTAP	65	0	7
NMTAP	65	96	6
NMTAP	65	144	6
NMTAP	65	192	7
NMTAP	65	288	1
NMTAP	65	336	1
NMTAP	66	0	0
NMTAP	66	96	2
NMTAP	66	96	7
BRTAP	66	192	2
BRTAP	66	192	7
NMTAP	66	288	4
NMTAP	66	288	5
NMHLD	67	0	6	96
NMTAP	67	96	7
NMTAP	67	144	7
NMTAP	67	240	0
NMTAP	67	240	5
NMHLD	67	336	1	96
NMTAP	68	48	0
NMTAP	68	96	0
NMTAP	68	192	2
NMTAP	68	192	7
NMHLD	68	288	6	96
NMHLD	69	0	4	96
NMHLD	69	96	3	96
NMHLD	69	192	1	96
NMSTR	69	288	0
NMSCR	69	288	0	96	240	7
NMTAP	71	48	0
NMTAP	71	48	7
NMTAP	71	96	0
NMTAP	71	96	7
NMTAP	71	192	4
NMTAP	71	192	6
NMTAP	71	288	3
NMTAP	71	288	4
BRHLD	72	0	1	96
BRTAP	72	0	3
NMHLD	72	96	3	96
NMHLD	72	192	4	96
NMHLD	72	288	6	96
NMHLD	73	0	7	96
NMHLD	73	96	0	96
NMTAP	73	192	1
NMTAP	73	288	2
NMTAP	73	288	4
NMHLD	74	0	6	96
NMHLD	74	96	4	96
NMHLD	74	192	3	96
NMHLD	74	288	1	96
NMHLD	75	0	0	96
NMHLD	75	96	7	96
NMTAP	75	192	6
NMTAP	75	288	3
NMTAP	75	288	5
NMHLD	76	0	5	96
NMHLD	76	96	7	96
NMHLD	76	192	0	96
NMHLD	76	288	2	96
NMHLD	77	0	3	96
NMHLD	77	96	4	96
NMTAP	77	192	5
NMTAP	77	288	3
NMTAP	77	288	6
NMHLD	78	0	2	96
NMHLD	78	96	0	96
NMHLD	78	192	7	96
NMHLD	78	288	5	96
NMHLD	79	0	4	96
NMHLD	79	96	3	96
NMTAP	79	192	2
NMTAP	79	288	1
NMTAP	79	288	4
NMSTR	80	0	5
NMSUL	80	0	5	96	192	3
NMTTP	81	0	0	C	0	M1

T_REC_TAP	219
T_REC_BRK	6
T_REC_XTP	13
T_REC_BXX	0
T_REC_HLD	72
T_REC_XHO	4
T_REC_BHO	1
T_REC_BXH	0
T_REC_STR	25
T_REC_BST	0
T_REC_XST	0
T_REC_XBS	0
T_REC_TTP	14
T_REC_THO	0
T_REC_SLD	24
T_REC_BSL	1
T_REC_ALL	379
T_NUM_TAP	271
T_NUM_BRK	8
T_NUM_HLD	76
T_NUM_SLD	24
T_NUM_ALL	379
T_JUDGE_TAP	277
T_JUDGE_HLD	191
T_JUDGE_SLD	25
T_JUDGE_ALL	493
TTM_EACHPAIRS	71
TTM_SCR_TAP	135500
TTM_SCR_BRK	20800
TTM_SCR_HLD	76000
TTM_SCR_SLD	36000
TTM_SCR_ALL	268300
TTM_SCR_S	259500
TTM_SCR_SS	267500
TTM_RAT_ACV	10029

