VERSION	0.00.00	1.04.00
FES_MODE	0
BPM_DEF	123.000	123.000	123.000	123.000
MET_DEF	4	4
RESOLUTION	384
CLK_DEF	384
COMPATIBLE_CODE	MA2

BPM	0	0	123.000
MET	0	0	4	4

EXHLD	1	192	7	480
EXHLD	2	0	5	288
NMTAP	3	0	4
NMTAP	3	48	4
NMTAP	3	96	3
NMTAP	3	144	3
NMTAP	3	192	5
NMTAP	3	240	5
NMTAP	3	288	2
NMTAP	3	336	2
NMTAP	4	0	4
NMTAP	4	48	4
NMTAP	4	96	3
NMTAP	4	144	3
NMTAP	4	192	5
NMTAP	4	240	5
NMTAP	4	288	4
NMTAP	4	336	4
NMTAP	5	0	3
NMTAP	5	48	3
NMTAP	5	96	2
NMTAP	5	144	2
NMTAP	5	192	4
NMTAP	5	240	4
NMTAP	5	288	3
NMTAP	5	336	3
NMTAP	6	0	5
NMTAP	6	48	5
NMSTR	6	96	3
NMSCL	6	96	3	96	96	4
NMSTR	6	96	4
NMSCR	6	96	4	96	96	3
NMHLD	7	0	2	48
NMHLD	7	0	4	48
NMHLD	7	96	2	48
NMHLD	7	96	4	48
NMHLD	7	192	3	48
NMHLD	7	192	5	48
NMHLD	7	288	3	48
NMHLD	7	288	5	48
NMTTP	8	0	2	E	0	M1
NMTTP	8	0	2	A	0	M1
NMTTP	8	0	2	D	0	M1
NMTTP	8	0	4	A	0	M1
NMTTP	8	0	5	E	0	M1
NMTTP	8	0	5	D	0	M1
NMTTP	8	96	3	E	0	M1
NMTTP	8	96	3	A	0	M1
NMTTP	8	96	3	D	0	M1
NMTTP	8	96	5	A	0	M1
NMTTP	8	96	6	E	0	M1
NMTTP	8	96	6	D	0	M1
NMTTP	8	192	2	E	0	M1
NMTTP	8	192	2	A	0	M1
NMTTP	8	192	2	D	0	M1
NMTTP	8	192	4	A	0	M1
NMTTP	8	192	5	E	0	M1
NMTTP	8	192	5	D	0	M1
NMTTP	8	288	3	E	0	M1
NMTTP	8	288	3	A	0	M1
NMTTP	8	288	3	D	0	M1
NMTTP	8	288	5	A	0	M1
NMTTP	8	288	6	E	0	M1
NMTTP	8	288	6	D	0	M1
NMHLD	9	0	3	48
NMHLD	9	0	5	48
NMHLD	9	96	3	48
NMHLD	9	96	5	48
NMHLD	9	192	2	48
NMHLD	9	192	4	48
NMHLD	9	288	2	48
NMHLD	9	288	4	48
NMTTP	10	0	3	E	0	M1
NMTTP	10	0	3	A	1	M1
NMTTP	10	0	3	D	0	M1
NMTTP	10	0	5	A	0	M1
NMTTP	10	0	6	E	0	M1
NMTTP	10	0	6	D	0	M1
NMTTP	10	96	2	E	0	M1
NMTTP	10	96	2	A	0	M1
NMTTP	10	96	2	D	0	M1
NMTTP	10	96	4	A	1	M1
NMTTP	10	96	5	E	0	M1
NMTTP	10	96	5	D	0	M1
NMTTP	10	192	3	E	0	M1
NMTTP	10	192	3	A	1	M1
NMTTP	10	192	3	D	0	M1
NMTTP	10	192	5	A	0	M1
NMTTP	10	192	6	E	0	M1
NMTTP	10	192	6	D	0	M1
BRTAP	10	288	1
BRHLD	10	288	7	672
NMHLD	11	0	5	576
NMHLD	12	288	3	768
NMSTR	12	288	7
NMSUL	12	288	7	96	48	2
NMTAP	13	0	7
NMSTR	13	96	7
NMSUL	13	96	7	96	48	2
NMTAP	13	192	7
NMSTR	13	288	7
NMSUL	13	288	7	96	48	2
NMTAP	14	0	7
NMSTR	14	96	7
NMSUL	14	96	7	96	48	2
NMTAP	14	192	7
BRHLD	14	288	7	672
NMTAP	15	0	5
NMTAP	15	48	5
NMTAP	15	96	4
NMTAP	15	144	4
NMTAP	15	192	5
NMTAP	15	240	5
NMTAP	15	288	4
NMTAP	15	336	4
NMTAP	16	0	5
NMTAP	16	48	5
NMTAP	16	96	4
NMTAP	16	144	4
NMTAP	16	192	5
NMTAP	16	240	5
NMHLD	16	288	4	768
NMSTR	16	288	7
NMSUL	16	288	7	96	48	2
NMTAP	17	0	7
NMSTR	17	96	7
NMSUL	17	96	7	96	48	2
NMTAP	17	192	7
NMSTR	17	288	7
NMSUL	17	288	7	96	48	2
NMTAP	18	0	7
NMSTR	18	96	7
NMSUL	18	96	7	96	48	2
NMTAP	18	192	7
NMTAP	18	288	7
EXTAP	19	0	4
EXTAP	19	0	6
EXHLD	19	48	1	240
EXHLD	19	48	3	240
NMTTP	20	0	6	B	0	M1
NMTTP	20	0	6	A	0	M1
NMTTP	20	0	7	B	0	M1
NMTTP	20	0	7	E	1	M1
NMTTP	20	0	7	A	0	M1
NMTTP	20	48	4	B	0	M1
NMTTP	20	48	4	A	0	M1
NMTTP	20	48	5	E	0	M1
NMTTP	20	48	5	A	0	M1
NMTTP	20	48	5	D	0	M1
NMTTP	20	96	0	B	0	M1
NMTTP	20	96	0	A	0	M1
NMTTP	20	96	1	B	0	M1
NMTTP	20	96	1	E	1	M1
NMTTP	20	96	1	A	0	M1
NMTTP	20	144	2	A	0	M1
NMTTP	20	144	3	B	0	M1
NMTTP	20	144	3	E	0	M1
NMTTP	20	144	3	A	0	M1
NMTTP	20	144	3	D	0	M1
BXTAP	20	192	2
BXTAP	20	192	5
NMTAP	20	288	0
NMTAP	20	288	7
NMTAP	21	0	4
NMTAP	21	0	6
NMTAP	21	48	2
NMTAP	21	48	3
NMSTR	21	96	0
NMSI_	21	96	0	96	48	3
NMSTR	21	96	1
NMSI_	21	96	1	96	48	3
NMSTR	21	192	0
NMSCL	21	192	0	96	48	5
NMSTR	21	192	1
NMSUR	21	192	1	96	48	5
NMTAP	22	0	6
NMTAP	22	0	7
NMTAP	22	48	5
NMSTR	22	96	4
NMSI_	22	96	4	96	48	7
NMSTR	22	96	5
NMSI_	22	96	5	96	48	7
NMSTR	22	192	4
NMSCL	22	192	4	96	48	1
NMSTR	22	192	5
NMSUR	22	192	5	96	48	1
NMTAP	23	0	2
NMSTR	23	0	3
NMSI_	23	0	3	96	48	7
NMTAP	23	48	2
NMTAP	23	96	1
NMTAP	23	144	1
NMHLD	23	192	0	72
NMHLD	23	264	2	72
NMTAP	23	336	3
NMHLD	24	0	1	48
NMHLD	24	0	4	48
NMHLD	24	96	2	48
NMHLD	24	96	6	48
NMSTR	24	192	3
NMSUR	24	192	3	96	48	7
NMSTR	24	192	5
NMSUL	24	192	5	96	48	1
EXTAP	24	240	2
EXTAP	24	240	6
EXTAP	24	288	3
EXTAP	24	288	5
NMTAP	25	0	1
NMTAP	25	0	3
NMTAP	25	48	4
NMTAP	25	48	5
NMSTR	25	96	6
NMSI_	25	96	6	96	48	4
NMSTR	25	96	7
NMSI_	25	96	7	96	48	4
NMSTR	25	192	6
NMSUL	25	192	6	96	48	2
NMSTR	25	192	7
NMSCR	25	192	7	96	48	2
NMTAP	26	0	0
NMTAP	26	0	1
NMTAP	26	48	2
NMSTR	26	96	2
NMSI_	26	96	2	96	48	0
NMSTR	26	96	3
NMSI_	26	96	3	96	48	0
NMSTR	26	192	2
NMSUL	26	192	2	96	48	6
NMSTR	26	192	3
NMSCR	26	192	3	96	48	6
NMSTR	27	0	4
NMSI_	27	0	4	96	48	0
NMTAP	27	0	5
NMTAP	27	48	5
NMTAP	27	96	6
NMTAP	27	144	6
NMHLD	27	192	7	72
NMHLD	27	264	5	72
NMTAP	27	336	4
NMHLD	28	0	3	48
NMHLD	28	0	6	48
NMHLD	28	96	1	48
NMHLD	28	96	5	48
NMSTR	28	192	2
NMSUR	28	192	2	96	48	6
NMSTR	28	192	4
NMSUL	28	192	4	96	48	0
EXTAP	28	240	1
EXTAP	28	240	5
EXTAP	28	288	2
EXTAP	28	288	4
BXTAP	29	0	3
BXTAP	29	0	5
BXTAP	29	48	3
BXTAP	29	48	5
BXTAP	29	96	3
BXTAP	29	96	5
BXTAP	29	144	3
BXTAP	29	144	5
BXTAP	29	192	2
BXTAP	29	192	4
BXTAP	29	240	2
BXTAP	29	240	4
BXTAP	29	288	2
BXTAP	29	288	4
BXTAP	29	336	2
BXTAP	29	336	4
NMTTP	30	0	0	C	0	M1
NMTTP	30	0	3	B	0	M1
NMTTP	30	0	4	B	0	M1
NMHLD	30	96	2	48
NMHLD	30	96	6	48
NMSTR	30	192	1
NMSCR	30	192	1	96	48	4
NMSTR	30	192	5
NMSCR	30	192	5	96	48	0
BRTAP	30	288	1
BRTAP	30	288	5
NMTTP	31	0	2	B	0	M1
NMTTP	31	0	6	B	0	M1
NMTTP	31	96	1	B	0	M1
NMTTP	31	96	5	B	0	M1
NMTTP	31	192	3	B	0	M1
NMTTP	31	192	3	E	0	M1
NMTTP	31	192	7	B	0	M1
NMTTP	31	192	7	E	0	M1
NMTTP	31	288	0	B	0	M1
NMTTP	31	288	1	E	0	M1
NMTTP	31	288	4	B	0	M1
NMTTP	31	288	5	E	0	M1
NMTTP	32	0	2	B	0	M1
NMTTP	32	0	3	E	0	M1
NMTTP	32	0	3	A	0	M1
NMTTP	32	0	6	B	0	M1
NMTTP	32	0	7	E	0	M1
NMTTP	32	0	7	A	0	M1
NMTTP	32	96	0	A	0	M1
NMTTP	32	96	1	B	0	M1
NMTTP	32	96	1	E	0	M1
NMTTP	32	96	4	A	0	M1
NMTTP	32	96	5	B	0	M1
NMTTP	32	96	5	E	0	M1
NMTTP	32	192	0	E	0	M1
NMTTP	32	192	3	A	0	M1
NMTTP	32	192	3	D	0	M1
NMTTP	32	192	4	E	0	M1
NMTTP	32	192	7	A	0	M1
NMTTP	32	192	7	D	0	M1
NMTTP	32	288	0	A	0	M1
NMTTP	32	288	0	D	0	M1
NMTTP	32	288	1	D	0	M1
NMTTP	32	288	4	A	0	M1
NMTTP	32	288	4	D	0	M1
NMTTP	32	288	5	D	0	M1
NMTTP	33	0	0	E	0	M1
NMTTP	33	0	3	A	0	M1
NMTTP	33	0	3	D	0	M1
NMTTP	33	0	4	E	0	M1
NMTTP	33	0	7	A	0	M1
NMTTP	33	0	7	D	0	M1
NMTTP	33	96	0	A	0	M1
NMTTP	33	96	0	D	0	M1
NMTTP	33	96	1	D	0	M1
NMTTP	33	96	4	A	0	M1
NMTTP	33	96	4	D	0	M1
NMTTP	33	96	5	D	0	M1
NMTTP	33	192	2	B	0	M1
NMTTP	33	192	3	E	0	M1
NMTTP	33	192	3	A	0	M1
NMTTP	33	192	6	B	0	M1
NMTTP	33	192	7	E	0	M1
NMTTP	33	192	7	A	0	M1
NMTTP	33	288	0	A	0	M1
NMTTP	33	288	1	B	0	M1
NMTTP	33	288	1	E	0	M1
NMTTP	33	288	4	A	0	M1
NMTTP	33	288	5	B	0	M1
NMTTP	33	288	5	E	0	M1
NMTTP	34	0	3	B	0	M1
NMTTP	34	0	3	E	0	M1
NMTTP	34	0	7	B	0	M1
NMTTP	34	0	7	E	0	M1
NMTTP	34	96	0	B	0	M1
NMTTP	34	96	1	E	0	M1
NMTTP	34	96	4	B	0	M1
NMTTP	34	96	5	E	0	M1
NMTTP	34	192	2	B	0	M1
NMTTP	34	192	6	B	0	M1
NMTTP	34	288	1	B	0	M1
NMTTP	34	288	5	B	0	M1
NMTTP	35	0	3	E	0	M1
NMTTP	35	0	6	E	0	M1
NMTTP	35	96	2	E	0	M1
NMTTP	35	96	5	E	0	M1
NMTTP	35	192	2	B	0	M1
NMTTP	35	192	3	E	0	M1
NMTTP	35	192	6	B	0	M1
NMTTP	35	192	7	E	0	M1
NMTTP	35	288	1	B	0	M1
NMTTP	35	288	1	E	0	M1
NMTTP	35	288	5	B	0	M1
NMTTP	35	288	5	E	0	M1
NMTTP	36	0	2	A	0	M1
NMTTP	36	0	3	B	0	M1
NMTTP	36	0	3	E	0	M1
NMTTP	36	0	6	A	0	M1
NMTTP	36	0	7	B	0	M1
NMTTP	36	0	7	E	0	M1
NMTTP	36	96	0	B	0	M1
NMTTP	36	96	1	E	0	M1
NMTTP	36	96	1	A	0	M1
NMTTP	36	96	4	B	0	M1
NMTTP	36	96	5	E	0	M1
NMTTP	36	96	5	A	0	M1
NMTTP	36	192	0	E	0	M1
NMTTP	36	192	3	B	0	M1
NMTTP	36	192	3	A	0	M1
NMTTP	36	192	4	E	0	M1
NMTTP	36	192	7	B	0	M1
NMTTP	36	192	7	A	0	M1
NMTTP	36	288	0	B	0	M1
NMTTP	36	288	0	A	0	M1
NMTTP	36	288	0	D	0	M1
NMTTP	36	288	4	B	0	M1
NMTTP	36	288	4	A	0	M1
NMTTP	36	288	4	D	0	M1
NMTTP	37	0	0	E	0	M1
NMTTP	37	0	3	B	0	M1
NMTTP	37	0	3	A	0	M1
NMTTP	37	0	4	E	0	M1
NMTTP	37	0	7	B	0	M1
NMTTP	37	0	7	A	0	M1
NMTTP	37	96	0	B	0	M1
NMTTP	37	96	0	A	0	M1
NMTTP	37	96	0	D	0	M1
NMTTP	37	96	4	B	0	M1
NMTTP	37	96	4	A	0	M1
NMTTP	37	96	4	D	0	M1
NMTTP	37	192	2	A	0	M1
NMTTP	37	192	3	B	0	M1
NMTTP	37	192	3	E	0	M1
NMTTP	37	192	6	A	0	M1
NMTTP	37	192	7	B	0	M1
NMTTP	37	192	7	E	0	M1
NMTTP	37	288	0	B	0	M1
NMTTP	37	288	1	E	0	M1
NMTTP	37	288	1	A	0	M1
NMTTP	37	288	4	B	0	M1
NMTTP	37	288	5	E	0	M1
NMTTP	37	288	5	A	0	M1
NMTTP	38	0	2	B	0	M1
NMTTP	38	0	3	E	0	M1
NMTTP	38	0	6	B	0	M1
NMTTP	38	0	7	E	0	M1
NMTTP	38	96	1	B	0	M1
NMTTP	38	96	1	E	0	M1
NMTTP	38	96	5	B	0	M1
NMTTP	38	96	5	E	0	M1
NMSTR	38	192	3
NMSI_	38	192	3	96	48	0
NMSTR	38	192	4
NMSI_	38	192	4	96	48	7
NMSTR	39	0	5
NMSCL	39	0	5	96	48	2
NMTAP	39	72	2
NMTAP	39	144	1
NMSTR	39	192	1
NMSCR	39	192	1	96	48	4
NMTAP	39	264	5
NMTAP	39	336	6
NMSTR	40	0	6
NMSCL	40	0	6	96	48	3
NMTAP	40	72	3
NMTAP	40	144	2
NMSTR	40	192	2
NMSCR	40	192	2	96	48	5
NMTAP	40	264	6
NMTAP	40	336	7
NMSTR	41	0	7
NMSCL	41	0	7	96	48	4
NMTAP	41	72	2
NMTAP	41	144	0
NMSTR	41	192	0
NMSCR	41	192	0	96	48	3
NMTAP	41	264	5
NMTAP	41	336	7
NMSTR	42	0	7
NMSCL	42	0	7	96	48	4
NMTAP	42	72	3
NMTAP	42	144	2
NMHLD	42	192	2	96
EXTAP	42	288	3
NMTAP	43	0	1
NMTAP	43	0	3
NMTAP	43	48	2
NMTAP	43	80	2
NMTAP	43	96	4
NMTAP	43	144	4
NMTAP	43	144	6
NMTAP	43	192	4
NMTAP	43	192	6
NMTAP	43	240	5
NMTAP	43	272	5
NMTAP	43	288	3
NMTAP	43	336	1
NMTAP	43	336	3
NMTAP	44	0	1
NMTAP	44	0	3
NMTAP	44	48	2
NMTAP	44	80	2
NMTAP	44	96	4
NMTAP	44	144	4
NMTAP	44	144	6
NMTAP	44	192	4
NMTAP	44	192	6
NMTAP	44	240	5
NMTAP	44	272	5
NMTAP	44	288	3
NMTAP	44	336	2
NMTAP	44	336	3
NMTAP	45	0	2
NMTAP	45	0	3
NMTAP	45	48	1
NMTAP	45	80	1
NMTAP	45	96	0
NMTAP	45	144	0
NMTAP	45	144	7
NMTAP	45	192	0
NMTAP	45	192	7
NMTAP	45	240	6
NMTAP	45	272	6
NMTAP	45	288	7
NMTAP	45	336	0
NMTAP	45	336	7
NMTAP	46	0	0
NMTAP	46	0	7
NMTAP	46	48	1
NMTAP	46	80	1
NMTAP	46	96	0
NMTAP	46	144	0
NMTAP	46	144	7
NMTAP	46	192	0
NMTAP	46	192	7
NMTAP	46	240	6
NMTAP	46	272	6
NMTAP	46	288	7
NMTAP	46	336	0
NMTAP	46	336	7
NMTAP	47	0	0
NMTAP	47	0	7
NMTAP	47	48	1
NMTAP	47	80	1
NMTAP	47	96	3
NMTAP	47	144	3
NMTAP	47	144	5
NMTAP	47	192	3
NMTAP	47	192	5
NMTAP	47	240	6
NMTAP	47	272	6
NMTAP	47	288	4
NMTAP	47	336	3
NMTAP	47	336	5
NMTAP	48	0	3
NMTAP	48	0	5
NMTAP	48	48	2
NMTAP	48	80	2
NMTAP	48	96	4
NMTAP	48	144	1
NMTAP	48	144	5
EXTAP	48	192	2
NMTAP	48	208	4
NMTAP	48	224	2
NMTAP	48	240	4
NMTAP	48	256	2
NMTAP	48	272	4
EXTAP	48	288	2
NMTAP	48	304	4
NMTAP	48	320	2
NMTAP	48	336	4
NMTAP	48	352	2
NMTAP	48	368	4
EXTAP	49	0	1
NMTAP	49	16	5
NMTAP	49	32	1
NMTAP	49	48	5
NMTAP	49	64	1
NMTAP	49	80	5
EXTAP	49	96	1
NMTAP	49	112	5
NMTAP	49	128	1
NMTAP	49	144	5
NMTAP	49	160	1
NMTAP	49	176	5
EXSTR	49	192	0
BRSI_	49	192	0	96	48	4
NMTAP	49	208	6
NMTAP	49	224	0
NMTAP	49	240	6
NMTAP	49	256	0
NMTAP	49	272	6
NMHLD	50	0	7	72
NMHLD	50	72	5	72
NMTAP	50	144	4
NMSTR	50	192	4
NMSCR	50	192	4	96	48	7
NMTAP	50	288	2
NMTAP	50	288	4
NMTAP	50	336	1
NMHLD	51	0	0	72
NMHLD	51	72	2	72
NMTAP	51	144	3
NMSTR	51	192	3
NMSCL	51	192	3	96	48	0
NMTAP	51	288	3
NMTAP	51	288	5
NMTAP	51	336	6
NMHLD	52	0	7	72
NMHLD	52	72	5	72
NMTAP	52	144	4
NMSTR	52	192	4
NMSCR	52	192	4	96	48	7
NMTAP	52	288	2
NMTAP	52	288	4
NMTAP	52	336	1
NMHLD	53	0	0	96
NMTAP	53	96	3
NMSTR	53	192	1
NMSUR	53	192	1	96	48	5
NMSTR	53	192	4
NMSI_	53	192	4	96	48	7
NMTAP	53	288	1
NMTAP	53	288	4
EXTAP	54	0	5
EXTAP	54	0	7
EXHLD	54	48	5	240
EXHLD	54	48	7	240
BRTAP	55	0	0
BRTAP	55	0	6
BRTAP	55	48	2
BRTAP	55	48	3
BRTAP	55	96	1
BRTAP	55	96	7
BRTAP	55	144	4
BRTAP	55	144	5
BRTAP	55	192	2
BRTAP	55	192	6
NMTHO	55	288	0	672	C	0	M1
NMHLD	55	288	5	672
NMTTP	56	192	6	B	0	M1
NMTTP	57	0	6	B	0	M1
EXTAP	57	288	0
EXTAP	57	288	7
NMSTR	58	0	0
NMSI_	58	0	0	96	48	3
NMSTR	58	0	1
NMSI_	58	0	1	96	48	3
NMTAP	58	48	7
NMSTR	58	96	0
NMSLL	58	96	0	96	120	2
NMSTR	58	96	1
NMSI_	58	96	1	96	48	5
NMTAP	58	192	0
NMTAP	58	192	1
CNSI_	58	240	5	0	72	3
NMTTP	58	288	4	E	1	M1
NMSTR	59	0	6
NMSI_	59	0	6	96	48	4
NMSTR	59	0	7
NMSI_	59	0	7	96	48	4
NMTAP	59	48	0
NMSTR	59	96	6
NMSI_	59	96	6	96	48	2
NMSTR	59	96	7
NMSLR	59	96	7	96	120	5
NMTAP	59	192	6
NMTAP	59	192	7
CNSI_	59	240	2	0	72	4
NMTTP	59	288	4	E	1	M1
NMTAP	60	0	4
NMSTR	60	0	5
NMSI_	60	0	5	96	48	7
NMTAP	60	48	3
NMSTR	60	96	2
NMSXL	60	96	2	96	144	5
NMTAP	60	144	2
NMHLD	60	192	7	192
NMTAP	61	0	4
NMTAP	61	48	2
NMHLD	61	96	0	48
NMTAP	61	144	3
NMSTR	61	192	2
NMSUR	61	192	2	96	48	6
NMSTR	61	192	4
NMSUL	61	192	4	96	48	0
NMTAP	61	240	1
NMTAP	61	240	5
NMTAP	61	288	2
NMTAP	61	288	4
EXSTR	62	0	6
NMSI_	62	0	6	96	48	4
EXSTR	62	0	7
NMSI_	62	0	7	96	48	4
NMTAP	62	48	0
NMSTR	62	96	6
NMSI_	62	96	6	96	48	2
NMSTR	62	96	7
NMSLR	62	96	7	96	120	5
NMTAP	62	192	6
NMTAP	62	192	7
CNSI_	62	240	2	0	72	4
NMTTP	62	288	4	E	1	M1
NMSTR	63	0	0
NMSI_	63	0	0	96	48	3
NMSTR	63	0	1
NMSI_	63	0	1	96	48	3
NMTAP	63	48	7
NMSTR	63	96	0
NMSLL	63	96	0	96	120	2
NMSTR	63	96	1
NMSI_	63	96	1	96	48	5
NMTAP	63	192	0
NMTAP	63	192	1
CNSI_	63	240	5	0	72	3
NMTTP	63	288	4	E	1	M1
NMSTR	64	0	2
NMSI_	64	0	2	96	48	0
NMTAP	64	0	3
NMTAP	64	48	4
NMSTR	64	96	5
NMSXR	64	96	5	96	144	2
NMTAP	64	144	5
NMHLD	64	192	0	192
NMTAP	65	0	3
NMTAP	65	48	5
NMHLD	65	96	7	48
NMTAP	65	144	4
NMSTR	65	192	3
NMSUR	65	192	3	96	48	7
NMSTR	65	192	5
NMSUL	65	192	5	96	48	1
NMTAP	65	240	2
NMTAP	65	240	6
NMTAP	65	288	3
NMTAP	65	288	5
BXTAP	66	0	2
BXTAP	66	0	4
BXTAP	66	48	2
BXTAP	66	48	4
BXTAP	66	96	2
BXTAP	66	96	4
BXTAP	66	144	2
BXTAP	66	144	4
BXTAP	66	192	3
BXTAP	66	192	5
BXTAP	66	240	3
BXTAP	66	240	5
BXTAP	66	288	3
BXTAP	66	288	5
BXTAP	66	336	3
BXTAP	66	336	5
NMTTP	67	0	0	C	0	M1
NMTTP	67	0	3	B	0	M1
NMTTP	67	0	4	B	0	M1
NMHLD	67	96	2	48
NMHLD	67	96	6	48
NMSTR	67	192	1
NMSCR	67	192	1	96	48	4
NMSTR	67	192	5
NMSCR	67	192	5	96	48	0
BRTAP	67	288	1
BRTAP	67	288	5
BXTAP	68	0	2
BXTAP	68	0	4
BXTAP	68	48	2
BXTAP	68	48	4
BXTAP	68	96	2
BXTAP	68	96	4
BXTAP	68	144	2
BXTAP	68	144	4
BXTAP	68	192	3
BXTAP	68	192	5
BXTAP	68	240	3
BXTAP	68	240	5
BXTAP	68	288	3
BXTAP	68	288	5
BXTAP	68	336	3
BXTAP	68	336	5
NMTTP	69	0	0	C	0	M1
NMTTP	69	0	3	B	0	M1
NMTTP	69	0	4	B	0	M1
NMSTR	69	96	2
NMSCL	69	96	2	96	48	7
NMSTR	69	96	6
NMSCL	69	96	6	96	48	3
BRTAP	69	192	2
BRTAP	69	192	6
NMHLD	69	288	1	240
NMHLD	69	288	5	240
BRTAP	70	288	3
BRHLD	70	288	4	1536
EXTAP	71	0	0
EXTAP	71	12	1
EXTAP	71	24	2
EXTAP	71	36	3
EXTAP	71	60	5
EXTAP	71	72	6
EXTAP	71	84	7
EXTAP	71	96	0
EXTAP	71	108	1
EXTAP	71	120	2
EXTAP	71	132	3
EXTAP	71	156	5
EXTAP	71	168	6
EXTAP	71	180	7
EXTAP	71	192	0
EXTAP	71	204	1
EXTAP	71	216	2
EXTAP	71	228	3
EXTAP	71	252	5
EXTAP	71	264	6
EXTAP	71	276	7
EXTAP	71	288	0
EXTAP	71	300	1
EXTAP	71	312	2
EXTAP	71	324	3
EXTAP	71	348	5
EXTAP	71	360	6
EXTAP	71	372	7
EXTAP	72	0	0
EXTAP	72	12	1
EXTAP	72	24	2
EXTAP	72	36	3
EXTAP	72	60	5
EXTAP	72	72	6
EXTAP	72	84	7
EXTAP	72	96	0
EXTAP	72	108	1
EXTAP	72	120	2
EXTAP	72	132	3
EXTAP	72	156	5
EXTAP	72	168	6
EXTAP	72	180	7
EXTAP	72	192	0
EXTAP	72	204	1
EXTAP	72	216	2
EXTAP	72	228	3
EXTAP	72	252	5
EXTAP	72	264	6
EXTAP	72	276	7
EXTAP	72	288	0
EXTAP	72	300	1
EXTAP	72	312	2
EXTAP	72	324	3
EXTAP	72	348	5
EXTAP	72	360	6
EXTAP	72	372	7
EXTAP	73	0	0
EXTAP	73	12	1
EXTAP	73	24	2
EXTAP	73	36	3
EXTAP	73	60	5
EXTAP	73	72	6
EXTAP	73	84	7
EXTAP	73	96	0
EXTAP	73	108	1
EXTAP	73	120	2
EXTAP	73	132	3
EXTAP	73	156	5
EXTAP	73	168	6
EXTAP	73	180	7
EXTAP	73	192	0
EXTAP	73	204	1
EXTAP	73	216	2
EXTAP	73	228	3
EXTAP	73	252	5
EXTAP	73	264	6
EXTAP	73	276	7
EXTAP	73	288	0
EXTAP	73	300	1
EXTAP	73	312	2
EXTAP	73	324	3
EXTAP	73	348	5
EXTAP	73	360	6
EXTAP	73	372	7
BXTAP	74	0	0
BXTAP	74	12	1
BXTAP	74	24	2
BXTAP	74	36	3
BXTAP	74	60	5
BXTAP	74	72	6
BXTAP	74	84	7
BXTAP	74	96	0
BXTAP	74	108	1
BXTAP	74	120	2
BXTAP	74	132	3
BXTAP	74	156	5
BXTAP	74	168	6
BXTAP	74	180	7
BXTAP	74	192	0
BXTAP	74	204	1
BXTAP	74	216	2
BXTAP	74	228	3
BXTAP	74	252	5
BXTAP	74	264	6
BXTAP	74	276	7
BXTAP	74	288	0
NMHLD	75	0	4	72
NMHLD	75	72	6	72
NMTAP	75	144	7
NMSTR	75	192	7
NMSCL	75	192	7	96	48	4
NMTAP	75	288	1
NMTAP	75	288	7
NMTAP	75	336	2
NMHLD	76	0	3	72
NMHLD	76	72	1	72
NMTAP	76	144	0
NMSTR	76	192	0
NMSCR	76	192	0	96	48	3
NMTAP	76	288	0
NMTAP	76	288	6
NMTAP	76	336	5
NMHLD	77	0	4	72
NMHLD	77	72	6	72
NMTAP	77	144	7
NMTAP	77	192	7
NMSTR	77	288	0
NMSI_	77	288	0	96	48	4
NMSTR	77	288	7
NMSI_	77	288	7	96	48	5
NMSTR	78	0	0
NMSI_	78	0	0	96	48	2
NMSTR	78	0	7
NMSI_	78	0	7	96	48	3
NMTAP	78	96	0
NMTAP	78	96	7
NMTHO	78	192	0	96	C	1	M1
NMTTP	78	192	1	B	0	M1
NMTTP	78	192	1	A	0	M1
NMTTP	78	192	6	B	0	M1
NMTTP	78	192	6	A	0	M1

T_REC_TAP	250
T_REC_BRK	18
T_REC_XTP	103
T_REC_BXX	72
T_REC_HLD	56
T_REC_XHO	6
T_REC_BHO	3
T_REC_BXH	0
T_REC_STR	80
T_REC_BST	0
T_REC_XST	3
T_REC_XBS	0
T_REC_TTP	221
T_REC_THO	2
T_REC_SLD	82
T_REC_BSL	1
T_REC_ALL	897
T_NUM_TAP	657
T_NUM_BRK	94
T_NUM_HLD	64
T_NUM_SLD	82
T_NUM_ALL	897
T_JUDGE_TAP	747
T_JUDGE_HLD	254
T_JUDGE_SLD	83
T_JUDGE_ALL	1084
TTM_EACHPAIRS	137
TTM_SCR_TAP	328500
TTM_SCR_BRK	244400
TTM_SCR_HLD	64000
TTM_SCR_SLD	123000
TTM_SCR_ALL	759900
TTM_SCR_S	728000
TTM_SCR_SS	750500
TTM_RAT_ACV	10125

