VERSION	0.00.00	1.04.00
FES_MODE	0
BPM_DEF	123.000	123.000	123.000	123.000
MET_DEF	4	4
RESOLUTION	384
CLK_DEF	384
COMPATIBLE_CODE	MA2

BPM	0	0	123.000
MET	0	0	4	4

NMSTR	3	0	2
NMSCR	3	0	2	96	96	5
NMHLD	3	0	6	576
NMSTR	4	0	7
NMSCR	4	0	7	96	96	2
NMHLD	5	0	2	384
NMSTR	5	0	6
NMSCR	5	0	6	96	96	1
NMTAP	6	0	3
NMTAP	6	96	2
NMTAP	6	96	3
NMTAP	6	192	0
NMTAP	6	192	5
NMTAP	7	0	3
NMTAP	7	0	4
NMTAP	7	96	3
NMTAP	7	96	4
NMTAP	7	192	3
NMTAP	7	192	4
NMTAP	7	288	3
NMTAP	7	288	4
NMTAP	8	0	2
NMTAP	8	0	5
NMTAP	8	96	2
NMTAP	8	96	5
NMTAP	8	192	2
NMTAP	8	192	5
NMTAP	8	288	2
NMTAP	8	288	5
NMTAP	9	0	2
NMTAP	9	0	4
NMTAP	9	96	2
NMTAP	9	96	4
NMTAP	9	192	3
NMTAP	9	192	5
NMTAP	9	288	3
NMTAP	9	288	5
NMTAP	10	0	6
NMTAP	10	0	7
NMTAP	10	96	0
NMTAP	10	96	1
EXHLD	10	192	1	96
EXHLD	10	192	6	96
NMTAP	11	0	2
NMTAP	11	0	7
NMTAP	11	48	2
NMHLD	11	48	7	576
NMTAP	11	144	5
NMTAP	11	240	5
NMTAP	11	336	5
NMTAP	12	48	5
NMTAP	12	144	5
NMTAP	12	240	5
NMTAP	12	336	4
NMTAP	12	336	6
NMHLD	13	0	6	72
NMHLD	13	72	4	72
NMTAP	13	144	5
NMHLD	13	192	5	96
NMTAP	13	288	3
NMHLD	14	0	1	72
NMHLD	14	72	3	72
NMTAP	14	144	2
NMHLD	14	192	2	96
NMTAP	14	288	4
NMTAP	15	0	3
NMTAP	15	0	7
NMTAP	15	48	3
NMHLD	15	48	7	576
NMTAP	15	144	5
NMTAP	15	240	5
NMTAP	15	336	5
NMTAP	16	48	5
NMTAP	16	144	5
NMTAP	16	240	5
NMTAP	16	336	4
NMTAP	16	336	6
NMHLD	17	0	6	72
NMHLD	17	72	4	72
NMTAP	17	144	5
NMHLD	17	192	5	96
NMTAP	17	288	3
NMHLD	18	0	1	72
NMHLD	18	72	3	72
NMTAP	18	144	2
NMHLD	18	192	2	96
NMTAP	18	288	4
NMTAP	19	0	0
NMTAP	19	0	7
NMHLD	19	48	0	144
NMHLD	19	48	7	144
BXTAP	19	288	1
BXTAP	19	288	6
NMTAP	20	0	6
EXTAP	20	48	6
EXTAP	20	48	7
NMTAP	20	96	1
EXTAP	20	144	0
EXTAP	20	144	1
EXTAP	20	192	0
EXTAP	20	192	7
BRTAP	20	288	2
BRTAP	20	288	5
NMTAP	21	0	3
NMTAP	21	0	4
NMTAP	21	96	0
NMTAP	21	96	2
NMHLD	21	192	6	72
NMSTR	21	192	7
NMSI_	21	192	7	96	48	4
NMTAP	22	0	3
NMTAP	22	96	0
NMTAP	22	96	1
NMHLD	22	192	6	72
NMSTR	22	192	7
NMSI_	22	192	7	96	48	4
NMTAP	23	0	3
NMTAP	23	96	0
NMTAP	23	96	2
NMTAP	23	192	6
NMHLD	23	192	7	72
NMHLD	23	264	5	72
NMTAP	23	336	4
NMTAP	24	0	4
NMTAP	24	96	1
NMTAP	24	96	3
NMTAP	24	192	4
NMTAP	24	192	5
NMTTP	24	288	0	B	0	M1
NMTTP	24	288	1	B	0	M1
NMTTP	24	288	1	E	0	M1
NMTAP	25	0	3
NMTAP	25	0	4
NMTAP	25	96	5
NMTAP	25	96	7
NMSTR	25	192	0
NMSI_	25	192	0	96	48	3
NMHLD	25	192	1	72
NMTAP	26	0	4
NMTAP	26	96	6
NMTAP	26	96	7
NMSTR	26	192	0
NMSI_	26	192	0	96	48	3
NMHLD	26	192	1	72
NMTAP	27	0	4
NMTAP	27	96	5
NMTAP	27	96	7
NMHLD	27	192	0	72
NMTAP	27	192	1
NMHLD	27	264	2	72
NMTAP	27	336	3
NMTAP	28	0	3
NMTAP	28	96	4
NMTAP	28	96	6
NMTAP	28	192	2
NMTAP	28	192	3
BRHLD	28	288	1	48
BRHLD	28	288	6	48
NMTAP	29	0	2
NMTAP	29	0	3
NMTAP	29	48	2
NMTAP	29	48	3
NMTAP	29	96	2
NMTAP	29	96	3
NMTAP	29	144	2
NMTAP	29	144	3
NMTAP	29	192	3
NMTAP	29	192	4
NMTAP	29	240	3
NMTAP	29	240	4
NMTAP	29	288	3
NMTAP	29	288	4
NMTAP	29	336	3
NMTAP	29	336	4
NMTAP	30	0	2
NMTAP	30	0	5
NMTAP	30	96	1
NMTAP	30	96	3
NMTAP	30	192	4
NMTAP	30	192	6
BRTAP	30	288	0
BRTAP	30	288	7
NMHLD	31	0	0	48
NMHLD	31	0	7	48
NMHLD	31	96	1	48
NMHLD	31	96	6	48
NMHLD	31	192	0	48
NMHLD	31	192	7	48
NMHLD	31	288	1	48
NMHLD	31	288	6	48
NMHLD	32	0	0	48
NMHLD	32	0	7	48
NMHLD	32	96	1	48
NMHLD	32	96	6	48
NMHLD	32	192	0	48
NMHLD	32	192	7	48
NMTAP	32	288	1
NMTAP	32	336	0
NMHLD	33	0	0	48
NMHLD	33	0	1	48
NMHLD	33	96	2	48
NMHLD	33	96	7	48
NMHLD	33	192	0	48
NMHLD	33	192	1	48
NMHLD	33	288	2	48
NMHLD	33	288	7	48
NMHLD	34	0	0	48
NMHLD	34	0	1	48
NMHLD	34	96	2	48
NMHLD	34	96	7	48
NMHLD	34	192	0	48
NMHLD	34	192	1	48
NMTAP	34	288	7
NMTAP	34	336	0
NMHLD	35	0	0	48
NMHLD	35	0	7	48
NMHLD	35	96	2	48
NMHLD	35	96	5	48
NMHLD	35	192	0	48
NMHLD	35	192	7	48
NMHLD	35	288	2	48
NMHLD	35	288	5	48
NMHLD	36	0	0	48
NMHLD	36	0	7	48
NMHLD	36	96	2	48
NMHLD	36	96	5	48
NMHLD	36	192	0	48
NMHLD	36	192	7	48
NMHLD	36	288	2	48
NMHLD	36	288	5	48
NMHLD	37	0	6	48
NMHLD	37	0	7	48
NMHLD	37	96	0	48
NMHLD	37	96	5	48
NMHLD	37	192	6	48
NMHLD	37	192	7	48
NMHLD	37	288	0	48
NMHLD	37	288	5	48
NMHLD	38	0	0	48
NMHLD	38	0	7	48
NMHLD	38	96	2	48
NMHLD	38	96	5	48
NMTAP	38	192	0
NMTAP	38	192	7
NMTAP	38	240	0
NMTAP	38	240	7
NMTAP	38	288	1
NMTAP	38	288	6
NMHLD	39	0	2	72
NMHLD	39	72	3	72
NMTAP	39	144	0
NMHLD	39	192	0	72
NMHLD	39	264	7	72
NMTAP	39	336	4
NMHLD	40	0	4	72
NMHLD	40	72	5	72
NMTAP	40	144	6
NMSTR	40	192	6
NMSI_	40	192	6	96	48	1
NMHLD	41	0	6	72
NMHLD	41	72	7	72
NMTAP	41	144	4
NMHLD	41	192	4	72
NMHLD	41	264	3	72
NMTAP	41	336	0
NMHLD	42	0	0	72
NMHLD	42	72	1	72
NMTAP	42	144	2
NMSTR	42	192	2
NMSI_	42	192	2	96	48	5
NMSTR	43	0	0
NMSCR	43	0	0	96	48	6
CNSXR	43	144	6	0	336	2
NMTAP	44	192	7
NMTAP	44	240	7
NMTAP	44	288	0
NMTAP	44	288	6
NMSTR	45	0	4
NMSCR	45	0	4	96	48	2
CNSXR	45	144	2	0	336	6
NMTAP	46	192	1
NMTAP	46	240	1
NMTAP	46	288	0
NMTAP	46	288	2
NMSTR	47	0	2
NMSCL	47	0	2	96	48	0
NMHLD	47	0	3	480
CNSI_	47	144	0	0	96	6
CNSI_	47	240	6	0	48	4
EXTAP	48	0	4
EXTAP	48	96	4
NMHLD	48	192	6	96
NMTAP	48	192	7
NMTAP	48	288	4
EXTAP	49	0	1
EXTAP	49	0	3
EXTAP	49	96	4
EXTAP	49	96	5
EXTAP	49	192	6
EXTAP	49	192	7
BXTAP	49	288	2
BXTAP	49	288	5
NMHLD	50	0	2	72
NMHLD	50	72	1	72
NMTAP	50	144	0
NMTAP	50	192	0
NMTAP	50	288	2
NMTAP	50	288	3
NMHLD	51	0	5	72
NMHLD	51	72	6	72
NMTAP	51	144	7
NMTAP	51	192	7
NMTAP	51	288	4
NMTAP	51	288	5
NMHLD	52	0	2	72
NMHLD	52	72	1	72
NMTAP	52	144	0
NMTAP	52	192	0
NMTAP	52	288	2
NMTAP	52	288	3
NMTAP	53	0	6
NMTAP	53	0	7
NMTAP	53	96	3
NMTAP	53	96	4
NMTAP	53	192	1
NMTAP	53	192	7
NMTTP	53	288	3	B	0	M1
NMTTP	53	288	4	B	0	M1
NMTTP	53	288	4	E	0	M1
NMTAP	54	0	0
NMTAP	54	0	7
NMHLD	54	48	0	144
NMHLD	54	48	7	144
NMTAP	54	288	1
NMTAP	54	288	6
NMTAP	55	0	6
NMTAP	55	0	7
EXTAP	55	48	6
EXTAP	55	48	7
NMTAP	55	96	0
NMTAP	55	96	1
EXTAP	55	144	0
EXTAP	55	144	1
EXTAP	55	192	0
EXTAP	55	192	7
BXHLD	55	288	3	480
BXTAP	55	288	4
NMTTP	56	192	0	C	0	M1
NMTTP	57	0	0	C	0	M1
NMTAP	57	288	1
NMTAP	57	288	6
NMTAP	58	0	0
NMTAP	58	0	7
NMTAP	58	96	1
NMTAP	58	96	3
NMSTR	58	192	4
NMSI_	58	192	4	96	48	7
NMHLD	58	192	5	72
NMTAP	59	0	0
NMTAP	59	96	2
NMTAP	59	96	3
NMSTR	59	192	4
NMSI_	59	192	4	96	48	7
NMHLD	59	192	5	72
NMTAP	60	0	0
NMTAP	60	96	1
NMTAP	60	96	3
NMHLD	60	192	4	72
NMTAP	60	192	5
NMHLD	60	264	6	72
NMTAP	60	336	7
NMTAP	61	0	7
NMTAP	61	96	0
NMTAP	61	96	2
NMTAP	61	192	6
NMTAP	61	192	7
NMTTP	61	288	2	B	0	M1
NMTTP	61	288	3	B	0	M1
NMTTP	61	288	3	E	0	M1
NMTAP	62	0	0
NMTAP	62	0	7
NMTAP	62	96	4
NMTAP	62	96	6
NMHLD	62	192	2	72
NMSTR	62	192	3
NMSI_	62	192	3	96	48	0
NMTAP	63	0	7
NMTAP	63	96	4
NMTAP	63	96	5
NMHLD	63	192	2	72
NMSTR	63	192	3
NMSI_	63	192	3	96	48	0
NMTAP	64	0	7
NMTAP	64	96	4
NMTAP	64	96	6
NMTAP	64	192	2
NMHLD	64	192	3	72
NMHLD	64	264	1	72
NMTAP	64	336	0
NMTAP	65	0	0
NMTAP	65	96	5
NMTAP	65	96	7
NMTAP	65	192	0
NMTAP	65	192	1
BRHLD	65	288	1	48
BRHLD	65	288	6	48
NMTAP	66	0	4
NMTAP	66	0	5
NMTAP	66	48	4
NMTAP	66	48	5
NMTAP	66	96	4
NMTAP	66	96	5
NMTAP	66	144	4
NMTAP	66	144	5
NMTAP	66	192	3
NMTAP	66	192	4
NMTAP	66	240	3
NMTAP	66	240	4
NMTAP	66	288	3
NMTAP	66	288	4
NMTAP	66	336	3
NMTAP	66	336	4
NMTAP	67	0	2
NMTAP	67	0	5
NMTAP	67	96	4
NMTAP	67	96	6
NMTAP	67	192	1
NMTAP	67	192	3
BRTAP	67	288	0
BRTAP	67	288	7
NMTAP	68	0	2
NMTAP	68	0	3
NMTAP	68	48	2
NMTAP	68	48	3
NMTAP	68	96	2
NMTAP	68	96	3
NMTAP	68	144	2
NMTAP	68	144	3
NMTAP	68	192	3
NMTAP	68	192	4
NMTAP	68	240	3
NMTAP	68	240	4
NMTAP	68	288	3
NMTAP	68	288	4
NMTAP	68	336	3
NMTAP	68	336	4
NMTAP	69	0	2
NMTAP	69	0	5
NMTAP	69	96	4
NMTAP	69	96	6
NMTAP	69	192	1
NMTAP	69	192	3
BRTAP	69	288	0
BRTAP	69	288	7
NMTAP	70	288	3
NMSTR	70	288	4
NMSCR	70	288	4	96	288	3
NMHLD	71	0	1	576
CNSUR	71	288	3	0	288	6
NMSTR	72	288	1
BRSCL	72	288	1	96	288	2
NMTAP	72	288	6
BXHLD	73	0	4	576
CNSUL	73	288	2	0	288	7
NMHLD	75	0	1	72
NMHLD	75	72	3	72
NMTAP	75	144	5
NMTAP	75	192	5
NMTAP	75	288	6
NMTAP	75	288	7
NMHLD	76	0	6	72
NMHLD	76	72	4	72
NMTAP	76	144	2
NMTAP	76	192	2
NMTAP	76	288	0
NMTAP	76	288	1
NMHLD	77	0	1	72
NMHLD	77	72	3	72
NMTAP	77	144	5
NMTAP	77	192	5
NMTAP	77	288	6
NMTAP	77	288	7
BXTAP	78	0	1
BXTAP	78	0	3
BXTAP	78	96	4
BXTAP	78	96	6
BXSTR	78	192	0
BRSI_	78	192	0	96	48	4
BXSTR	78	192	7
BRSI_	78	192	7	96	48	3

T_REC_TAP	269
T_REC_BRK	8
T_REC_XTP	20
T_REC_BXX	9
T_REC_HLD	119
T_REC_XHO	2
T_REC_BHO	4
T_REC_BXH	2
T_REC_STR	18
T_REC_BST	0
T_REC_XST	0
T_REC_XBS	2
T_REC_TTP	11
T_REC_THO	0
T_REC_SLD	17
T_REC_BSL	3
T_REC_ALL	484
T_NUM_TAP	318
T_NUM_BRK	28
T_NUM_HLD	121
T_NUM_SLD	17
T_NUM_ALL	484
T_JUDGE_TAP	337
T_JUDGE_HLD	270
T_JUDGE_SLD	20
T_JUDGE_ALL	627
TTM_EACHPAIRS	169
TTM_SCR_TAP	159000
TTM_SCR_BRK	72800
TTM_SCR_HLD	121000
TTM_SCR_SLD	25500
TTM_SCR_ALL	378300
TTM_SCR_S	364250
TTM_SCR_SS	375500
TTM_RAT_ACV	10074

