VERSION	0.00.00	1.04.00
FES_MODE	0
BPM_DEF	170.000	170.000	170.000	170.000
MET_DEF	4	4
RESOLUTION	384
CLK_DEF	384
COMPATIBLE_CODE	MA2

BPM	0	0	170.000
MET	0	0	4	4

NMTAP	2	0	0
NMTAP	2	96	0
NMHLD	2	192	0	72
NMHLD	2	264	1	72
NMTAP	2	336	2
NMTAP	3	0	0
NMTAP	3	48	0
NMTAP	3	96	0
NMTAP	3	144	0
NMHLD	3	192	0	72
NMHLD	3	264	1	72
NMTAP	3	336	3
NMTAP	4	48	2
NMHLD	4	96	2	384
NMTAP	4	192	3
NMTAP	4	288	3
NMTAP	5	0	1
NMSTR	5	96	1
NMSI_	5	96	1	96	48	3
NMSTR	5	192	2
NMSI_	5	192	2	96	48	4
NMTAP	6	0	6
NMTAP	6	96	6
NMHLD	6	192	6	72
NMHLD	6	264	5	72
NMTAP	6	336	4
NMTAP	7	0	6
NMTAP	7	48	6
NMTAP	7	96	6
NMTAP	7	144	6
NMHLD	7	192	6	72
NMHLD	7	264	5	72
NMTAP	7	336	4
NMTAP	8	48	5
NMHLD	8	96	5	288
NMTAP	8	192	4
NMTAP	8	288	4
NMSTR	9	0	6
NMSXL	9	0	6	96	192	3
NMSXR	9	0	6	96	192	3
NMTAP	10	0	1
NMTAP	10	0	5
NMTAP	10	96	2
NMTAP	10	144	2
NMTAP	10	192	4
NMTAP	10	240	4
NMSTR	10	288	2
NMSI_	10	288	2	96	48	5
NMTAP	10	312	3
NMTAP	10	360	3
NMTAP	11	0	2
NMTAP	11	96	6
NMTAP	11	144	6
NMTAP	11	192	4
NMTAP	11	240	4
NMSTR	11	288	6
NMSI_	11	288	6	96	48	3
NMTAP	11	312	5
NMTAP	11	360	5
NMTAP	12	0	6
NMTAP	12	96	1
NMTAP	12	144	1
NMTAP	12	192	3
NMTAP	12	240	3
NMSTR	12	288	1
NMSI_	12	288	1	96	48	4
NMTAP	12	312	2
NMTAP	12	360	2
NMTAP	13	0	1
EXTAP	13	96	4
EXTAP	13	96	5
NMTAP	13	144	3
NMTAP	13	192	4
NMTAP	13	192	5
NMTAP	13	240	6
NMTAP	13	288	4
NMTAP	13	288	5
NMTAP	13	336	3
NMTAP	14	0	2
NMTAP	14	0	6
NMTAP	14	96	5
NMTAP	14	144	5
NMTAP	14	192	3
NMTAP	14	240	3
NMSTR	14	288	5
NMSI_	14	288	5	96	48	2
NMTAP	14	312	4
NMTAP	14	360	4
NMTAP	15	0	5
NMTAP	15	96	1
NMTAP	15	144	1
NMTAP	15	192	3
NMTAP	15	240	3
NMSTR	15	288	1
NMSI_	15	288	1	96	48	4
NMTAP	15	312	2
NMTAP	15	360	2
NMTAP	16	0	1
NMTAP	16	96	6
NMTAP	16	144	6
NMTAP	16	192	4
NMTAP	16	240	4
NMSTR	16	288	6
NMSI_	16	288	6	96	48	3
NMTAP	16	312	5
NMTAP	16	360	5
NMTAP	17	0	6
EXTAP	17	96	2
EXTAP	17	96	3
NMTAP	17	144	1
NMTAP	17	192	2
NMTAP	17	192	3
NMTAP	17	240	4
NMTAP	17	288	1
NMTAP	17	288	5
NMHLD	18	0	2	48
NMHLD	18	0	4	48
NMHLD	18	96	2	48
NMHLD	18	96	4	48
NMHLD	18	192	3	48
NMHLD	18	192	5	48
NMHLD	18	288	3	48
NMHLD	18	288	5	48
NMTAP	19	0	3
NMTAP	19	0	4
NMTAP	19	48	3
NMTAP	19	48	4
NMSTR	19	96	3
NMSV_	19	96	3	96	96	2
NMTAP	19	96	4
NMTAP	19	144	3
NMTAP	19	144	4
NMTAP	19	192	3
NMSTR	19	192	4
NMSV_	19	192	4	96	96	5
NMTAP	20	0	1
NMHLD	20	48	1	336
NMTAP	20	192	0
NMTAP	20	288	0
NMHLD	21	0	2	192
NMHLD	21	192	3	192
NMTAP	22	0	6
NMHLD	22	48	6	336
NMTAP	22	288	5
NMHLD	23	0	5	192
NMHLD	23	192	4	192
NMTAP	24	0	3
NMHLD	24	48	3	144
NMTAP	24	288	2
NMTAP	24	288	4
NMSTR	24	336	2
NMSSR	24	336	2	96	240	6
NMSTR	24	336	4
NMSSL	24	336	4	96	240	0
NMSTR	26	0	1
NMSI_	26	0	1	96	48	7
NMTAP	26	96	6
NMHLD	26	192	6	72
NMHLD	26	264	5	72
NMTAP	26	336	4
NMTAP	27	0	3
NMTAP	27	48	3
NMTAP	27	96	4
NMTAP	27	144	4
NMHLD	27	192	3	72
NMTAP	27	264	5
NMTAP	27	312	3
NMTAP	27	336	4
NMTAP	28	48	5
NMSTR	28	96	5
NMSV_	28	96	5	96	96	3
NMSTR	28	192	3
NMSI_	28	192	3	96	48	1
NMTAP	29	0	2
NMTAP	29	48	2
NMTAP	29	96	2
NMSTR	29	192	1
NMSCR	29	192	1	96	96	4
NMSTR	29	192	3
NMSUL	29	192	3	96	96	5
NMHLD	30	96	6	96
NMHLD	30	192	5	96
NMTAP	30	288	4
NMTAP	31	0	3
NMTAP	31	48	3
NMSTR	31	96	3
NMSUR	31	96	3	96	96	0
NMSTR	31	120	4
NMSI_	31	120	4	96	72	0
NMSTR	32	0	1
NMSI_	32	0	1	96	48	4
NMTAP	32	48	1
NMTAP	32	96	1
NMSTR	32	192	5
NMSI_	32	192	5	96	48	0
NMTAP	32	240	5
NMTAP	32	288	5
NMTAP	33	0	3
NMTAP	33	0	7
NMSTR	33	96	1
NMSV_	33	96	1	96	48	3
NMSTR	33	96	5
NMSV_	33	96	5	96	48	7
NMTAP	33	288	2
NMTAP	33	288	6
NMSTR	34	0	4
NMSCL	34	0	4	96	144	7
NMHLD	34	0	5	288
EXHLD	34	288	7	288
BXTAP	35	0	2
BXTAP	35	96	2
BXSTR	35	192	2
NMSI_	35	192	2	96	48	6
NMTAP	36	0	7
NMTAP	36	96	7
NMHLD	36	192	7	72
NMHLD	36	264	6	72
NMTAP	36	336	5
NMTAP	37	0	7
NMTAP	37	48	7
NMTAP	37	96	7
NMTAP	37	144	7
NMHLD	37	192	7	72
NMHLD	37	264	6	72
NMTAP	37	336	5
NMTAP	38	48	3
NMTAP	38	96	2
NMTAP	38	144	1
NMTAP	38	192	0
NMTAP	38	240	7
NMTAP	38	288	6
NMTAP	38	336	5
NMTAP	39	0	2
NMTAP	39	0	4
NMTAP	39	48	2
NMSTR	39	96	3
NMSI_	39	96	3	96	48	6
NMTAP	39	96	5
NMTAP	39	144	5
NMSTR	39	192	4
NMSI_	39	192	4	96	48	0
NMTAP	40	0	1
NMTAP	40	96	1
NMHLD	40	192	1	72
NMHLD	40	264	2	72
NMTAP	40	336	3
NMTAP	41	0	1
NMTAP	41	48	1
NMTAP	41	96	1
NMTAP	41	144	1
NMHLD	41	192	1	72
NMHLD	41	264	2	72
NMTAP	41	336	3
NMTAP	42	48	1
NMTAP	42	96	2
NMTAP	42	144	3
NMTAP	42	192	4
NMTAP	42	240	5
NMTAP	42	288	6
NMTAP	42	336	7
NMSTR	43	0	0
NMSSL	43	0	0	96	96	4
NMSSR	43	0	0	96	96	4
BRTAP	43	288	2
BRTAP	43	288	6
NMSTR	44	0	3
NMSI_	44	0	3	96	48	7
NMSTR	44	48	5
NMSI_	44	48	5	96	48	0
NMTAP	44	96	3
NMTAP	44	144	5
NMSTR	44	192	2
NMSI_	44	192	2	96	48	6
NMSTR	44	240	4
NMSI_	44	240	4	96	48	0
NMTAP	44	288	2
NMTAP	44	336	4
NMTAP	45	48	1
NMTAP	45	96	2
NMTAP	45	96	3
NMTAP	45	144	4
NMTAP	45	192	1
NMTAP	45	192	5
NMTAP	45	240	2
NMTAP	45	288	3
NMTAP	45	288	4
NMTAP	45	336	5
NMSTR	46	0	3
NMSI_	46	0	3	96	48	6
NMSTR	46	48	5
NMSI_	46	48	5	96	48	1
NMTAP	46	96	3
NMTAP	46	144	5
NMSTR	46	192	2
NMSI_	46	192	2	96	48	6
NMSTR	46	240	4
NMSI_	46	240	4	96	48	0
NMTAP	46	288	2
NMTAP	46	336	4
NMTAP	47	48	1
NMTAP	47	96	1
NMSTR	47	144	2
NMSXL	47	144	2	96	96	7
NMTAP	47	144	7
NMTAP	47	192	2
NMHLD	47	192	7	96
BRSTR	48	0	6
BRSI_	48	0	6	96	48	3
BRSTR	48	48	1
BRSI_	48	48	1	96	48	5
BRTAP	48	96	6
BRTAP	48	144	1
NMSTR	48	192	4
NMSI_	48	192	4	96	48	0
NMSTR	48	240	2
NMSI_	48	240	2	96	48	6
NMTAP	48	288	4
NMTAP	48	336	2
NMTAP	49	48	7
NMTAP	49	96	0
NMTAP	49	96	6
NMTAP	49	144	5
NMTAP	49	192	1
NMTAP	49	192	4
NMTAP	49	240	2
NMTAP	49	288	3
NMTAP	49	288	5
NMTAP	49	336	4
NMSTR	50	0	6
NMSI_	50	0	6	96	48	0
NMSI_	50	0	6	96	48	3
NMTAP	50	96	6
NMHLD	50	192	1	72
NMHLD	50	264	2	72
NMTAP	50	336	3
BRSTR	51	0	4
NMSCL	51	0	4	96	48	1
NMSCR	51	0	4	96	48	7
BRSTR	51	96	4
NMSF_	51	96	4	96	48	0
BRTAP	51	192	4
NMTAP	51	288	2
NMTAP	51	288	6
NMSTR	52	0	1
NMSXR	52	0	1	96	192	6
NMTAP	52	96	3
NMTAP	52	144	3
NMTAP	52	192	4
NMTAP	52	240	4
NMTAP	52	288	5
NMTAP	53	0	4
NMTAP	53	0	5
NMTAP	53	96	3
NMTAP	53	144	3
NMSTR	53	192	2
NMSI_	53	192	2	96	48	4
NMSTR	53	192	4
NMSI_	53	192	4	96	48	7
NMSTR	54	0	6
NMSXL	54	0	6	96	192	1
NMTAP	54	96	4
NMTAP	54	144	4
NMTAP	54	192	3
NMTAP	54	240	3
NMTAP	54	288	2
NMSTR	55	0	0
NMSI_	55	0	0	96	72	2
NMSTR	55	0	1
NMSI_	55	0	1	96	72	7
CNSI_	55	168	2	0	72	6
CNSI_	55	168	7	0	72	3
CNSI_	55	240	3	0	48	5
CNSI_	55	240	6	0	48	4
NMSTR	56	0	3
NMSXR	56	0	3	96	192	0
NMTAP	56	96	5
NMTAP	56	144	5
NMTAP	56	192	6
NMTAP	56	240	6
NMTAP	56	288	7
NMTAP	57	0	1
NMTAP	57	48	1
NMTAP	57	96	3
NMTAP	57	144	3
NMHLD	57	192	2	96
NMSTR	57	192	4
NMSI_	57	192	4	96	48	0
NMSTR	58	0	7
NMSXR	58	0	7	96	192	4
NMTAP	58	96	1
NMTAP	58	144	1
NMTAP	58	192	2
NMTAP	58	240	2
NMTAP	58	288	3
NMSTR	59	0	3
NMSSR	59	0	3	96	96	7
NMSTR	59	0	4
NMSSL	59	0	4	96	96	0
NMTAP	59	288	2
NMTAP	59	288	6
EXTAP	60	0	0
EXTAP	60	0	1
EXTAP	60	72	0
EXTAP	60	72	1
EXTAP	60	144	0
EXTAP	60	144	1
NMTAP	60	192	6
NMHLD	60	216	6	48
NMTAP	60	264	4
NMTAP	60	288	5
NMTAP	60	312	4
NMTAP	60	336	5
NMTAP	61	0	0
NMTAP	61	24	0
NMTAP	61	72	2
NMTAP	61	96	2
NMTAP	61	144	4
NMTAP	61	168	4
NMTAP	61	240	3
NMTAP	61	240	5
NMTAP	61	288	6
NMTAP	61	336	3
NMTAP	61	336	5
NMHLD	62	48	1	48
NMTAP	62	96	0
NMTAP	62	120	1
NMHLD	62	192	6	48
NMTAP	62	240	7
NMTAP	62	264	6
NMTAP	62	312	0
NMTAP	62	336	7
NMTAP	63	0	0
NMTAP	63	0	1
NMTAP	63	48	2
NMTAP	63	96	3
NMTAP	63	96	7
NMTAP	63	144	6
NMTAP	63	192	4
NMTAP	63	192	5
NMTAP	63	240	3
NMTAP	63	288	2
NMTAP	63	288	6
NMTAP	64	0	4
NMTAP	64	0	5
NMTAP	64	48	4
NMTAP	64	48	5
NMTAP	64	96	3
NMTAP	64	96	6
NMTAP	64	144	3
NMTAP	64	144	6
NMTAP	64	240	3
NMTAP	64	240	4
NMTAP	64	288	2
NMTAP	64	288	5
NMTAP	64	336	3
NMTAP	64	336	4
NMTAP	65	24	2
NMHLD	65	48	3	48
NMTAP	65	96	2
NMTAP	65	120	3
NMTAP	65	144	2
NMTAP	65	168	3
NMTAP	65	192	1
NMTAP	65	216	4
NMTAP	65	240	1
NMTAP	65	264	4
NMTAP	65	288	1
NMTAP	66	0	0
NMTAP	66	0	5
NMTAP	66	48	6
NMTAP	66	96	7
NMTAP	66	144	0
NMTAP	66	192	1
NMTAP	66	192	7
NMTAP	66	240	0
NMTAP	66	288	7
NMTAP	66	336	7
NMSTR	67	0	1
NMSI_	67	0	1	96	48	4
NMSTR	67	0	6
NMSI_	67	0	6	96	48	3
NMTAP	67	96	1
NMTAP	67	96	6
EXTAP	67	192	3
EXTAP	67	208	4
EXTAP	67	224	3
EXTAP	67	240	4
EXTAP	67	256	3
EXTAP	67	272	4
EXTAP	67	288	3
NMHLD	68	0	2	1440
NMTTP	68	96	1	E	0	M1
NMTTP	68	96	1	D	0	M1
NMTTP	68	288	0	E	0	M1
NMTTP	68	288	0	D	0	M1
NMTTP	69	96	1	E	0	M1
NMTTP	69	96	1	D	0	M1
NMTTP	69	288	0	E	0	M1
NMTTP	69	288	0	D	0	M1
EXTAP	70	96	0
NMTAP	70	192	1
NMTAP	70	288	1
NMTAP	71	0	3
NMTAP	71	96	3
NMTAP	71	192	4
NMTAP	71	288	4
EXTAP	72	0	2
EXTAP	72	0	4
NMTTP	72	96	1	E	0	M1
NMTTP	72	96	1	D	0	M1
NMTAP	72	96	4
NMTAP	72	192	2
NMTAP	72	192	4
NMTTP	72	288	0	E	0	M1
NMTTP	72	288	0	D	0	M1
NMTAP	72	288	4
EXTAP	73	0	3
EXTAP	73	0	5
NMTTP	73	96	1	E	0	M1
NMTTP	73	96	1	D	0	M1
NMTAP	73	96	5
NMTAP	73	192	3
NMTAP	73	192	5
NMTTP	73	288	0	E	0	M1
NMTTP	73	288	0	D	0	M1
NMTAP	73	288	5
NMTAP	74	0	6
NMTAP	74	0	7
NMTAP	74	48	6
NMTAP	74	48	7
NMTAP	74	96	0
NMTAP	74	96	5
NMTAP	74	144	0
NMTAP	74	144	5
NMTAP	74	192	1
NMTAP	74	192	4
NMTAP	74	240	1
NMTAP	74	240	4
NMTAP	74	288	2
NMTAP	74	312	3
NMTAP	74	336	2
NMTAP	74	360	3
NMSTR	75	0	2
NMSCL	75	0	2	96	192	2
NMSCR	75	0	2	96	192	2
NMSTR	76	0	4
BRSI_	76	0	4	96	48	1
BRSI_	76	0	4	96	48	7
BRTAP	76	96	4
NMHLD	76	192	0	48
NMHLD	76	192	6	48
NMHLD	76	264	2	48
NMHLD	76	264	7	48
NMTAP	76	336	1
NMTAP	76	336	5
NMTAP	77	0	6
NMTAP	77	48	6
NMTAP	77	96	5
NMTAP	77	96	7
NMTAP	77	144	5
NMTAP	77	144	7
EXTAP	77	192	0
EXSTR	77	192	6
NMSI_	77	192	6	96	48	2
EXSTR	77	264	1
NMSI_	77	264	1	96	48	4
EXTAP	77	264	6
EXTAP	77	336	1
NMTAP	78	48	1
NMTAP	78	96	0
NMTAP	78	96	7
NMTAP	78	144	6
NMTAP	78	192	5
NMTAP	78	192	7
NMTAP	78	240	4
NMSTR	78	288	3
NMSSR	78	288	3	96	144	7
NMTAP	78	288	5
NMTAP	78	336	2
NMTAP	79	0	1
NMTAP	79	48	2
NMTAP	79	96	3
NMTAP	79	144	4
BXSTR	79	192	0
NMSF_	79	192	0	96	48	4
BRTAP	79	288	0
NMSTR	80	0	2
NMSI_	80	0	2	96	48	7
NMSTR	80	0	6
NMSI_	80	0	6	96	48	3
NMTAP	80	96	2
NMTAP	80	96	6
NMHLD	80	192	0	48
NMHLD	80	192	6	48
NMHLD	80	264	2	48
NMHLD	80	264	4	48
NMTAP	80	336	1
NMTAP	80	336	5
NMTAP	81	0	0
NMTAP	81	48	0
NMTAP	81	96	1
NMTAP	81	96	7
NMTAP	81	144	1
NMTAP	81	144	7
EXSTR	81	192	0
NMSI_	81	192	0	96	48	4
EXTAP	81	192	2
EXTAP	81	264	0
EXSTR	81	264	3
NMSI_	81	264	3	96	48	6
EXTAP	81	336	3
NMTAP	82	48	7
NMTAP	82	96	6
NMTAP	82	144	5
NMTAP	82	192	1
NMTAP	82	192	3
NMTAP	82	240	2
NMTAP	82	288	4
NMTAP	82	288	6
NMTAP	82	336	5
NMSTR	83	0	0
NMSXL	83	0	0	96	96	3
NMSTR	83	0	4
NMSXL	83	0	4	96	96	7
NMTAP	83	288	1
NMTAP	83	288	5
NMTAP	84	0	0
NMSTR	84	48	0
BRSF_	84	48	0	96	48	4
BRTAP	84	144	0
NMSTR	84	240	2
NMSCL	84	240	2	96	48	7
NMSTR	84	240	6
NMSCL	84	240	6	96	48	3
NMTAP	84	336	2
NMTAP	84	336	6
NMTAP	85	48	5
NMTAP	85	96	1
NMTAP	85	96	4
NMTAP	85	144	2
NMTAP	85	192	3
NMTAP	85	192	7
NMTAP	85	240	6
NMTAP	85	288	2
NMTAP	85	288	5
NMTAP	85	336	4
NMSTR	86	0	2
NMSI_	86	0	2	96	48	6
NMSTR	86	48	4
NMSI_	86	48	4	96	48	0
NMTAP	86	96	2
NMTAP	86	144	4
NMSTR	86	192	3
NMSI_	86	192	3	96	48	7
NMSTR	86	240	5
NMSI_	86	240	5	96	48	0
NMTAP	86	288	3
NMTAP	86	336	5
NMTAP	87	48	1
NMTAP	87	96	1
NMSTR	87	144	2
NMSXL	87	144	2	96	96	0
NMTAP	87	144	7
NMTAP	87	192	2
NMHLD	87	192	7	96
NMTAP	88	0	7
NMSTR	88	48	7
BRSF_	88	48	7	96	48	3
BRTAP	88	144	7
NMSTR	88	240	1
NMSCR	88	240	1	96	48	4
NMSTR	88	240	5
NMSCR	88	240	5	96	48	0
NMTAP	88	336	1
NMTAP	88	336	5
NMTAP	89	48	7
NMTAP	89	96	2
NMTAP	89	96	6
NMTAP	89	144	1
NMTAP	89	192	0
NMTAP	89	192	7
NMTAP	89	240	6
NMTAP	89	288	5
NMTAP	89	288	7
NMTAP	89	336	4
NMSTR	90	0	3
NMSI_	90	0	3	96	48	0
NMSI_	90	0	3	96	48	6
NMTAP	90	96	3
NMTAP	90	192	1
NMHLD	90	192	7	72
NMHLD	90	264	6	72
NMTAP	90	336	5
NMTAP	91	0	2
NMTAP	91	0	3
NMTAP	91	48	2
NMTAP	91	48	3
NMTAP	91	96	4
NMTAP	91	96	5
NMTAP	91	144	4
NMTAP	91	144	5
BRSTR	91	192	2
BRSI_	91	192	2	96	48	7
BRSTR	91	192	6
BRSI_	91	192	6	96	48	3
BRTAP	91	288	2
BRSTR	91	288	6
NMSXL	91	288	6	96	288	2
EXHLD	92	0	3	576
NMTAP	93	0	2
NMTAP	93	96	2
NMSTR	93	192	2
NMSI_	93	192	2	96	48	6
NMSI_	93	192	2	96	48	7
NMTAP	94	0	0
NMTAP	94	0	5
NMTAP	94	96	5
NMTAP	94	144	5
NMTAP	94	192	3
NMTAP	94	240	3
NMSTR	94	288	5
NMSI_	94	288	5	96	48	2
NMTAP	94	312	4
NMTAP	94	360	4
NMTAP	95	0	5
NMTAP	95	96	1
NMTAP	95	144	1
NMTAP	95	192	3
NMTAP	95	240	3
NMSTR	95	288	1
NMSI_	95	288	1	96	48	4
NMTAP	95	312	2
NMTAP	95	360	2
NMTAP	96	0	1
NMTAP	96	96	6
NMTAP	96	144	6
NMTAP	96	192	4
NMTAP	96	240	4
NMSTR	96	288	6
NMSI_	96	288	6	96	48	3
NMTAP	96	312	5
NMTAP	96	360	5
NMTAP	97	0	6
EXTAP	97	96	2
EXTAP	97	96	3
NMTAP	97	144	4
NMTAP	97	192	2
NMTAP	97	192	3
NMTAP	97	240	1
NMTAP	97	288	2
NMTAP	97	288	3
NMTAP	97	336	4
NMTAP	98	0	1
NMTAP	98	0	5
NMTAP	98	96	6
NMTAP	98	120	7
NMTAP	98	144	6
NMTAP	98	168	7
NMTAP	98	192	6
NMTAP	98	240	0
EXSTR	98	288	6
NMSI_	98	288	6	96	48	2
EXTAP	98	320	7
EXTAP	98	352	7
EXTAP	99	0	6
NMTAP	99	96	1
NMTAP	99	120	0
NMTAP	99	144	1
NMTAP	99	168	0
NMTAP	99	192	1
NMTAP	99	216	0
NMTAP	99	240	1
NMTAP	99	264	0
NMSTR	99	288	2
NMSI_	99	288	2	96	48	5
NMTAP	99	312	7
NMTAP	99	336	2
NMTAP	99	360	7
NMTAP	100	0	2
NMTAP	100	96	6
NMTAP	100	120	4
NMTAP	100	144	6
NMTAP	100	168	4
NMTAP	100	192	6
NMTAP	100	240	3
EXSTR	100	288	5
NMSI_	100	288	5	96	48	3
EXTAP	100	320	4
EXTAP	100	352	4
EXTAP	101	0	5
EXTAP	101	96	2
EXTAP	101	96	3
NMTAP	101	144	4
NMTAP	101	192	2
NMTAP	101	192	3
NMTAP	101	240	1
NMSTR	101	288	2
NMSCL	101	288	2	96	48	0
NMTAP	101	288	3
NMTAP	101	336	4

T_REC_TAP	475
T_REC_BRK	10
T_REC_XTP	38
T_REC_BXX	2
T_REC_HLD	59
T_REC_XHO	2
T_REC_BHO	0
T_REC_BXH	0
T_REC_STR	78
T_REC_BST	7
T_REC_XST	6
T_REC_XBS	2
T_REC_TTP	16
T_REC_THO	0
T_REC_SLD	93
T_REC_BSL	8
T_REC_ALL	796
T_NUM_TAP	613
T_NUM_BRK	29
T_NUM_HLD	61
T_NUM_SLD	93
T_NUM_ALL	796
T_JUDGE_TAP	634
T_JUDGE_HLD	177
T_JUDGE_SLD	101
T_JUDGE_ALL	912
TTM_EACHPAIRS	122
TTM_SCR_TAP	306500
TTM_SCR_BRK	75400
TTM_SCR_HLD	61000
TTM_SCR_SLD	139500
TTM_SCR_ALL	582400
TTM_SCR_S	562150
TTM_SCR_SS	579500
TTM_RAT_ACV	10050

