VERSION	0.00.00	1.04.00
FES_MODE	0
BPM_DEF	170.000	170.000	170.000	170.000
MET_DEF	4	4
RESOLUTION	384
CLK_DEF	384
COMPATIBLE_CODE	MA2

BPM	0	0	170.000
MET	0	0	4	4

BXHLD	2	0	0	1248
NMTAP	2	0	7
NMTAP	2	96	7
NMTAP	2	192	7
NMTAP	3	0	6
NMTAP	3	96	6
NMTAP	3	192	6
NMTAP	4	0	5
NMTAP	4	96	5
NMTAP	4	192	5
NMTAP	5	0	4
NMTAP	5	96	4
NMTAP	5	192	1
NMTAP	5	192	3
NMTAP	5	288	1
NMTAP	5	288	3
NMHLD	6	0	2	96
BXHLD	6	0	4	96
NMTAP	6	192	2
NMTAP	6	192	4
NMTAP	6	288	2
NMHLD	7	0	3	96
BXHLD	7	0	5	96
NMTAP	7	192	3
NMTAP	7	192	5
NMTAP	7	288	3
NMHLD	8	0	2	96
NMHLD	8	0	6	96
NMTAP	8	192	2
NMTAP	8	192	6
NMSTR	8	288	7
NMSI_	8	288	7	96	144	3
EXTAP	9	288	2
EXTAP	9	288	5
BXHLD	10	0	3	48
BXHLD	10	0	4	48
NMTAP	10	96	3
NMTAP	10	96	4
NMTAP	10	192	3
NMTAP	10	240	3
NMTAP	10	288	2
NMHLD	11	0	2	48
NMHLD	11	0	3	48
NMTAP	11	96	2
NMTAP	11	96	3
NMTAP	11	192	4
NMTAP	11	240	4
NMTAP	11	288	5
NMHLD	12	0	4	48
NMHLD	12	0	5	48
NMTAP	12	96	4
NMTAP	12	96	5
NMTAP	12	192	3
NMTAP	12	240	3
NMTAP	12	288	2
NMHLD	13	0	2	48
NMHLD	13	0	3	48
NMTAP	13	96	2
NMTAP	13	96	3
NMTAP	13	192	4
NMTAP	13	240	4
NMTAP	13	288	3
BXHLD	14	0	3	48
BXHLD	14	0	4	48
NMTAP	14	96	3
NMTAP	14	96	4
NMTAP	14	192	4
NMTAP	14	240	4
NMTAP	14	288	5
NMHLD	15	0	4	48
NMHLD	15	0	5	48
NMTAP	15	96	4
NMTAP	15	96	5
NMTAP	15	192	3
NMTAP	15	240	3
NMTAP	15	288	2
NMHLD	16	0	2	48
NMHLD	16	0	3	48
NMTAP	16	96	2
NMTAP	16	96	3
NMTAP	16	192	4
NMTAP	16	240	4
NMTAP	16	288	5
NMHLD	17	0	4	48
NMHLD	17	0	5	48
NMTAP	17	96	4
NMTAP	17	96	5
NMTAP	17	192	6
NMTAP	17	240	6
NMSTR	17	288	7
NMSSR	17	288	7	96	288	3
EXTAP	19	0	2
EXTAP	19	0	4
EXTAP	19	48	2
EXTAP	19	48	4
EXTAP	19	96	2
EXTAP	19	96	4
BXTAP	19	192	1
BXTAP	19	192	5
NMTAP	20	0	5
NMHLD	20	48	5	528
NMTTP	20	192	4	E	0	M1
NMTTP	20	288	5	E	0	M1
NMTTP	21	0	6	E	0	M1
NMTTP	21	96	7	E	0	M1
NMTTP	21	192	0	E	0	M1
NMTAP	22	0	1
NMHLD	22	48	1	528
NMTTP	22	192	0	E	0	M1
NMTTP	22	288	1	E	0	M1
NMTTP	23	0	2	E	0	M1
NMTTP	23	96	3	E	0	M1
NMTTP	23	192	4	E	0	M1
NMTAP	24	0	2
NMTAP	24	0	3
NMTAP	24	96	2
NMTAP	24	96	3
NMTAP	24	192	3
NMTAP	24	192	4
NMSTR	24	288	4
NMSUL	24	288	4	96	192	7
NMTAP	24	288	5
NMTAP	26	0	5
NMHLD	26	48	5	144
NMTAP	26	192	4
NMTAP	26	288	3
NMTAP	26	288	4
NMTAP	27	0	2
NMHLD	27	48	2	144
NMTAP	27	192	3
NMTAP	27	288	2
NMTAP	27	288	3
NMTAP	28	0	1
NMHLD	28	48	1	144
NMTAP	28	192	0
NMTAP	28	288	0
NMTAP	28	288	1
NMSTR	29	0	7
NMSI_	29	0	7	96	96	3
NMTAP	29	192	1
NMTAP	29	288	1
NMTAP	29	288	4
NMTAP	30	0	2
NMHLD	30	48	2	432
NMTAP	30	192	3
NMTAP	30	288	3
NMTAP	31	0	1
NMTAP	31	96	1
NMTAP	31	192	0
NMTAP	31	288	7
NMTAP	32	0	0
NMTAP	32	0	6
NMTAP	32	48	0
NMHLD	32	48	6	336
NMTAP	32	192	7
NMTAP	32	288	7
NMTAP	33	0	5
NMTAP	33	96	5
EXTAP	33	192	4
EXTAP	33	192	6
NMTAP	33	288	4
NMSTR	33	288	6
NMSCR	33	288	6	96	240	4
BRTAP	35	0	4
BRTAP	35	0	5
BRTAP	35	96	2
BRTAP	35	96	3
BRTAP	35	192	1
BRTAP	35	192	5
NMSTR	36	0	0
NMSCR	36	0	0	96	144	3
NMTAP	36	288	4
NMSTR	37	0	4
NMSCR	37	0	4	96	144	7
NMTAP	37	288	0
NMSTR	38	0	0
NMSCR	38	0	0	96	144	3
NMTAP	38	288	5
NMHLD	39	0	5	96
NMTAP	39	96	4
NMTAP	39	192	3
NMTAP	39	192	6
NMTAP	40	0	1
NMTAP	40	0	4
NMTAP	40	96	1
NMTAP	40	96	4
NMTAP	40	192	2
NMTAP	40	192	3
NMTAP	40	288	5
NMTAP	41	0	3
NMTAP	41	0	6
NMTAP	41	96	3
NMTAP	41	96	6
NMTAP	41	192	4
NMTAP	41	192	5
NMTAP	41	288	3
NMTAP	42	0	2
NMTAP	42	48	2
NMTAP	42	96	4
NMTAP	42	144	4
NMTAP	42	192	3
NMTAP	42	240	3
NMTAP	42	288	5
NMTAP	42	336	5
NMHLD	43	0	0	192
NMSTR	43	192	7
NMSI_	43	192	7	96	48	3
BXTAP	44	0	2
BXTAP	44	0	4
NMTAP	44	96	1
NMTAP	44	144	0
NMTAP	44	144	1
NMTAP	44	240	6
NMTAP	44	240	7
NMTAP	44	336	4
NMTAP	44	336	5
NMTAP	45	48	2
NMTAP	45	96	2
NMTAP	45	144	3
NMHLD	45	192	1	96
NMTAP	45	288	0
BXTAP	46	0	2
BXTAP	46	0	7
NMTAP	46	96	5
NMTAP	46	144	4
NMTAP	46	144	5
NMTAP	46	240	6
NMTAP	46	240	7
NMTAP	46	336	0
NMTAP	46	336	1
NMTAP	47	48	2
NMSTR	47	96	2
NMSCR	47	96	2	96	96	5
BXTAP	48	0	6
BXTAP	48	0	7
NMTAP	48	96	5
NMTAP	48	144	4
NMTAP	48	144	5
NMTAP	48	240	2
NMTAP	48	240	3
NMTAP	48	336	0
NMTAP	48	336	1
NMTAP	49	48	6
NMTAP	49	96	6
NMTAP	49	144	7
NMHLD	49	192	5	96
NMTAP	49	288	4
BXTAP	50	0	0
BXTAP	50	0	6
BXTAP	50	96	1
BXTAP	50	96	7
EXTAP	50	192	2
EXTAP	50	192	6
EXTAP	50	288	2
EXTAP	50	288	6
BRTAP	51	0	4
BRTAP	51	0	5
BRTAP	51	96	2
BRTAP	51	96	3
BRTAP	51	192	0
BRTAP	51	192	5
NMSTR	52	0	7
NMSI_	52	0	7	96	96	4
NMSTR	52	192	3
NMSI_	52	192	3	96	96	0
NMTTP	53	0	0	E	0	M1
NMTTP	53	96	0	C	0	M1
NMTTP	53	192	3	E	0	M1
NMTTP	53	192	5	E	0	M1
NMSTR	54	0	1
NMSI_	54	0	1	96	96	4
NMSTR	54	192	5
NMSI_	54	192	5	96	96	2
NMTTP	55	0	0	C	1	M1
BXSTR	56	0	6
NMSI_	56	0	6	96	96	3
NMSTR	56	192	2
NMSI_	56	192	2	96	96	7
NMTTP	57	0	7	E	0	M1
NMTTP	57	96	0	C	0	M1
NMTTP	57	192	2	E	0	M1
NMTTP	57	192	4	E	0	M1
NMSTR	58	0	4
NMSI_	58	0	4	96	96	7
NMSTR	58	192	0
NMSI_	58	192	0	96	96	4
BXHLD	59	0	5	288
NMTAP	59	288	4
NMTAP	60	0	6
NMTAP	60	48	6
NMTAP	60	96	4
NMTAP	60	144	4
NMSTR	60	192	5
NMSI_	60	192	5	96	48	3
NMTAP	61	0	1
NMTAP	61	48	1
NMTAP	61	96	3
NMTAP	61	144	3
NMSTR	61	192	2
NMSI_	61	192	2	96	48	4
NMTAP	62	0	6
NMTAP	62	48	6
NMTAP	62	96	4
NMTAP	62	144	4
NMTAP	62	192	5
NMTAP	62	240	5
NMTAP	62	288	3
NMTAP	62	336	3
NMTAP	63	0	4
NMTAP	63	48	4
NMTAP	63	96	2
NMTAP	63	144	2
BRTAP	63	192	2
BRTAP	63	192	3
NMTAP	63	288	2
NMTAP	63	288	3
NMSTR	64	0	1
NMSCL	64	0	1	96	96	6
NMSTR	64	192	5
NMSCL	64	192	5	96	96	2
NMSTR	65	0	1
NMSCL	65	0	1	96	96	6
NMSTR	65	192	5
NMSCL	65	192	5	96	96	2
NMHLD	66	0	0	96
NMHLD	66	96	1	96
NMTAP	66	192	2
NMTAP	66	288	2
NMTAP	66	288	3
BRTAP	67	0	4
BRTAP	67	0	5
BRTAP	67	96	6
BRTAP	67	96	7
BRTAP	67	192	0
BRTAP	67	192	5
NMSTR	68	0	2
NMSCL	68	0	2	96	96	7
NMSTR	68	0	3
NMSCR	68	0	3	96	96	6
NMSTR	69	0	4
NMSCL	69	0	4	96	96	1
NMSTR	69	0	5
NMSCR	69	0	5	96	96	0
NMHLD	70	0	2	192
NMHLD	70	0	3	576
NMTAP	70	288	2
NMHLD	71	0	1	192
NMTAP	71	288	1
NMTAP	71	288	3
NMHLD	72	0	2	288
NMTAP	72	96	4
NMTAP	72	192	4
NMTAP	72	288	3
NMHLD	73	0	5	288
NMTAP	73	96	3
NMTAP	73	192	3
NMTAP	73	288	4
NMTAP	74	0	3
NMTAP	74	48	3
NMTAP	74	96	5
NMTAP	74	144	5
NMTAP	74	192	2
NMTAP	74	240	2
NMTAP	74	288	4
NMTAP	74	336	4
NMHLD	75	0	3	192
NMHLD	75	0	4	192
NMTAP	75	288	3
NMTAP	75	288	4
EXTAP	76	0	0
EXTAP	76	0	7
BRTAP	76	96	1
BRTAP	76	96	5
NMHLD	76	192	6	72
NMHLD	76	264	5	72
NMTAP	76	336	4
NMSTR	77	0	4
NMSI_	77	0	4	96	48	0
NMHLD	77	192	1	72
NMHLD	77	264	2	72
NMTAP	77	336	3
NMTAP	78	0	3
NMTAP	78	96	4
NMTAP	78	96	5
NMTAP	78	192	6
NMTAP	78	192	7
NMTAP	78	288	0
NMTAP	78	288	1
NMTAP	79	0	2
NMTAP	79	48	2
NMTAP	79	96	2
NMTAP	79	96	3
BRTAP	79	192	0
BRTAP	79	192	5
BRTAP	79	288	1
BRTAP	79	288	7
EXTAP	80	0	4
EXTAP	80	0	5
EXTAP	80	96	3
EXTAP	80	96	7
NMHLD	80	192	6	72
NMHLD	80	264	5	72
NMTAP	80	336	4
NMSTR	81	0	4
NMSI_	81	0	4	96	48	0
NMHLD	81	192	2	72
NMHLD	81	264	3	72
NMTAP	81	336	4
NMTAP	82	0	4
NMTAP	82	96	4
NMTAP	82	96	5
NMTAP	82	192	3
NMSTR	82	192	6
NMSI_	82	192	6	96	48	2
NMSTR	83	0	1
NMSCR	83	0	1	96	144	6
EXTAP	83	288	7
NMHLD	84	0	0	96
NMHLD	84	0	6	96
BXTAP	84	144	0
BXTAP	84	144	6
NMTAP	84	240	1
NMTAP	84	240	2
NMTAP	84	336	4
NMHLD	84	336	5	96
NMTAP	85	48	7
NMTAP	85	96	7
NMTAP	85	192	0
NMHLD	85	192	1	96
NMTAP	85	288	3
NMTAP	86	0	1
NMTAP	86	0	7
NMTAP	86	48	1
NMTAP	86	48	7
NMTAP	86	144	5
NMTAP	86	144	6
NMHLD	86	240	2	96
NMTAP	86	240	3
NMTAP	86	336	0
NMTAP	87	48	7
NMSTR	87	96	7
NMSI_	87	96	7	96	96	2
NMSI_	87	96	7	96	96	4
NMHLD	88	0	1	96
NMHLD	88	0	5	96
BXTAP	88	144	1
BXTAP	88	144	5
NMTAP	88	240	2
NMTAP	88	240	3
NMTAP	88	336	0
NMTAP	88	336	1
NMTAP	89	48	6
NMHLD	89	96	6	96
NMTAP	89	96	7
NMTAP	89	192	4
NMTAP	89	288	2
NMTAP	89	288	3
BRTAP	90	0	0
BRTAP	90	0	5
BRTAP	90	96	2
BRTAP	90	96	7
EXTAP	90	192	0
EXTAP	90	192	5
EXTAP	90	288	0
EXTAP	90	288	5
NMTAP	91	0	6
NMTAP	91	48	6
NMTAP	91	96	0
BRSTR	91	192	1
BRSI_	91	192	1	96	48	5
BRTAP	91	192	7
BRSTR	91	288	6
BRSCR	91	288	6	96	240	4
EXTAP	93	0	4
EXTAP	93	0	5
EXTAP	93	96	4
EXTAP	93	96	5
EXTAP	93	192	2
EXTAP	93	192	3
EXTAP	93	288	2
EXTAP	93	288	3
BXHLD	94	0	3	48
BXHLD	94	0	4	48
NMTAP	94	96	3
NMTAP	94	96	4
NMTAP	94	192	4
NMTAP	94	240	4
NMTAP	94	288	5
NMHLD	95	0	4	48
NMHLD	95	0	6	48
NMTAP	95	96	4
NMTAP	95	96	6
NMTAP	95	192	3
NMTAP	95	240	3
NMTAP	95	288	2
NMHLD	96	0	1	48
NMHLD	96	0	3	48
NMTAP	96	96	1
NMTAP	96	96	3
NMTAP	96	192	4
NMTAP	96	240	4
NMTAP	96	288	5
NMHLD	97	0	2	48
NMHLD	97	0	6	48
NMTAP	97	96	2
NMTAP	97	96	6
NMHLD	97	192	1	48
NMHLD	97	192	5	48
NMTAP	97	288	1
NMTAP	97	288	5
BXTAP	98	0	2
BXTAP	98	0	4
NMTAP	98	96	5
NMTAP	98	144	5
NMTAP	98	192	4
NMTAP	98	240	6
NMTAP	98	288	3
NMTAP	98	336	3
BXTAP	99	0	3
BXTAP	99	0	5
NMTAP	99	96	2
NMTAP	99	144	2
NMTAP	99	192	3
NMTAP	99	240	1
NMTAP	99	288	4
NMTAP	99	336	4
BXTAP	100	0	2
BXTAP	100	0	4
NMTAP	100	96	1
NMTAP	100	144	1
NMTAP	100	192	0
NMTAP	100	240	2
NMTAP	100	288	7
NMTAP	100	336	7
BXHLD	101	0	1	96
NMHLD	101	96	3	96
NMHLD	101	192	4	96
NMSTR	101	288	5
NMSI_	101	288	5	96	96	1

T_REC_TAP	288
T_REC_BRK	31
T_REC_XTP	33
T_REC_BXX	22
T_REC_HLD	62
T_REC_XHO	0
T_REC_BHO	0
T_REC_BXH	11
T_REC_STR	33
T_REC_BST	2
T_REC_XST	0
T_REC_XBS	1
T_REC_TTP	19
T_REC_THO	0
T_REC_SLD	35
T_REC_BSL	2
T_REC_ALL	539
T_NUM_TAP	373
T_NUM_BRK	69
T_NUM_HLD	62
T_NUM_SLD	35
T_NUM_ALL	539
T_JUDGE_TAP	429
T_JUDGE_HLD	209
T_JUDGE_SLD	37
T_JUDGE_ALL	675
TTM_EACHPAIRS	132
TTM_SCR_TAP	186500
TTM_SCR_BRK	179400
TTM_SCR_HLD	62000
TTM_SCR_SLD	52500
TTM_SCR_ALL	480400
TTM_SCR_S	459300
TTM_SCR_SS	473500
TTM_RAT_ACV	10145

