VERSION	0.00.00	1.04.00
FES_MODE	0
BPM_DEF	205.000	205.000	205.000	102.500
MET_DEF	4	4
RESOLUTION	384
CLK_DEF	384
COMPATIBLE_CODE	MA2

BPM	0	0	205.000
BPM	41	0	102.500
BPM	41	192	205.000
MET	0	0	4	4
MET	41	0	4	2
MET	41	192	4	4

NMTTP	2	0	2	B	0	M1
NMTTP	2	0	2	E	0	M1
NMTTP	2	0	2	A	0	M1
NMTAP	2	96	7
NMTAP	2	144	0
NMTAP	2	144	6
NMTAP	2	240	0
NMTAP	2	288	1
NMSTR	2	288	7
NMSI_	2	288	7	96	48	1
CNSI_	3	48	1	0	48	6
CNSI_	3	96	6	0	48	2
CNSI_	3	144	2	0	48	4
NMTAP	3	192	0
NMTTP	4	0	5	B	0	M1
NMTTP	4	0	5	A	0	M1
NMTTP	4	0	6	E	0	M1
NMTAP	4	96	0
NMTAP	4	144	1
NMTAP	4	144	7
NMTAP	4	240	7
NMSTR	4	288	0
NMSXL	4	288	0	96	96	1
NMTAP	4	288	6
CNSXL	5	96	1	0	96	3
CNSI_	5	192	3	0	96	5
NMTAP	5	288	7
NMTTP	6	0	5	B	0	M1
NMTTP	6	0	5	A	0	M1
NMTTP	6	0	6	E	0	M1
NMTAP	6	96	0
NMTAP	6	144	1
NMTAP	6	144	7
NMTAP	6	240	7
NMSTR	6	288	0
NMSI_	6	288	0	96	48	6
NMTAP	6	288	6
CNSI_	7	48	6	0	48	1
CNSI_	7	96	1	0	48	5
CNSI_	7	144	5	0	48	3
NMTAP	7	192	7
NMTTP	8	0	2	B	0	M1
NMTTP	8	0	2	E	0	M1
NMTTP	8	0	2	A	0	M1
NMTAP	8	96	7
NMTAP	8	144	0
NMTAP	8	144	6
NMTAP	8	240	0
NMTAP	8	288	1
NMTAP	8	288	7
NMSTR	9	0	1
NMSCL	9	0	1	96	48	7
NMSTR	9	0	6
NMSCR	9	0	6	96	48	0
CNSI_	9	144	0	0	48	3
CNSI_	9	144	7	0	48	4
CNSCR	9	192	3	0	96	5
CNSCL	9	192	4	0	96	2
NMHLD	10	0	0	96
NMTAP	10	0	6
NMTAP	10	48	6
NMTAP	10	96	6
NMTAP	10	192	1
NMHLD	10	192	3	96
NMTAP	10	240	1
NMTAP	10	288	1
NMHLD	11	0	3	96
NMTAP	11	0	5
NMTAP	11	48	5
NMTAP	11	96	5
NMTAP	11	192	2
NMTAP	11	192	4
NMTAP	11	240	1
NMTAP	11	264	3
BRTAP	11	288	0
NMTAP	12	0	1
NMTAP	12	0	4
NMTAP	12	48	1
NMTAP	12	48	4
NMTAP	12	96	2
NMTAP	12	96	5
NMTAP	12	144	2
NMTAP	12	144	5
NMTAP	12	192	3
NMTAP	12	216	4
NMTAP	12	240	5
NMTAP	12	264	6
NMSTR	12	288	7
NMSI_	12	288	7	96	48	3
NMTAP	12	312	0
NMTAP	12	336	1
NMTAP	12	360	2
NMTAP	13	0	3
BRTAP	13	0	7
BRTAP	13	288	1
NMTAP	13	288	5
NMTAP	14	0	3
NMTAP	14	0	6
NMTAP	14	48	3
NMHLD	14	48	6	48
NMSTR	14	144	4
NMSI_	14	144	4	96	48	2
NMHLD	14	144	5	48
NMHLD	14	240	5	48
NMSTR	14	336	3
NMSI_	14	336	3	96	48	5
NMHLD	14	336	6	48
NMHLD	15	48	6	48
NMSTR	15	144	4
NMSI_	15	144	4	96	48	2
NMHLD	15	144	7	48
NMHLD	15	240	7	48
NMHLD	15	336	0	48
NMSTR	15	336	3
NMSI_	15	336	3	96	48	5
NMHLD	16	48	0	48
NMSTR	16	144	4
NMSI_	16	144	4	96	48	2
NMHLD	16	144	7	48
NMHLD	16	240	7	48
NMTAP	16	336	3
NMTAP	16	336	6
NMSTR	17	0	3
NMSF_	17	0	3	96	96	7
NMTAP	17	0	6
BRTAP	17	288	0
NMTAP	18	0	3
NMTAP	18	0	5
NMTAP	18	48	2
NMTAP	18	48	6
NMTAP	18	96	1
NMHLD	18	96	7	48
NMTAP	18	192	4
NMHLD	18	192	7	48
NMTAP	18	288	2
NMHLD	18	288	7	48
NMTAP	18	336	2
NMTAP	19	0	3
NMHLD	19	0	7	48
NMTAP	19	48	3
NMTAP	19	96	2
NMHLD	19	96	7	48
NMTAP	19	144	2
NMTAP	19	192	1
NMTAP	19	192	7
NMTAP	19	240	1
NMTAP	19	264	0
NMTAP	19	288	1
NMTAP	20	0	3
NMTAP	20	0	7
NMTAP	20	96	1
NMTAP	20	96	5
NMTAP	20	144	4
NMTAP	20	192	1
NMTAP	20	192	5
NMTAP	20	240	2
NMTAP	20	288	1
NMTAP	20	288	5
NMTAP	20	320	4
NMTAP	20	352	3
NMSTR	21	0	2
NMSI_	21	0	2	96	48	5
NMTAP	21	0	5
NMSTR	21	96	7
NMSI_	21	96	7	96	48	2
NMSI_	21	96	7	96	48	4
BRTAP	21	192	7
NMTAP	22	0	2
NMTAP	22	0	4
NMTAP	22	48	1
NMTAP	22	48	5
NMHLD	22	96	0	48
NMTAP	22	96	6
NMHLD	22	192	0	48
NMTAP	22	192	3
NMHLD	22	288	0	48
NMTAP	22	288	5
NMTAP	22	336	5
NMHLD	23	0	0	48
NMTAP	23	0	4
NMTAP	23	48	4
NMHLD	23	96	0	48
NMTAP	23	96	5
NMTAP	23	144	5
NMTAP	23	192	0
NMTAP	23	192	6
NMTAP	23	240	6
NMTAP	23	264	7
NMTAP	23	288	6
NMTAP	24	0	0
NMTAP	24	0	4
NMTAP	24	96	2
NMTAP	24	96	5
NMTAP	24	128	3
NMTAP	24	160	4
NMTAP	24	192	2
NMTAP	24	192	5
NMTAP	24	256	3
NMTAP	24	288	2
NMTAP	24	288	6
NMTAP	24	352	5
NMSTR	25	0	2
NMSCR	25	0	2	96	48	5
NMTAP	25	0	6
NMTAP	25	96	2
NMHLD	25	96	6	192
NMTAP	25	240	7
BRTAP	25	288	7
NMSTR	26	0	2
NMSI_	26	0	2	96	48	7
BRTAP	26	96	6
NMSTR	26	192	5
NMSI_	26	192	5	96	48	0
NMTAP	26	240	5
BRTAP	26	288	1
NMSTR	27	0	2
NMSI_	27	0	2	96	48	7
BRTAP	27	96	6
NMSTR	27	192	5
NMSI_	27	192	5	96	48	0
NMTAP	27	240	5
BRTAP	27	288	1
NMHLD	28	0	1	48
NMHLD	28	0	7	48
NMHLD	28	72	2	48
NMHLD	28	72	6	48
NMHLD	28	144	3	48
NMHLD	28	144	5	48
NMHLD	28	216	3	48
NMHLD	28	216	5	48
NMTAP	28	288	6
NMTAP	28	336	6
NMTAP	29	0	3
NMTAP	29	0	7
NMTAP	29	48	3
NMTAP	29	48	7
NMTAP	29	96	2
NMTAP	29	96	6
NMTAP	29	144	2
NMTAP	29	144	6
NMSTR	29	192	1
NMSI_	29	192	1	96	48	6
NMSTR	29	192	5
NMSI_	29	192	5	96	48	2
NMSTR	30	0	0
NMSCR	30	0	0	96	48	3
NMSTR	30	0	3
NMSCL	30	0	3	96	48	0
NMSTR	30	192	4
NMSCR	30	192	4	96	48	7
NMSTR	30	192	7
NMSCL	30	192	7	96	48	4
NMSTR	31	0	1
NMSI_	31	0	1	96	48	6
NMSTR	31	0	6
NMSI_	31	0	6	96	48	1
NMTTP	31	192	3	B	0	M1
NMTTP	31	192	3	E	0	M1
NMTTP	31	192	4	B	0	M1
NMTTP	31	192	5	E	0	M1
NMTAP	32	0	1
NMTAP	32	0	6
NMTAP	32	48	2
NMTAP	32	48	5
NMTAP	32	96	3
NMTAP	32	96	4
NMTTP	32	192	0	E	0	M1
NMTAP	32	192	5
NMTTP	32	288	0	B	0	M1
NMTAP	32	288	4
NMTAP	32	336	4
NMTTP	33	0	0	E	0	M1
NMTAP	33	48	4
NMTTP	33	96	0	B	0	M1
NMTAP	33	96	4
NMTTP	33	192	0	E	0	M1
NMTAP	33	192	3
NMTTP	33	288	0	B	0	M1
NMTAP	33	288	4
NMTAP	33	336	4
NMTTP	34	0	0	E	0	M1
NMTAP	34	0	4
NMTTP	34	96	0	B	0	M1
NMTAP	34	96	4
NMTTP	34	192	0	E	0	M1
NMTAP	34	192	5
NMTTP	34	288	0	B	0	M1
NMTAP	34	288	4
NMTAP	34	336	4
NMTTP	35	0	0	E	0	M1
NMTAP	35	0	4
NMTTP	35	96	6	D	0	M1
NMTTP	35	112	6	E	0	M1
NMTTP	35	128	5	B	0	M1
NMTTP	35	144	0	C	0	M1
NMTTP	35	160	1	B	0	M1
NMTTP	35	176	2	E	0	M1
NMTTP	35	192	2	D	0	M1
BRTAP	35	288	0
NMTAP	36	0	1
NMTAP	36	0	7
NMTAP	36	48	2
NMTAP	36	48	6
NMTAP	36	96	3
NMTAP	36	96	5
NMTTP	36	192	0	E	0	M1
NMTAP	36	192	2
NMTAP	36	288	3
NMTTP	36	288	7	B	0	M1
NMTAP	36	336	3
NMTTP	37	0	0	E	0	M1
NMTAP	37	48	3
NMTAP	37	96	3
NMTTP	37	96	7	B	0	M1
NMTTP	37	192	0	E	0	M1
NMTAP	37	192	4
EXTAP	37	288	3
EXTAP	37	288	5
NMTAP	38	0	2
NMTAP	38	0	6
NMTAP	38	32	3
NMTAP	38	64	4
NMTAP	38	96	2
NMTAP	38	96	5
NMTAP	38	160	3
NMTAP	38	192	2
NMTAP	38	192	6
NMTAP	38	256	5
NMTAP	38	288	2
NMTAP	38	288	6
NMSTR	39	0	1
NMSV_	39	0	1	96	48	4
NMSTR	39	0	7
NMSV_	39	0	7	96	48	4
NMTAP	39	96	1
NMTAP	39	96	7
NMSTR	40	0	1
NMSI_	40	0	1	96	48	3
NMSTR	40	0	6
NMSI_	40	0	6	96	48	4
NMSTR	40	192	1
NMSI_	40	192	1	96	48	3
NMSTR	40	192	6
NMSI_	40	192	6	96	48	4
NMTAP	41	0	2
NMTAP	41	0	5
NMSTR	41	48	1
NMSI_	41	48	1	96	24	3
NMSTR	41	48	6
NMSI_	41	48	6	96	24	4
BRHLD	41	96	0	0
BRHLD	41	96	7	0
NMSTR	41	192	7
NMSI_	41	192	7	96	96	4
NMSTR	41	288	4
NMSI_	41	288	4	96	96	7
NMSTR	42	0	7
NMSI_	42	0	7	96	96	2
NMSTR	42	96	2
NMSI_	42	96	2	96	96	7
NMSTR	42	192	7
NMSCL	42	192	7	96	96	3
NMSTR	42	288	3
NMSCR	42	288	3	96	96	7
NMTAP	43	0	7
NMTAP	43	96	3
NMSTR	43	192	0
NMSI_	43	192	0	96	96	3
NMSTR	43	288	3
NMSI_	43	288	3	96	96	0
NMSTR	44	0	0
NMSI_	44	0	0	96	96	5
NMSTR	44	96	5
NMSI_	44	96	5	96	96	0
NMSTR	44	192	0
NMSCR	44	192	0	96	96	4
NMSTR	44	288	4
NMSCL	44	288	4	96	96	0
NMTAP	45	0	0
NMTAP	45	96	4
NMSTR	45	192	5
NMSI_	45	192	5	96	48	7
NMTAP	45	288	4
NMTAP	46	0	3
NMSTR	46	0	5
NMSI_	46	0	5	96	48	0
NMTAP	46	96	4
NMSTR	46	192	2
NMSI_	46	192	2	96	48	0
NMTAP	46	192	4
NMTAP	46	288	3
NMSTR	47	0	2
NMSI_	47	0	2	96	48	7
NMTAP	47	0	4
NMTAP	47	96	3
NMHLD	47	192	4	48
NMHLD	47	192	6	48
NMHLD	47	264	4	48
NMHLD	47	264	5	48
NMHLD	47	336	1	48
NMHLD	47	336	3	48
NMHLD	48	24	2	48
NMHLD	48	24	3	48
NMTAP	48	96	0
NMTAP	48	120	6
NMTAP	48	144	0
NMTAP	48	168	6
NMHLD	48	192	1	48
NMHLD	48	240	2	48
NMHLD	48	288	3	48
NMHLD	48	336	4	48
NMHLD	49	0	5	48
NMTAP	49	48	6
BRTAP	49	96	0
NMTAP	49	96	4
NMSTR	49	192	5
NMSI_	49	192	5	96	96	0
NMTAP	49	240	5
NMSTR	49	288	0
NMSI_	49	288	0	96	96	5
NMSTR	50	0	5
NMSI_	50	0	5	96	96	2
NMSTR	50	96	2
NMSI_	50	96	2	96	96	5
NMSTR	50	192	5
NMSCR	50	192	5	96	96	1
NMSTR	50	288	1
NMSCL	50	288	1	96	96	5
NMTAP	50	336	2
NMTAP	51	0	3
EXTAP	51	96	0
NMSTR	51	192	2
NMSI_	51	192	2	96	96	7
NMTAP	51	240	2
NMSTR	51	288	7
NMSI_	51	288	7	96	96	2
NMSTR	52	0	2
NMSI_	52	0	2	96	96	5
NMSTR	52	96	5
NMSI_	52	96	5	96	96	2
NMTAP	52	192	2
NMSTR	52	288	0
NMSI_	52	288	0	96	48	4
NMTAP	52	336	7
BRTAP	53	0	6
NMTAP	53	96	5
NMTAP	53	120	4
NMTAP	53	144	5
NMTAP	53	168	4
NMTAP	53	192	5
NMSTR	53	240	3
NMSI_	53	240	3	96	48	0
NMSTR	53	240	6
NMSI_	53	240	6	96	48	0
NMTAP	53	336	3
NMTAP	53	336	6
NMSTR	54	48	1
NMSI_	54	48	1	96	48	7
NMSTR	54	48	4
NMSI_	54	48	4	96	48	7
NMTAP	54	144	1
NMTAP	54	144	4
NMSTR	54	240	0
NMSI_	54	240	0	96	48	4
NMSTR	54	240	1
NMSI_	54	240	1	96	48	5
NMTAP	54	288	2
NMTAP	54	288	7
NMTAP	54	336	0
NMTAP	54	336	1
NMTAP	55	48	2
NMTAP	55	48	7
NMTAP	55	96	2
NMTAP	55	96	7
NMTAP	55	192	1
NMTAP	55	216	0
NMTAP	55	240	1
NMTAP	55	264	7
NMTAP	55	288	1
NMTAP	55	312	6
NMTAP	55	336	0
NMTAP	55	360	5
NMTAP	56	0	0
NMTAP	56	24	4
NMTAP	56	48	0
NMTAP	56	72	3
BRTAP	56	96	7
NMTAP	56	192	0
NMTAP	56	192	4
NMTAP	56	240	0
NMTAP	56	240	4
NMTAP	56	288	1
NMTAP	56	288	5
NMTAP	56	336	1
NMTAP	56	336	5
NMSTR	57	0	2
NMSI_	57	0	2	96	48	5
NMSTR	57	0	6
NMSI_	57	0	6	96	48	1
NMTAP	57	48	2
NMTAP	57	48	6
NMTAP	57	96	2
NMTAP	57	96	6
NMTTP	57	192	0	C	1	M1
BRSTR	57	192	7
NMSCL	57	192	7	96	1056	0
NMTHO	60	192	0	192	C	0	M1
NMHLD	61	192	0	288
NMSTR	61	192	7
NMSCL	61	192	7	96	864	0
NMTTP	62	288	1	B	0	M1
NMTTP	63	0	2	B	0	M1
NMTTP	63	96	3	B	0	M1
NMTTP	63	192	4	B	0	M1
NMTTP	63	288	5	B	0	M1
NMTTP	64	0	0	C	0	M1
NMTAP	64	96	7
BRSTR	64	192	1
NMSCL	64	192	1	96	48	7
BRSTR	64	192	6
NMSCR	64	192	6	96	48	0
CNSI_	64	336	0	0	48	3
CNSI_	64	336	7	0	48	4
CNSCR	65	0	3	0	96	5
CNSCL	65	0	4	0	96	2
NMHLD	65	192	0	96
NMHLD	65	192	6	96
NMHLD	65	336	1	96
NMHLD	65	336	4	96
NMSTR	66	96	2
NMSXL	66	96	2	96	144	1
NMHLD	66	96	7	384
NMTAP	67	48	0
NMTAP	67	96	0
NMHLD	67	192	1	96
NMHLD	67	192	4	96
NMHLD	67	336	3	96
NMHLD	67	336	6	96
NMHLD	68	96	0	384
NMSTR	68	96	5
NMSXR	68	96	5	96	144	6
NMTAP	69	48	7
NMTAP	69	96	7
NMTAP	69	192	3
NMTAP	69	192	4
NMTAP	69	288	2
NMTAP	69	288	5
NMTAP	69	336	3
NMTAP	70	0	2
NMTAP	70	0	5
NMTAP	70	48	4
NMTAP	70	96	3
NMTAP	70	120	5
NMTAP	70	144	3
NMTAP	70	168	5
NMSTR	70	192	4
NMSI_	70	192	4	96	48	0
NMTAP	70	288	7
NMTAP	70	336	6
BXHLD	71	0	1	96
BRHLD	71	0	5	96
NMTAP	71	192	0
NMTAP	71	192	7
NMSTR	71	288	3
NMSI_	71	288	3	96	48	0
NMSTR	71	288	4
NMSI_	71	288	4	96	48	7
BRTAP	72	192	0
BRTAP	72	288	1
BRTAP	73	0	2
NMTAP	73	96	3
BRTAP	73	96	7
NMTAP	73	192	6
NMTAP	73	224	6
NMTAP	73	256	6
NMHLD	73	288	0	64
NMTAP	73	352	3
NMTAP	74	0	2
NMTAP	74	32	2
NMTAP	74	64	2
BRTAP	74	96	7
NMTAP	74	192	1
NMTAP	74	224	1
NMTAP	74	256	1
NMHLD	74	288	7	64
NMTAP	74	352	4
NMTAP	75	0	5
NMTAP	75	32	5
NMTAP	75	64	5
BRTAP	75	96	0
NMTAP	75	192	6
NMTAP	75	224	6
NMTAP	75	256	6
NMHLD	75	288	0	64
NMTAP	75	288	5
NMTAP	75	352	3
NMTAP	76	0	2
NMTAP	76	32	2
NMTAP	76	64	2
NMTAP	76	96	3
BRTAP	76	96	7
NMTAP	76	192	1
NMTAP	76	224	1
NMTAP	76	256	1
NMTAP	76	288	2
NMHLD	76	288	7	64
NMTAP	76	352	4
NMTAP	77	0	5
NMTAP	77	32	5
NMTAP	77	64	5
BRTAP	77	96	0
NMTAP	77	96	4
NMTAP	77	192	6
NMTAP	77	224	4
NMTAP	77	256	5
BRTAP	77	288	1
NMTAP	77	320	3
NMTAP	77	352	2
NMTAP	78	0	7
NMTAP	78	32	4
NMTAP	78	64	6
BRTAP	78	96	0
NMTAP	78	128	3
NMTAP	78	160	1
NMTAP	78	192	7
NMTAP	78	224	7
NMTAP	78	256	7
BRTAP	78	288	1
NMTAP	78	320	1
NMTAP	78	352	1
NMTAP	79	0	5
NMTAP	79	32	5
NMTAP	79	64	5
BRTAP	79	96	3
NMTAP	79	128	3
NMTAP	79	160	3
NMTAP	79	192	3
NMHLD	79	192	4	192
NMSTR	80	0	2
BRSI_	80	0	2	96	48	5
NMSTR	80	96	5
NMSI_	80	96	5	96	144	1
CNSI_	80	144	5	0	192	2
NMTAP	81	0	7
BRTAP	81	96	0
NMTAP	81	96	5
NMTAP	81	192	1
NMTAP	81	192	7
NMSTR	81	240	0
NMSCL	81	240	0	96	48	5
NMTAP	81	288	6
NMTAP	81	336	0
NMSTR	81	336	4
NMSI_	81	336	4	96	48	7
NMSTR	82	48	1
NMSI_	82	48	1	96	48	4
NMSI_	82	48	1	96	48	5
NMTAP	82	144	1
NMSTR	82	240	6
NMSCR	82	240	6	96	96	3
NMTAP	82	288	0
NMTAP	82	336	0
NMTAP	83	96	1
NMTAP	83	96	5
NMTAP	83	192	0
NMTAP	83	192	6
NMSTR	83	240	7
NMSCR	83	240	7	96	48	2
NMTAP	83	288	1
NMSTR	83	336	3
NMSI_	83	336	3	96	48	0
NMTAP	83	336	7
NMSTR	84	48	6
NMSI_	84	48	6	96	48	2
NMSI_	84	48	6	96	48	3
NMTAP	84	144	6
NMSTR	84	240	1
NMSCL	84	240	1	96	96	4
NMTAP	84	288	7
NMTAP	84	336	7
NMTAP	85	96	2
NMTAP	85	96	6
NMTAP	85	192	1
NMTAP	85	192	7
NMSTR	85	240	0
NMSCL	85	240	0	96	48	5
NMTAP	85	288	6
NMTAP	85	336	0
NMSTR	85	336	4
NMSI_	85	336	4	96	48	7
NMSTR	86	48	1
NMSI_	86	48	1	96	48	4
NMSI_	86	48	1	96	48	5
NMTAP	86	144	1
NMSTR	86	240	6
NMSCR	86	240	6	96	96	3
NMTAP	86	288	0
NMTAP	86	336	0
NMTAP	87	96	1
NMTAP	87	96	5
NMTAP	87	192	3
NMTAP	87	192	7
NMTAP	87	240	6
NMTAP	87	288	1
NMTAP	87	288	5
NMTAP	87	336	2
NMTAP	88	0	3
NMTAP	88	0	6
NMTAP	88	48	7
NMTAP	88	96	4
NMTAP	88	96	6
NMTAP	88	144	7
NMTAP	88	192	2
NMTAP	88	192	6
NMTAP	88	240	1
NMTAP	88	240	5
NMSTR	88	288	0
NMSI_	88	288	0	96	48	3
NMSTR	88	288	4
NMSI_	88	288	4	96	48	7
NMTAP	89	0	0
NMTAP	89	0	4
EXTAP	89	96	7
NMTAP	89	120	6
NMTAP	89	144	5
NMTAP	89	168	4
BRTAP	89	192	0
NMTAP	89	192	3
NMSTR	90	96	0
NMSLL	90	96	0	96	48	4
NMSTR	90	96	1
NMSLL	90	96	1	96	48	5
BRSTR	90	144	4
NMSLL	90	144	4	96	48	0
BRSTR	90	144	5
NMSLL	90	144	5	96	48	1
NMTAP	91	0	7
BRTAP	91	48	0
BRTAP	91	48	6
NMTAP	91	192	3
NMSTR	91	192	7
NMSI_	91	192	7	96	48	3
NMTAP	91	240	3
NMTAP	91	288	2
NMSTR	91	336	2
NMSI_	91	336	2	96	48	7
NMSTR	92	48	4
NMSI_	92	48	4	96	48	0
NMSTR	92	144	3
NMSI_	92	144	3	96	48	1
NMTAP	92	240	3
NMSTR	92	288	7
NMSI_	92	288	7	96	48	3
NMTAP	92	336	6
NMSTR	93	0	5
NMSI_	93	0	5	96	48	0
NMTAP	93	96	1
NMTAP	93	96	5
NMSTR	93	192	4
NMSI_	93	192	4	96	48	1
NMTAP	93	192	7
NMTAP	93	240	4
NMTAP	93	288	6
NMSTR	93	336	6
NMSI_	93	336	6	96	48	3
NMSTR	94	48	0
NMSI_	94	48	0	96	48	3
NMHLD	94	144	7	96
NMSTR	94	240	4
NMSUL	94	240	4	96	96	3
NMTAP	94	264	3
NMTAP	94	288	2
NMTAP	94	336	0
BRTAP	95	96	0
NMSTR	95	192	5
NMSI_	95	192	5	96	48	7
NMSTR	95	240	4
NMSI_	95	240	4	96	48	2
NMTAP	95	288	5
NMTAP	95	336	4
NMSTR	96	0	0
NMSI_	96	0	0	96	48	6
NMSTR	96	48	1
NMSI_	96	48	1	96	48	3
NMTAP	96	96	0
NMTAP	96	144	1
EXSTR	96	192	5
NMSI_	96	192	5	96	48	3
EXTAP	96	240	5
NMTAP	96	288	1
NMTAP	96	336	1
CNSI_	96	336	3	0	48	6
CNSI_	97	0	6	0	48	2
BRTAP	97	48	0
BRTAP	97	96	0
NMTAP	97	192	1
NMTAP	97	192	7
NMTAP	97	240	1
NMSTR	97	240	7
NMSI_	97	240	7	96	48	5
NMSTR	97	336	3
NMSV_	97	336	3	96	48	6
CNSCL	98	0	5	0	48	3
NMSTR	98	48	1
NMSI_	98	48	1	96	48	5
NMTAP	98	144	1
NMTAP	98	192	7
NMTAP	98	240	7
NMTAP	98	288	4
NMTAP	98	288	7
NMTAP	98	336	3
NMTAP	99	0	2
NMTAP	99	0	6
NMTAP	99	48	1
NMTAP	99	72	4
NMTAP	99	96	1
NMTAP	99	144	7
NMTAP	99	168	3
NMTAP	99	192	7
NMSTR	99	240	0
NMSI_	99	240	0	96	48	2
NMTAP	99	240	6
NMSTR	99	336	4
NMSV_	99	336	4	96	48	1
CNSCR	100	0	2	0	48	4
NMSTR	100	48	6
NMSI_	100	48	6	96	48	2
NMTAP	100	144	6
NMTAP	100	192	0
NMTAP	100	240	0
NMTAP	100	288	0
NMTAP	100	288	3
NMTAP	100	336	4
NMTAP	101	0	1
NMTAP	101	0	5
NMTAP	101	48	6
NMTAP	101	72	3
NMTAP	101	96	6
NMTAP	101	144	0
NMTAP	101	168	4
NMTAP	101	192	0
NMTAP	101	240	1
NMSTR	101	240	7
NMSI_	101	240	7	96	48	5
NMSTR	101	336	3
NMSV_	101	336	3	96	48	6
CNSCL	102	0	5	0	48	3
NMTAP	102	48	7
NMTAP	102	72	0
NMTAP	102	96	1
NMTAP	102	120	2
NMTAP	102	144	3
NMTAP	102	168	4
NMTAP	102	192	5
NMSTR	102	240	7
NMSI_	102	240	7	96	48	3
NMTAP	102	288	5
NMTAP	102	336	7
NMSTR	103	0	0
NMSI_	103	0	0	96	48	3
NMSI_	103	0	0	96	48	5
NMTAP	103	48	1
NMTAP	103	96	0
NMTAP	103	192	2
NMTAP	103	192	6
NMTAP	103	240	2
NMTAP	103	240	6
NMTAP	103	288	5
NMTAP	103	312	3
NMTAP	103	336	5
NMTAP	104	0	1
NMTAP	104	0	4
NMTAP	104	48	1
NMTAP	104	48	4
NMTAP	104	96	2
NMTAP	104	120	3
NMTAP	104	144	2
BRHLD	104	192	0	24
BRSTR	104	192	4
NMSLR	104	192	4	96	96	3
NMHLD	104	264	3	24
NMHLD	104	336	2	24
CNSLR	105	0	3	0	144	0
NMSTR	105	24	1
NMSI_	105	24	1	96	24	5
BRTAP	105	96	1
NMTAP	105	192	3
BRTAP	105	192	7
NMSTR	105	288	2
NMSI_	105	288	2	96	48	0
NMSTR	105	288	5
NMSI_	105	288	5	96	48	7
NMTAP	106	0	2
NMTAP	106	0	5
BXTAP	106	96	0
BXTAP	106	96	7
NMTAP	106	144	1
NMTAP	106	168	4
NMSTR	106	192	1
NMSI_	106	192	1	96	48	5
NMTAP	106	240	6
NMTAP	106	288	7
NMTAP	106	336	0
NMTAP	107	0	7
NMTAP	107	48	6
NMTAP	107	96	2
NMTAP	107	96	4
NMTAP	107	144	3
NMTAP	107	168	5
NMTAP	107	192	3
NMTAP	107	240	2
NMSTR	107	240	6
NMSI_	107	240	6	96	48	3
NMTAP	107	288	7
NMSTR	107	336	1
NMSI_	107	336	1	96	48	4
NMTAP	108	0	0
NMTAP	108	48	7
NMTAP	108	96	6
NMTAP	108	144	5
NMSTR	108	192	1
NMSV_	108	192	1	96	48	4
NMTAP	108	192	4
NMTAP	108	240	2
NMSTR	108	288	6
NMSCL	108	288	6	96	48	3
NMTAP	108	336	7
NMTAP	109	0	2
NMTAP	109	0	6
NMTAP	109	24	1
NMTAP	109	48	0
NMTAP	109	72	7
NMTAP	109	96	2
NMTAP	109	120	1
NMTAP	109	144	0
NMTAP	109	168	7
NMTAP	109	192	2
NMSTR	109	192	6
NMSV_	109	192	6	96	48	3
NMSTR	109	288	1
NMSCR	109	288	1	96	48	4
NMTAP	109	336	0
NMTAP	110	0	1
NMTAP	110	0	5
NMTAP	110	24	6
NMTAP	110	48	7
NMTAP	110	72	0
NMTAP	110	96	5
NMTAP	110	120	6
NMTAP	110	144	7
NMTAP	110	168	0
NMTAP	110	192	1
NMSTR	110	192	5
NMSLR	110	192	5	96	96	3
NMTAP	110	288	0
BRTAP	110	336	0
NMTAP	111	48	2
NMTAP	111	48	6
NMTAP	111	96	2
NMTAP	111	96	6
NMTAP	111	192	1
NMTAP	111	192	5
NMTAP	111	240	0
NMTAP	111	264	4
NMTAP	111	288	1
NMTAP	111	312	5
NMTAP	111	336	2
NMTAP	111	360	6
NMTAP	112	0	3
NMTAP	112	24	7
NMTAP	112	48	4
NMTAP	112	72	0
NMSTR	112	96	5
NMSCL	112	96	5	96	96	1
NMSTR	112	120	1
BRSCL	112	120	1	96	72	5
NMTAP	112	144	5
NMTAP	112	168	1
BRTAP	112	192	5
CNSLL	112	288	1	0	96	2
CNSLL	112	288	5	0	96	6
BRTAP	113	96	1
BRTAP	113	96	5
NMTAP	113	192	0
NMTAP	113	192	7
NMTAP	113	240	1
NMTAP	113	240	6
NMTAP	113	288	2
NMSTR	113	288	5
NMSI_	113	288	5	96	48	3
NMSTR	114	0	1
NMSI_	114	0	1	96	48	5
NMSTR	114	96	7
NMSI_	114	96	7	96	48	1
NMSTR	114	192	0
NMSI_	114	192	0	96	48	6
NMSTR	114	288	4
NMSI_	114	288	4	96	48	2
NMSTR	115	0	1
NMSI_	115	0	1	96	48	5
NMSTR	115	96	6
NMSI_	115	96	6	96	48	4
NMSTR	115	192	0
NMSI_	115	192	0	96	48	2
NMSTR	115	288	7
NMSI_	115	288	7	96	48	3
NMSTR	116	0	0
NMSI_	116	0	0	96	48	4
NMTAP	116	96	4
NMTAP	116	192	3
NMTAP	116	192	5
NMTAP	116	256	2
NMTAP	116	256	6
NMTAP	116	288	2
NMTAP	116	288	6
NMTAP	116	352	1
NMTAP	116	352	5
NMTAP	117	0	1
NMTAP	117	0	5
NMTAP	117	32	1
NMTAP	117	32	5
NMTAP	117	64	1
NMTAP	117	64	5
BRTAP	117	96	1
BRTAP	117	96	5
BRTAP	117	192	0
NMTAP	117	192	4
BRTAP	117	240	1
NMTAP	117	240	5
BRTAP	117	288	2
NMTAP	117	288	6
BRTAP	117	336	3
NMTAP	117	336	7
BRTAP	118	0	0
NMTAP	118	0	7
BRTAP	118	48	1
NMTAP	118	48	6
BRTAP	118	96	2
NMTAP	118	96	5
BRTAP	118	144	3
NMTAP	118	144	4
BRTAP	118	192	0
NMTAP	118	192	4
BRTAP	118	240	1
NMTAP	118	240	5
BRTAP	118	288	2
NMTAP	118	288	6
BRTAP	118	336	3
NMTAP	118	336	7
BRTAP	119	0	0
NMTAP	119	0	7
BRTAP	119	48	1
NMTAP	119	48	6
BRTAP	119	96	2
NMTAP	119	96	5
BRTAP	119	144	3
NMTAP	119	144	4
BRTAP	119	192	0
NMTAP	119	208	1
NMTAP	119	224	2
NMTAP	119	240	3
NMTAP	119	256	4
NMTAP	119	272	5
BRTAP	119	288	7
EXTAP	119	304	6
EXTAP	119	320	5
NMTAP	119	336	4
NMTAP	119	352	3
NMTAP	119	368	2
BRTAP	120	0	0
NMTAP	120	16	7
NMTAP	120	32	6
NMTAP	120	48	5
NMTAP	120	64	4
NMTAP	120	80	3
BRSTR	120	96	1
NMSI_	120	96	1	96	48	4
NMTAP	120	112	0
NMTAP	120	128	7
NMTAP	120	144	6
NMTAP	120	160	5
NMTAP	120	176	4
BRTAP	120	192	1
NMTAP	120	192	3
CNSLL	120	240	4	0	48	6
NMSTR	121	0	7
BRSI_	121	0	7	96	24	3
NMTAP	121	16	0
NMTAP	121	32	1
NMTAP	121	48	2
NMTAP	121	64	3
NMTAP	121	80	4
NMSTR	121	96	7
BRSF_	121	96	7	96	24	3
BRTAP	121	192	7

T_REC_TAP	574
T_REC_BRK	62
T_REC_XTP	7
T_REC_BXX	2
T_REC_HLD	65
T_REC_XHO	0
T_REC_BHO	4
T_REC_BXH	1
T_REC_STR	143
T_REC_BST	7
T_REC_XST	1
T_REC_XBS	0
T_REC_TTP	46
T_REC_THO	1
T_REC_SLD	152
T_REC_BSL	4
T_REC_ALL	1069
T_NUM_TAP	771
T_NUM_BRK	80
T_NUM_HLD	66
T_NUM_SLD	152
T_NUM_ALL	1069
T_JUDGE_TAP	842
T_JUDGE_HLD	117
T_JUDGE_SLD	156
T_JUDGE_ALL	1115
TTM_EACHPAIRS	210
TTM_SCR_TAP	385500
TTM_SCR_BRK	208000
TTM_SCR_HLD	66000
TTM_SCR_SLD	228000
TTM_SCR_ALL	887500
TTM_SCR_S	853150
TTM_SCR_SS	879500
TTM_RAT_ACV	10090

