VERSION	0.00.00	1.04.00
FES_MODE	0
BPM_DEF	205.000	205.000	205.000	205.000
MET_DEF	4	4
RESOLUTION	384
CLK_DEF	384
COMPATIBLE_CODE	MA2

BPM	0	0	205.000
MET	0	0	4	4

EXHLD	2	0	3	96
NMTAP	2	144	2
NMTAP	2	144	4
NMTAP	2	240	1
NMTAP	2	240	5
NMTAP	2	288	1
NMSTR	2	288	5
NMSUL	2	288	5	96	288	3
NMHLD	4	0	2	96
NMTAP	4	144	1
NMTAP	4	144	3
NMTAP	4	240	2
NMTAP	4	240	4
NMTAP	4	288	2
NMTAP	4	288	4
NMTTP	5	0	6	E	0	M1
NMTTP	5	96	5	E	0	M1
NMTTP	5	192	4	E	0	M1
NMTTP	5	288	3	E	0	M1
EXHLD	6	0	4	96
NMTAP	6	144	3
NMTAP	6	144	5
NMTAP	6	240	2
NMTAP	6	240	6
NMSTR	6	288	2
NMSUR	6	288	2	96	288	4
NMTAP	6	288	6
NMHLD	8	0	5	96
NMTAP	8	144	4
NMTAP	8	144	6
NMTAP	8	240	3
NMTAP	8	240	7
NMSTR	8	288	3
BRSI_	8	288	3	96	48	0
NMSTR	8	288	7
BRSI_	8	288	7	96	48	4
NMTAP	10	0	2
NMTAP	10	0	3
NMTAP	10	96	3
NMTAP	10	96	4
NMTAP	10	192	5
NMTAP	10	240	5
NMTAP	10	288	4
NMTAP	11	0	3
NMTAP	11	0	6
NMTAP	11	96	1
NMTAP	11	96	4
NMTAP	11	192	2
NMTAP	11	240	2
NMTAP	11	288	3
NMHLD	12	0	4	48
NMHLD	12	0	6	48
NMHLD	12	96	1	48
NMHLD	12	96	3	48
NMTAP	12	192	0
NMTAP	12	192	7
NMTAP	12	240	0
NMTAP	12	240	7
NMTAP	12	288	0
NMTAP	12	288	7
NMTAP	12	336	0
NMTAP	12	336	7
BRSTR	13	0	0
NMSCL	13	0	0	96	48	6
BRTAP	13	0	7
CNSI_	13	144	6	0	96	2
CNSCR	13	240	2	0	48	4
EXTAP	14	0	3
EXTAP	14	0	4
NMHLD	14	96	5	48
NMTAP	14	144	4
NMHLD	14	192	5	48
NMTAP	14	240	4
NMHLD	14	288	5	48
NMTAP	14	336	4
NMHLD	15	0	5	48
NMTAP	15	48	4
NMHLD	15	96	5	48
NMTAP	15	144	4
NMHLD	15	192	5	48
NMTAP	15	240	4
EXTAP	15	288	3
EXTAP	15	288	6
EXTAP	15	336	3
EXTAP	15	336	6
EXTAP	16	0	3
EXTAP	16	0	6
NMHLD	16	96	2	48
NMTAP	16	144	3
NMHLD	16	192	2	48
NMTAP	16	240	3
NMHLD	16	288	2	48
NMTAP	16	336	3
EXSTR	17	0	1
NMSCR	17	0	1	96	144	7
EXTAP	17	0	4
BRTAP	17	288	0
NMTAP	18	0	1
NMTAP	18	0	7
NMTAP	18	48	1
NMTAP	18	48	7
NMTAP	18	96	1
NMTAP	18	96	7
NMSTR	18	192	3
NMSI_	18	192	3	96	48	1
NMTAP	18	192	4
NMTAP	18	288	5
NMSTR	19	0	6
NMSI_	19	0	6	96	48	3
NMTAP	19	96	2
NMSTR	19	192	0
NMSI_	19	192	0	96	48	4
NMTAP	19	288	5
EXTAP	20	0	6
EXTAP	20	0	7
NMTAP	20	96	0
NMTAP	20	144	0
NMSTR	20	192	7
NMSSR	20	192	7	96	96	3
NMTTP	21	0	1	A	0	M1
NMTTP	21	0	2	E	0	M1
NMTTP	21	96	5	A	0	M1
NMTTP	21	96	6	E	0	M1
NMTTP	21	192	0	C	0	M1
NMTTP	21	192	3	B	0	M1
NMTTP	21	192	3	A	0	M1
NMTTP	21	192	7	B	0	M1
NMTTP	21	192	7	A	0	M1
NMTAP	22	0	2
NMTAP	22	0	4
NMTAP	22	48	2
NMTAP	22	48	4
EXTAP	22	96	1
EXTAP	22	96	5
NMHLD	22	192	2	48
NMTAP	22	240	3
NMHLD	22	288	2	48
NMTAP	22	336	3
NMHLD	23	0	2	48
NMTAP	23	48	3
NMHLD	23	96	2	48
NMTAP	23	144	3
NMHLD	23	192	2	48
NMTAP	23	240	3
EXTAP	23	288	1
EXTAP	23	288	4
EXTAP	23	336	1
EXTAP	23	336	4
EXTAP	24	0	1
EXTAP	24	0	4
NMTAP	24	96	4
NMTAP	24	144	3
NMSTR	24	192	6
NMSI_	24	192	6	96	48	2
NMTAP	25	0	1
NMTAP	25	48	1
NMTAP	25	96	3
NMTAP	25	192	4
NMTAP	25	192	5
BRTAP	25	288	1
BRTAP	25	288	7
NMTAP	26	0	2
NMTAP	26	0	6
NMTAP	26	48	2
NMTAP	26	48	6
NMTAP	26	96	3
NMTAP	26	96	5
NMTAP	26	192	1
NMTAP	26	192	6
NMTAP	26	240	1
NMTAP	26	240	6
NMTAP	26	288	2
NMTAP	26	288	5
NMTAP	27	0	0
NMTAP	27	0	6
NMTAP	27	48	0
NMTAP	27	48	6
NMTAP	27	96	1
NMTAP	27	96	5
NMTAP	27	192	6
NMTAP	27	192	7
NMTAP	27	240	6
NMTAP	27	240	7
NMTAP	27	288	0
NMTAP	27	288	5
NMHLD	28	0	1	72
NMHLD	28	72	2	72
NMHLD	28	144	4	72
NMHLD	28	216	5	72
NMSTR	28	288	7
NMSCL	28	288	7	96	192	0
NMTAP	29	288	3
NMTAP	29	288	4
NMHLD	30	0	5	96
NMHLD	30	0	6	96
NMHLD	30	192	3	96
NMHLD	30	192	7	96
NMHLD	31	0	1	96
NMHLD	31	0	2	96
NMSTR	31	192	0
BRSI_	31	192	0	96	48	2
NMSTR	31	192	4
BRSI_	31	192	4	96	48	6
EXTAP	32	0	3
EXTAP	32	0	7
NMTAP	32	96	3
NMHLD	32	96	7	1056
NMTTP	32	192	3	E	0	M1
NMTTP	32	288	4	E	0	M1
NMTTP	33	0	2	E	0	M1
NMTTP	33	96	5	E	0	M1
NMTTP	33	192	1	E	0	M1
NMTTP	33	288	6	E	0	M1
NMTTP	34	0	2	E	0	M1
NMTTP	34	96	5	E	0	M1
NMTTP	34	192	3	E	0	M1
NMTTP	34	288	4	E	0	M1
NMSTR	35	0	1
NMSUR	35	0	1	96	144	4
EXTAP	35	288	7
NMTAP	36	0	1
NMTAP	36	0	5
NMHLD	36	96	1	96
NMTAP	36	96	5
NMHLD	36	192	2	96
NMHLD	36	288	3	96
NMHLD	37	0	4	96
NMHLD	37	96	5	96
NMHLD	37	192	6	96
NMHLD	37	288	7	96
NMTAP	38	0	0
NMSTR	38	96	1
NMSI_	38	96	1	96	48	7
NMSTR	38	192	5
NMSI_	38	192	5	96	48	3
NMTHO	39	0	0	96	C	1	M1
NMHLD	40	0	1	64
NMHLD	40	0	3	64
NMTAP	40	96	1
NMTAP	40	96	3
NMHLD	40	192	4	64
NMHLD	40	192	6	64
NMTAP	40	288	4
NMTAP	40	288	6
NMHLD	41	0	0	64
NMHLD	41	0	7	64
NMHLD	41	96	1	64
NMHLD	41	96	6	64
NMSTR	41	192	0
NMSI_	41	192	0	96	48	2
NMSTR	41	192	7
NMSI_	41	192	7	96	48	5
NMTAP	42	0	3
NMTAP	42	96	4
NMTAP	42	192	2
NMTAP	42	192	3
NMTAP	42	288	2
NMTAP	42	288	3
NMTAP	43	0	2
NMTAP	43	0	3
NMTAP	43	96	1
NMTAP	43	192	2
NMTAP	43	288	1
NMTAP	43	288	3
NMTAP	44	0	4
NMTAP	44	96	3
NMTAP	44	192	4
NMTAP	44	192	5
NMTAP	44	288	4
NMTAP	44	288	5
NMTAP	45	0	4
NMTAP	45	0	5
NMTAP	45	96	6
NMTAP	45	192	5
NMTAP	45	288	4
NMTAP	45	288	6
NMHLD	46	0	3	96
NMTAP	46	96	4
NMHLD	46	192	5	96
NMTAP	46	288	4
NMHLD	47	0	2	96
NMTAP	47	96	3
NMHLD	47	192	6	96
NMTAP	47	288	4
NMHLD	48	0	1	96
NMTAP	48	96	3
NMHLD	48	192	7	96
NMTAP	48	288	0
NMTAP	49	0	1
NMTAP	49	0	6
NMTAP	49	96	2
NMTAP	49	96	5
NMSTR	49	192	3
NMSCL	49	192	3	96	48	1
NMSTR	49	192	4
NMSCR	49	192	4	96	48	6
NMTAP	50	0	0
NMTAP	50	48	0
NMTAP	50	96	1
NMTAP	50	96	7
NMTAP	50	192	2
NMTAP	50	240	2
NMTAP	50	288	3
NMTAP	51	0	5
NMTAP	51	48	5
NMSTR	51	96	4
NMSI_	51	96	4	96	48	2
NMSTR	51	192	6
NMSI_	51	192	6	96	48	4
NMTAP	52	0	2
NMTAP	52	48	2
NMTAP	52	96	1
NMTAP	52	96	3
NMTAP	52	192	5
NMTAP	52	240	5
NMTAP	52	288	4
NMTAP	53	0	2
NMTAP	53	48	2
NMSTR	53	96	3
NMSI_	53	96	3	96	48	7
EXTAP	53	288	0
EXTAP	53	288	6
NMHLD	54	0	2	48
NMHLD	54	0	3	48
EXTAP	54	96	0
NMHLD	54	192	1	48
NMHLD	54	192	3	48
EXTAP	54	288	7
NMHLD	55	0	2	48
NMHLD	55	0	3	48
EXTAP	55	96	0
NMHLD	55	192	1	48
NMHLD	55	192	3	48
EXTAP	55	288	7
NMTAP	56	0	6
NMTAP	56	48	4
NMTAP	56	96	5
NMTAP	56	144	2
NMTAP	56	192	3
NMTAP	56	240	1
NMSTR	56	288	0
NMSI_	56	288	0	96	96	4
NMSTR	56	288	1
NMSLR	56	288	1	96	168	7
CNSI_	57	96	4	0	72	6
NMTAP	57	288	1
NMTAP	57	288	5
NMTTP	58	0	0	C	1	M1
NMTTP	58	0	3	B	0	M1
NMTTP	58	0	3	A	0	M1
NMTTP	58	0	7	B	0	M1
NMTTP	58	0	7	A	0	M1
NMHLD	60	0	1	144
NMHLD	60	144	2	144
NMTAP	60	288	3
NMTAP	61	0	5
NMTAP	61	96	5
NMTAP	61	192	4
NMTAP	61	288	4
NMHLD	62	0	6	144
NMHLD	62	144	5	144
NMTAP	62	288	4
NMTAP	63	0	2
NMTAP	63	96	2
NMTAP	63	192	3
NMTAP	63	288	3
NMHLD	64	0	2	96
NMHLD	64	0	4	96
NMHLD	64	144	3	96
NMHLD	64	144	5	96
NMSTR	64	288	2
NMSI_	64	288	2	96	48	5
NMTAP	64	288	4
NMTAP	65	192	3
NMTAP	65	192	4
BRTAP	65	288	0
BRTAP	65	288	7
NMTAP	66	0	1
NMTAP	66	48	1
NMTAP	66	96	1
NMTAP	66	144	0
NMTAP	66	144	2
NMTAP	66	240	3
NMTAP	66	240	7
NMTAP	66	336	4
NMSTR	66	336	6
NMSCL	66	336	6	96	72	3
NMHLD	67	192	1	48
NMHLD	67	192	2	48
NMTAP	67	288	0
NMTAP	67	288	3
NMTAP	68	0	6
NMTAP	68	48	6
NMTAP	68	96	6
NMTAP	68	144	5
NMTAP	68	144	7
NMTAP	68	240	0
NMTAP	68	240	4
NMSTR	68	336	1
NMSCR	68	336	1	96	96	4
NMTAP	68	336	3
NMHLD	69	192	5	48
NMHLD	69	192	6	48
NMTAP	69	288	4
NMTAP	69	288	7
NMSTR	70	0	3
NMSI_	70	0	3	96	48	1
NMTAP	70	96	5
NMSTR	70	192	4
NMSI_	70	192	4	96	48	0
NMTAP	70	288	2
NMSTR	71	0	3
NMSI_	71	0	3	96	48	1
NMTAP	71	96	5
BRSTR	71	192	4
NMSI_	71	192	4	96	48	0
NMTAP	71	288	2
NMHLD	72	0	3	96
NMTAP	72	96	7
NMSTR	72	192	1
NMSI_	72	192	1	96	48	3
NMSTR	72	192	5
NMSI_	72	192	5	96	48	7
BRTAP	73	0	0
BRTAP	73	96	1
BRTAP	73	192	2
BRTAP	73	288	3
BRTAP	73	288	7
NMTAP	74	0	6
NMTAP	74	32	0
NMTAP	74	64	6
NMTAP	74	96	0
NMTAP	74	192	5
NMTAP	74	224	4
NMTAP	74	256	5
NMTAP	74	288	4
NMTAP	75	0	2
NMTAP	75	32	3
NMTAP	75	64	2
NMTAP	75	96	3
NMTAP	75	192	1
NMTAP	75	224	7
NMTAP	75	256	1
NMTAP	75	288	7
NMTAP	76	0	6
NMTAP	76	32	4
NMTAP	76	64	6
NMTAP	76	96	4
NMTAP	76	192	1
NMTAP	76	224	3
NMTAP	76	256	1
NMTAP	76	288	3
NMTAP	77	0	6
NMTAP	77	32	7
NMTAP	77	64	6
NMTAP	77	96	7
NMTAP	77	192	1
NMTAP	77	224	0
NMTAP	77	256	1
NMTAP	77	288	0
NMHLD	78	0	4	64
NMHLD	78	0	5	64
NMHLD	78	96	2	64
NMHLD	78	96	3	64
NMHLD	78	192	4	64
NMHLD	78	192	6	64
NMHLD	78	288	1	64
NMHLD	78	288	3	64
NMHLD	79	0	6	64
NMHLD	79	0	7	64
NMHLD	79	96	0	64
NMHLD	79	96	1	64
NMSTR	79	192	7
NMSI_	79	192	7	96	48	3
NMSTR	79	288	2
NMSCL	79	288	2	96	288	4
EXSTR	80	288	3
NMSF_	80	288	3	96	96	7
NMSTR	81	192	1
NMSI_	81	192	1	96	48	5
BRTAP	81	288	7
EXTAP	82	0	0
EXTAP	82	0	6
NMTAP	82	96	1
NMTAP	82	96	7
NMTAP	82	144	1
NMSTR	82	144	7
NMSI_	82	144	7	96	48	3
NMSTR	82	240	0
NMSI_	82	240	0	96	48	2
NMSTR	82	336	7
NMSI_	82	336	7	96	48	5
NMSTR	83	48	0
NMSI_	83	48	0	96	48	4
NMTAP	83	144	7
NMTAP	83	240	3
NMTAP	83	240	6
NMTAP	83	288	3
NMTAP	83	288	6
NMTAP	84	0	1
NMTAP	84	48	1
NMTAP	84	96	0
NMTAP	84	144	1
NMTAP	84	240	3
NMTAP	84	240	4
NMTAP	84	336	6
NMTAP	84	336	7
NMTAP	85	48	5
NMTAP	85	96	5
NMTAP	85	144	4
NMSTR	85	192	6
NMSCL	85	192	6	96	48	3
NMTAP	85	288	2
NMTAP	86	0	1
NMTAP	86	48	1
NMTAP	86	96	0
NMSTR	86	144	2
NMSI_	86	144	2	96	48	4
NMSTR	86	240	6
NMSI_	86	240	6	96	48	0
NMSTR	86	336	1
NMSI_	86	336	1	96	48	5
NMSTR	87	48	4
NMSCL	87	48	4	96	168	6
NMTAP	88	0	1
NMTAP	88	48	3
NMTAP	88	96	2
NMTAP	88	144	6
NMTAP	88	192	4
NMTAP	88	240	5
NMTAP	88	288	3
NMTAP	88	336	3
NMTAP	89	0	5
NMTAP	89	48	5
NMTAP	89	96	1
NMTAP	89	144	1
NMSTR	89	192	0
NMSI_	89	192	0	96	48	4
NMSTR	89	192	7
NMSI_	89	192	7	96	48	3
BXHLD	90	0	1	336
BXHLD	90	0	6	336
NMTAP	91	48	3
NMTAP	91	48	4
NMTAP	91	96	3
NMTAP	91	96	4
NMTAP	91	192	2
NMSTR	91	192	5
NMSCL	91	192	5	96	48	2
NMTAP	91	288	0
NMTAP	92	0	1
NMTAP	92	48	1
NMTAP	92	96	1
NMTAP	92	144	0
NMTAP	92	144	2
NMTAP	92	240	3
NMTAP	92	240	4
NMTAP	92	336	5
NMTAP	92	336	7
NMTAP	93	48	1
NMTAP	93	96	1
NMTAP	93	144	0
NMSTR	93	192	2
NMSCR	93	192	2	96	48	5
NMTAP	93	288	7
NMTAP	94	0	6
NMTAP	94	48	6
NMTAP	94	96	6
NMTAP	94	144	5
NMTAP	94	144	7
NMTAP	94	240	0
NMTAP	94	240	2
NMTAP	94	336	3
NMTAP	94	336	4
NMTAP	95	48	0
NMTAP	95	48	7
NMTAP	95	96	1
NMTAP	95	96	6
NMHLD	95	144	2	96
NMHLD	95	144	5	96
EXTAP	95	288	2
EXTAP	95	288	5
NMTAP	96	0	6
NMTAP	96	48	7
NMTAP	96	96	6
NMTAP	96	144	1
NMTAP	96	192	0
NMTAP	96	240	1
NMTAP	96	288	7
NMTAP	96	336	7
NMTAP	97	0	1
NMTAP	97	48	1
NMTAP	97	96	5
NMTAP	97	144	5
NMHLD	97	192	3	48
NMHLD	97	192	4	48
EXTAP	97	288	1
EXTAP	97	288	6
NMTAP	98	0	0
NMTAP	98	48	1
NMTAP	98	96	2
NMSTR	98	144	3
NMSI_	98	144	3	96	48	7
NMSTR	98	144	4
NMSI_	98	144	4	96	48	6
NMSTR	98	336	0
NMSI_	98	336	0	96	48	4
NMSTR	98	336	1
NMSI_	98	336	1	96	48	3
NMHLD	99	144	6	96
NMHLD	99	144	7	96
NMTAP	99	288	0
NMTAP	99	288	5
NMTAP	100	0	7
NMTAP	100	48	6
NMTAP	100	96	5
NMSTR	100	144	3
NMSI_	100	144	3	96	48	1
NMSTR	100	144	4
NMSI_	100	144	4	96	48	0
NMSTR	100	336	6
NMSI_	100	336	6	96	48	4
NMSTR	100	336	7
NMSI_	100	336	7	96	48	3
NMHLD	101	144	0	96
NMHLD	101	144	1	96
NMTAP	101	288	2
NMTAP	101	288	7
NMTAP	102	0	0
NMTAP	102	48	7
NMTAP	102	96	6
NMHLD	102	144	5	96
NMTAP	102	240	4
NMTAP	102	288	3
NMTAP	102	288	6
NMTAP	103	0	7
NMTAP	103	48	0
NMTAP	103	96	1
NMHLD	103	144	2	96
NMTAP	103	240	3
NMTAP	103	288	1
NMTAP	103	288	4
NMTAP	104	0	0
NMTAP	104	48	7
NMTAP	104	96	6
NMSTR	104	144	4
NMSI_	104	144	4	96	48	0
NMSTR	104	144	5
NMSI_	104	144	5	96	48	7
NMSTR	104	336	2
NMSI_	104	336	2	96	48	0
NMSTR	104	336	3
NMSI_	104	336	3	96	48	7
NMSTR	105	144	6
NMSCL	105	144	6	96	144	1
NMTAP	106	0	0
NMHLD	106	96	0	48
NMHLD	106	96	7	48
NMTAP	106	192	3
NMTAP	106	192	4
BRTAP	106	288	1
BRTAP	106	288	6
NMTAP	107	0	2
NMTAP	107	48	2
NMTAP	107	96	1
NMTAP	107	96	3
NMTAP	107	192	5
NMTAP	107	240	5
NMTAP	107	288	4
NMTAP	107	288	6
NMTAP	108	0	0
NMTAP	108	48	0
NMTAP	108	96	7
NMSTR	108	144	7
NMSI_	108	144	7	96	48	3
NMSTR	108	240	0
NMSI_	108	240	0	96	48	4
NMSTR	108	336	7
NMSCL	108	336	7	96	48	4
NMSTR	109	48	0
NMSCR	109	48	0	96	48	3
NMTAP	109	144	7
NMTAP	109	240	5
NMTAP	109	288	4
NMTAP	109	288	6
NMTAP	110	0	2
NMTAP	110	48	2
EXTAP	110	96	1
EXTAP	110	96	3
NMTAP	110	192	6
NMTAP	110	192	7
NMTAP	110	240	6
NMTAP	110	240	7
EXTAP	110	288	0
EXTAP	110	288	5
NMTAP	111	0	0
NMTAP	111	0	1
NMTAP	111	48	0
NMTAP	111	48	1
EXTAP	111	96	2
EXTAP	111	96	7
NMTAP	111	192	0
NMTAP	111	192	7
NMTAP	111	240	0
NMTAP	111	240	7
BRTAP	111	288	1
BRTAP	111	288	6
NMTAP	112	0	2
NMTAP	112	48	3
NMTAP	112	96	1
NMTAP	112	144	5
NMTAP	112	192	4
NMTAP	112	240	6
EXTAP	112	288	0
EXTAP	112	288	7
NMSTR	113	0	6
NMSI_	113	0	6	96	48	2
NMTAP	113	48	6
NMSTR	113	96	1
NMSI_	113	96	1	96	48	5
NMTAP	113	144	1
NMTAP	113	192	7
BRTAP	113	288	0
BRTAP	113	288	6
EXTAP	114	0	2
EXTAP	114	0	4
EXTAP	114	48	2
EXTAP	114	48	4
EXTAP	114	96	2
EXTAP	114	96	4
NMHLD	114	192	3	48
NMHLD	114	192	5	48
NMHLD	114	288	2	48
NMHLD	114	288	4	48
NMHLD	115	0	3	48
NMHLD	115	0	5	48
NMHLD	115	96	2	48
NMHLD	115	96	4	48
NMHLD	115	192	3	48
NMHLD	115	192	6	48
NMHLD	115	288	1	48
NMHLD	115	288	4	48
NMHLD	116	0	3	48
NMHLD	116	0	6	48
NMHLD	116	96	1	48
NMHLD	116	96	4	48
NMHLD	116	192	2	48
NMHLD	116	192	6	48
NMHLD	116	288	1	48
NMHLD	116	288	5	48
NMSTR	117	0	3
NMSI_	117	0	3	96	72	0
NMSTR	117	0	7
NMSI_	117	0	7	96	72	4
CNSI_	117	168	0	0	48	2
CNSI_	117	168	4	0	48	6
BRTAP	117	288	3
BRTAP	117	288	7
EXTAP	118	0	0
NMTAP	118	48	1
NMTAP	118	96	2
NMTAP	118	144	3
EXTAP	118	192	0
NMTAP	118	240	1
NMTAP	118	288	2
NMTAP	118	336	3
EXTAP	119	0	0
NMTAP	119	48	1
NMTAP	119	96	2
NMTAP	119	144	3
EXTAP	119	192	0
NMTAP	119	240	1
NMTAP	119	288	2
NMTAP	119	336	3
EXTAP	120	0	2
EXTAP	120	48	3
EXTAP	120	96	2
NMTAP	120	96	4
EXTAP	120	144	3
EXTAP	120	192	2
NMTAP	120	192	5
EXTAP	120	240	3
EXTAP	120	288	2
NMTAP	120	288	6
EXTAP	120	336	3
EXSTR	121	0	7
NMSI_	121	0	7	96	48	3
NMTAP	121	192	2
NMTAP	121	192	4
NMSTR	121	288	0
NMSI_	121	288	0	96	48	4
NMTAP	121	288	6
BRTAP	122	0	0
BRTAP	122	0	7

T_REC_TAP	407
T_REC_BRK	22
T_REC_XTP	60
T_REC_HLD	117
T_REC_XHO	4
T_REC_STR	70
T_REC_BST	2
T_REC_XST	3
T_REC_TTP	28
T_REC_THO	1
T_REC_SLD	75
T_REC_ALL	789
T_NUM_TAP	568
T_NUM_BRK	24
T_NUM_HLD	122
T_NUM_SLD	75
T_NUM_ALL	789
T_JUDGE_TAP	592
T_JUDGE_HLD	224
T_JUDGE_SLD	75
T_JUDGE_ALL	891
TTM_EACHPAIRS	187
TTM_SCR_TAP	284000
TTM_SCR_BRK	62400
TTM_SCR_HLD	122000
TTM_SCR_SLD	112500
TTM_SCR_ALL	580900
TTM_SCR_S	561150
TTM_SCR_SS	578500
TTM_RAT_ACV	10041

