VERSION	0.00.00	1.04.00
FES_MODE	0
BPM_DEF	205.000	205.000	205.000	205.000
MET_DEF	4	4
RESOLUTION	384
CLK_DEF	384
COMPATIBLE_CODE	MA2

BPM	0	0	205.000
MET	0	0	4	4

NMHLD	2	0	1	384
NMTAP	3	0	0
NMHLD	4	0	2	384
NMTAP	5	0	3
NMHLD	6	0	5	384
NMTAP	7	0	4
NMHLD	8	0	6	384
NMTAP	9	0	7
NMTAP	10	0	5
NMTAP	10	192	5
NMTAP	11	0	4
NMTAP	11	192	4
NMTAP	12	0	3
NMTAP	12	192	3
BRTAP	13	0	2
BRTAP	13	0	3
NMTAP	14	0	1
NMTAP	14	96	1
NMTAP	14	192	1
NMTAP	15	0	2
NMTAP	15	96	2
NMTAP	15	192	2
NMTAP	16	0	3
NMTAP	16	96	3
NMTAP	16	192	3
NMHLD	17	0	4	192
NMHLD	17	0	5	192
NMTAP	18	0	6
NMTAP	18	96	6
NMTAP	18	192	6
NMTAP	19	0	5
NMTAP	19	96	5
NMTAP	19	192	5
NMTAP	20	0	4
NMTAP	20	96	4
NMTAP	20	192	4
EXTAP	21	0	2
EXTAP	21	0	3
EXTAP	21	192	2
EXTAP	21	192	3
NMTAP	22	0	2
NMTAP	22	96	2
NMTAP	22	192	2
NMTAP	23	0	3
NMTAP	23	96	3
NMTAP	23	192	3
NMTAP	24	0	4
NMTAP	24	96	4
NMTAP	24	192	4
NMTAP	25	0	5
NMTAP	25	96	5
NMTAP	25	192	5
NMTAP	26	0	6
NMTAP	26	0	7
NMTAP	26	192	6
NMTAP	26	192	7
NMTAP	27	0	0
NMTAP	27	0	1
NMTAP	27	192	0
NMTAP	27	192	1
NMTAP	28	0	6
NMTAP	28	96	6
NMTAP	28	192	6
NMTAP	28	192	7
NMTAP	29	0	1
NMTAP	29	96	1
NMTAP	29	192	0
NMTAP	29	192	1
NMSTR	30	0	7
NMSSR	30	0	7	96	480	3
NMTTP	32	0	1	B	0	L1
NMTTP	32	96	2	B	0	L1
NMTTP	32	192	3	B	0	L1
NMTTP	33	0	6	B	0	L1
NMTTP	33	96	5	B	0	L1
NMTTP	33	192	4	B	0	L1
NMTTP	34	0	1	E	0	L1
NMTTP	34	96	2	E	0	L1
NMTTP	34	192	3	E	0	L1
NMTTP	34	288	4	E	0	L1
NMTTP	35	0	5	E	0	L1
NMTTP	35	0	6	E	0	L1
NMTTP	36	0	6	B	0	L1
NMTTP	36	96	5	B	0	L1
NMTTP	36	192	4	B	0	L1
NMTTP	37	0	1	B	0	L1
NMTTP	37	96	2	B	0	L1
NMTTP	37	192	3	B	0	L1
NMTTP	38	0	7	E	0	L1
NMTTP	38	96	6	E	0	L1
NMTTP	38	192	5	E	0	L1
NMTTP	38	288	4	E	0	L1
NMTTP	39	0	2	E	0	L1
NMTTP	39	0	3	E	0	L1
NMTTP	40	0	0	C	1	L1
NMHLD	42	0	1	192
NMHLD	42	192	2	192
NMHLD	43	0	3	192
NMHLD	43	192	4	192
NMHLD	44	0	5	192
NMHLD	44	192	6	192
NMTAP	45	0	7
NMHLD	46	0	6	192
NMHLD	46	192	5	192
NMHLD	47	0	4	192
NMHLD	47	192	3	192
NMHLD	48	0	2	192
NMHLD	48	192	1	192
NMTAP	49	0	0
NMHLD	50	0	1	192
NMTAP	50	192	0
NMHLD	51	0	2	192
NMTAP	51	192	3
NMHLD	52	0	5	192
NMTAP	52	192	4
NMHLD	53	0	6	192
NMTAP	53	192	7
NMTAP	54	0	6
NMTAP	54	0	7
NMTAP	54	96	6
NMTAP	54	96	7
NMTAP	54	192	6
NMTAP	54	192	7
NMTAP	55	0	4
NMTAP	55	0	5
NMTAP	55	96	4
NMTAP	55	96	5
NMTAP	55	192	4
NMTAP	55	192	5
NMTAP	56	0	2
NMTAP	56	0	3
NMTAP	56	96	2
NMTAP	56	96	3
NMTAP	56	192	2
NMTAP	56	192	3
EXTAP	57	0	0
EXTAP	57	0	1
EXTAP	57	96	0
EXTAP	57	96	1
EXTAP	57	192	0
EXTAP	57	192	1
NMSTR	58	0	0
NMSCL	58	0	0	96	288	5
NMSTR	58	0	1
NMSCR	58	0	1	96	288	4
NMSTR	60	0	6
NMSCL	60	0	6	96	288	3
NMSTR	60	0	7
NMSCR	60	0	7	96	288	2
NMSTR	62	0	0
NMSCL	62	0	0	96	288	5
NMSTR	62	0	1
NMSCR	62	0	1	96	288	4
NMSTR	64	0	6
NMSCL	64	0	6	96	288	3
NMSTR	64	0	7
NMSCR	64	0	7	96	288	2
EXTAP	66	0	2
EXTAP	66	0	4
EXTAP	66	144	2
EXTAP	66	144	4
EXHLD	66	288	2	288
EXHLD	66	288	4	288
EXTAP	68	0	3
EXTAP	68	0	5
EXTAP	68	144	3
EXTAP	68	144	5
EXHLD	68	288	3	288
EXHLD	68	288	5	288
EXTAP	70	0	2
EXTAP	70	0	4
EXTAP	70	144	2
EXTAP	70	144	4
EXHLD	70	288	2	288
EXHLD	70	288	4	288
EXTAP	72	0	3
EXTAP	72	0	5
BRTAP	73	0	6
BRTAP	73	96	6
BRTAP	73	192	6
BRTAP	73	288	6
EXTAP	74	0	6
EXTAP	74	0	7
EXTAP	74	192	6
EXTAP	74	240	6
EXTAP	74	288	6
EXTAP	75	0	4
EXTAP	75	0	5
EXTAP	75	192	4
EXTAP	75	240	4
EXTAP	75	288	4
EXTAP	76	0	2
EXTAP	76	0	3
EXTAP	76	192	2
EXTAP	76	240	2
EXTAP	76	288	2
EXTAP	77	0	0
EXTAP	77	0	1
EXTAP	77	192	1
EXTAP	77	240	1
EXTAP	77	288	1
NMTAP	78	0	0
NMTAP	78	0	1
BXTAP	78	96	0
BXTAP	78	96	1
NMTAP	78	192	2
NMTAP	78	192	3
BXTAP	78	288	2
BXTAP	78	288	3
NMTAP	79	0	4
NMTAP	79	0	5
BXTAP	79	96	4
BXTAP	79	96	5
NMTAP	79	192	6
NMTAP	79	192	7
BXTAP	79	288	6
BXTAP	79	288	7
NMHLD	80	0	0	384
NMHLD	80	0	7	384
BRTAP	81	192	0
BRTAP	81	192	7
NMTAP	82	0	1
NMTAP	82	96	1
NMTAP	82	192	2
NMTAP	82	192	3
NMTAP	82	288	2
NMTAP	82	288	3
NMTAP	83	0	4
NMTAP	83	96	4
NMTAP	83	192	4
NMTAP	83	192	5
NMTAP	84	0	6
NMTAP	84	96	6
NMTAP	84	192	4
NMTAP	84	192	5
NMTAP	84	288	4
NMTAP	84	288	5
NMTAP	85	0	3
NMTAP	85	96	3
NMTAP	85	192	2
NMTAP	85	192	3
NMTAP	86	0	1
NMTAP	86	96	1
NMTAP	86	192	2
NMTAP	86	192	3
NMTAP	86	288	2
NMTAP	86	288	3
NMTAP	87	0	4
NMTAP	87	96	4
NMTAP	87	192	4
NMTAP	87	192	5
NMTAP	88	0	6
NMTAP	88	96	6
NMTAP	88	192	4
NMTAP	88	192	5
NMTAP	88	288	4
NMTAP	88	288	5
NMTAP	89	0	3
NMTAP	89	96	3
NMTAP	89	192	2
NMTAP	89	192	3
NMSTR	90	0	0
NMSI_	90	0	0	96	288	5
NMSTR	90	0	1
NMSI_	90	0	1	96	288	4
NMTAP	92	0	5
NMTAP	92	96	5
NMTAP	92	192	6
NMTAP	92	192	7
NMTAP	92	288	6
NMTAP	92	288	7
NMTAP	93	0	0
NMTAP	93	96	0
NMTAP	93	192	0
NMTAP	93	192	1
NMTAP	94	0	2
NMTAP	94	96	2
NMTAP	94	192	0
NMTAP	94	192	1
NMTAP	94	288	0
NMTAP	94	288	1
NMTAP	95	0	7
NMTAP	95	96	7
NMTAP	95	192	6
NMTAP	95	192	7
NMTAP	96	0	5
NMTAP	96	96	5
NMTAP	96	192	6
NMTAP	96	192	7
NMTAP	96	288	6
NMTAP	96	288	7
NMTAP	97	0	0
NMTAP	97	96	0
BRTAP	97	192	0
BRTAP	97	192	7
NMTAP	98	0	6
NMTAP	98	96	6
NMTAP	98	192	4
NMTAP	98	192	5
NMTAP	98	288	4
NMTAP	98	288	5
NMTAP	99	0	3
NMTAP	99	48	3
NMTAP	99	96	3
NMTAP	99	192	2
NMTAP	99	192	3
NMTAP	100	0	1
NMTAP	100	96	1
NMTAP	100	192	2
NMTAP	100	192	3
NMTAP	100	288	2
NMTAP	100	288	3
NMTAP	101	0	4
NMTAP	101	48	4
NMTAP	101	96	4
NMTAP	101	192	4
NMTAP	101	192	5
NMTAP	102	0	6
NMTAP	102	96	6
NMTAP	102	192	4
NMTAP	102	192	5
NMTAP	102	288	4
NMTAP	102	288	5
NMTAP	103	0	3
NMTAP	103	48	3
NMTAP	103	96	3
NMTAP	103	192	2
NMTAP	103	192	3
NMTAP	104	0	1
NMTAP	104	96	1
NMTAP	104	192	2
NMTAP	104	192	3
NMTAP	104	288	2
NMTAP	104	288	3
NMTAP	105	0	4
NMTAP	105	48	4
NMTAP	105	96	4
NMTAP	105	192	4
NMTAP	105	192	5
NMSTR	106	0	6
NMSI_	106	0	6	96	288	3
NMSTR	106	0	7
NMSI_	106	0	7	96	288	2
NMTAP	108	0	2
NMTAP	108	48	2
NMTAP	108	96	2
NMTAP	108	192	0
NMTAP	108	192	1
NMTAP	108	288	0
NMTAP	108	288	1
NMTAP	109	0	7
NMTAP	109	48	7
NMTAP	109	96	7
NMTAP	109	192	6
NMTAP	109	192	7
NMTAP	110	0	5
NMTAP	110	48	5
NMTAP	110	96	5
NMTAP	110	192	6
NMTAP	110	192	7
NMTAP	110	288	6
NMTAP	110	288	7
NMTAP	111	0	0
NMTAP	111	48	0
NMTAP	111	96	0
NMTAP	111	192	0
NMTAP	111	192	1
NMTAP	112	0	2
NMTAP	112	48	2
NMTAP	112	96	2
NMTAP	112	192	0
NMTAP	112	192	1
NMTAP	112	288	0
NMTAP	112	288	1
NMTAP	113	0	7
NMTAP	113	48	7
NMTAP	113	96	7
BRTAP	113	192	6
BRTAP	113	192	7
EXTAP	114	0	0
EXTAP	114	48	0
EXTAP	114	96	0
NMTAP	114	192	1
NMTAP	114	240	1
NMTAP	114	288	1
NMTAP	115	0	2
NMTAP	115	48	2
NMTAP	115	96	2
NMTAP	115	192	3
NMTAP	115	240	3
NMTAP	115	288	3
NMTAP	116	0	4
NMTAP	116	48	4
NMTAP	116	96	4
NMTAP	116	192	5
NMTAP	116	240	5
NMTAP	116	288	5
NMTAP	117	0	6
NMTAP	117	48	6
NMTAP	117	96	6
EXTAP	117	192	0
EXTAP	117	192	7
EXTAP	118	0	7
EXTAP	118	48	7
EXTAP	118	96	7
NMTAP	118	192	6
NMTAP	118	240	6
NMTAP	118	288	6
NMTAP	119	0	5
NMTAP	119	48	5
NMTAP	119	96	5
NMTAP	119	192	4
NMTAP	119	240	4
NMTAP	119	288	4
NMTAP	120	0	3
NMTAP	120	48	3
NMTAP	120	96	3
NMTAP	120	192	2
NMTAP	120	240	2
NMTAP	120	288	2
NMTAP	121	0	1
NMTAP	121	48	1
NMTAP	121	96	1
EXTAP	121	192	0
EXTAP	121	192	7
NMTTP	122	0	0	C	1	L1

T_REC_TAP	270
T_REC_BRK	12
T_REC_XTP	54
T_REC_BXX	8
T_REC_HLD	24
T_REC_XHO	6
T_REC_BHO	0
T_REC_BXH	0
T_REC_STR	13
T_REC_BST	0
T_REC_XST	0
T_REC_XBS	0
T_REC_TTP	26
T_REC_THO	0
T_REC_SLD	13
T_REC_BSL	0
T_REC_ALL	426
T_NUM_TAP	363
T_NUM_BRK	20
T_NUM_HLD	30
T_NUM_SLD	13
T_NUM_ALL	426
T_JUDGE_TAP	383
T_JUDGE_HLD	156
T_JUDGE_SLD	13
T_JUDGE_ALL	552
TTM_EACHPAIRS	96
TTM_SCR_TAP	181500
TTM_SCR_BRK	52000
TTM_SCR_HLD	30000
TTM_SCR_SLD	19500
TTM_SCR_ALL	283000
TTM_SCR_S	272600
TTM_SCR_SS	281000
TTM_RAT_ACV	10071

