VERSION	0.00.00	1.04.00
FES_MODE	0
BPM_DEF	234.000	234.000	234.000	234.000
MET_DEF	4	4
RESOLUTION	384
CLK_DEF	384
COMPATIBLE_CODE	MA2

BPM	0	0	234.000
MET	0	0	4	4

NMHLD	2	0	3	1536
NMHLD	2	0	4	2688
NMHLD	8	0	2	1008
NMTTP	10	0	3	E	0	M1
NMHLD	10	192	3	432
NMTTP	11	0	4	E	0	M1
NMHLD	11	192	4	432
NMTTP	12	0	5	E	0	M1
NMHLD	12	192	5	432
NMTTP	13	0	5	E	0	M1
NMHLD	13	192	4	432
NMTTP	14	0	4	E	0	M1
NMHLD	14	192	3	432
NMTTP	15	0	3	E	0	M1
NMHLD	15	192	2	576
NMTHO	16	0	0	384	C	0	M1
BXSTR	18	0	0
BRSSL	18	0	0	96	408	4
EXSTR	18	1	7
NMSCL	18	1	7	96	863	0
CNSSL	19	120	4	0	456	0
NMTAP	21	0	7
NMTAP	21	48	7
NMTAP	21	96	1
NMTAP	21	144	1
NMTAP	21	192	6
NMTAP	21	240	6
NMTAP	21	288	0
NMTAP	21	288	7
BXSTR	22	0	0
BRSCR	22	0	0	96	864	7
EXSTR	22	1	7
NMSSR	22	1	7	96	383	3
CNSSR	23	96	3	0	480	7
NMTAP	25	0	0
NMTAP	25	48	0
NMTAP	25	96	6
NMTAP	25	144	6
NMTAP	25	192	2
NMTAP	25	240	2
NMTAP	25	288	3
NMTAP	25	288	4
NMTAP	26	0	5
NMTAP	26	24	4
NMTAP	26	48	5
NMTAP	26	72	4
NMTAP	26	96	5
NMTAP	26	144	3
NMTAP	26	168	4
NMTAP	26	192	3
NMHLD	26	216	4	72
NMHLD	26	240	3	48
NMTAP	27	0	2
NMTAP	27	24	3
NMTAP	27	48	2
NMTAP	27	72	3
NMTAP	27	96	2
NMTAP	27	144	4
NMTAP	27	168	3
NMTAP	27	192	4
NMHLD	27	216	3	72
NMHLD	27	240	4	48
NMTAP	28	0	6
NMTAP	28	24	7
NMTAP	28	48	6
NMTAP	28	72	7
NMTAP	28	96	6
NMTAP	28	144	0
NMTAP	28	168	7
NMTAP	28	192	0
NMHLD	28	216	7	72
NMHLD	28	240	0	48
NMTAP	29	0	1
NMTAP	29	24	0
NMTAP	29	48	1
NMTAP	29	72	0
NMTAP	29	96	1
NMTAP	29	144	7
NMTAP	29	168	0
NMTAP	29	192	7
NMHLD	29	216	0	72
NMHLD	29	240	7	48
NMTAP	30	0	5
NMTAP	30	24	4
NMTAP	30	48	5
NMTAP	30	72	4
NMTAP	30	96	5
NMTAP	30	144	2
NMTAP	30	168	3
NMTAP	30	192	2
NMHLD	30	216	3	72
NMHLD	30	240	2	48
NMTAP	31	0	2
NMTAP	31	24	3
NMTAP	31	48	2
NMTAP	31	72	3
NMTAP	31	96	2
NMTAP	31	144	5
NMTAP	31	168	4
NMTAP	31	192	5
NMHLD	31	216	4	72
NMHLD	31	240	5	48
NMTAP	32	0	6
NMTAP	32	24	7
NMTAP	32	48	6
NMTAP	32	72	7
NMTAP	32	96	6
NMTAP	32	144	1
NMTAP	32	168	0
NMTAP	32	192	1
NMHLD	32	216	0	72
NMHLD	32	240	1	48
NMTAP	33	0	6
NMTAP	33	24	1
NMTAP	33	48	6
NMTAP	33	72	1
NMTAP	33	96	6
EXSTR	33	144	0
BRSI_	33	144	0	96	48	3
EXSTR	33	145	7
NMSI_	33	145	7	96	47	4
BXTAP	34	0	5
NMTTP	34	96	2	A	0	M1
NMTTP	34	120	3	E	0	M1
NMTTP	34	144	4	E	0	M1
NMTTP	34	168	4	A	0	M1
NMTTP	34	192	1	B	0	M1
NMTTP	34	216	0	C	0	M1
NMTTP	34	240	5	B	0	M1
NMTTP	34	264	5	A	0	M1
NMTTP	34	288	0	A	0	M1
NMTTP	34	312	0	E	0	M1
NMTTP	34	336	7	E	0	M1
NMTTP	34	360	6	A	0	M1
NMTTP	35	0	1	A	0	M1
NMTTP	35	24	2	E	0	M1
NMTTP	35	48	3	E	0	M1
NMTTP	35	72	3	A	0	M1
NMTTP	35	96	0	B	0	M1
NMTTP	35	120	0	C	0	M1
NMTTP	35	144	4	B	0	M1
NMTTP	35	168	4	A	0	M1
NMTTP	35	192	7	A	0	M1
NMTTP	35	216	7	E	0	M1
NMTTP	35	240	6	E	0	M1
NMTTP	35	264	5	A	0	M1
NMTTP	35	288	2	A	0	M1
NMTTP	35	312	3	E	0	M1
NMTTP	35	336	4	E	0	M1
NMTTP	35	360	4	A	0	M1
NMTTP	36	0	1	B	0	M1
NMTTP	36	24	0	C	0	M1
NMTTP	36	48	5	B	0	M1
NMTTP	36	72	5	A	0	M1
NMTTP	36	96	0	A	0	M1
NMTTP	36	120	0	E	0	M1
NMTTP	36	144	7	E	0	M1
NMTTP	36	168	6	A	0	M1
NMTTP	36	192	1	A	0	M1
NMTTP	36	216	2	E	0	M1
NMTTP	36	240	3	E	0	M1
NMTTP	36	264	3	A	0	M1
NMTTP	36	288	0	B	0	M1
NMTTP	36	312	0	C	0	M1
NMTTP	36	336	4	B	0	M1
NMTTP	36	360	4	A	0	M1
NMTTP	37	0	7	A	0	M1
NMTTP	37	24	7	E	0	M1
NMTTP	37	48	6	E	0	M1
NMTTP	37	72	5	A	0	M1
NMTTP	37	96	2	A	0	M1
NMTTP	37	120	3	E	0	M1
NMTTP	37	144	4	E	0	M1
NMTTP	37	168	4	A	0	M1
BXTAP	37	192	0
BXTAP	38	0	2
NMTTP	38	96	5	A	0	M1
NMTTP	38	120	5	E	0	M1
NMTTP	38	144	4	E	0	M1
NMTTP	38	168	3	A	0	M1
NMTTP	38	192	6	B	0	M1
NMTTP	38	216	0	C	0	M1
NMTTP	38	240	2	B	0	M1
NMTTP	38	264	2	A	0	M1
NMTTP	38	288	7	A	0	M1
NMTTP	38	312	0	E	0	M1
NMTTP	38	336	1	E	0	M1
NMTTP	38	360	1	A	0	M1
NMTTP	39	0	6	A	0	M1
NMTTP	39	24	6	E	0	M1
NMTTP	39	48	5	E	0	M1
NMTTP	39	72	4	A	0	M1
NMTTP	39	96	7	A	0	M1
NMTTP	39	120	7	B	0	M1
NMTTP	39	144	0	C	0	M1
NMTTP	39	168	3	B	0	M1
NMTTP	39	192	0	A	0	M1
NMTTP	39	216	1	E	0	M1
NMTTP	39	240	2	E	0	M1
NMTTP	39	264	2	A	0	M1
NMTTP	39	288	5	A	0	M1
NMTTP	39	312	5	E	0	M1
NMTTP	39	336	4	E	0	M1
NMTTP	39	360	3	A	0	M1
NMTTP	40	0	6	B	0	M1
NMTTP	40	24	0	C	0	M1
NMTTP	40	48	2	B	0	M1
NMTTP	40	72	2	A	0	M1
NMTTP	40	96	7	A	0	M1
NMTTP	40	120	0	E	0	M1
NMTTP	40	144	1	E	0	M1
NMTTP	40	168	1	A	0	M1
NMTTP	40	192	6	A	0	M1
NMTTP	40	216	6	E	0	M1
NMTTP	40	240	5	E	0	M1
NMTTP	40	264	4	A	0	M1
NMTTP	40	288	7	A	0	M1
NMTTP	40	312	7	B	0	M1
NMTTP	40	336	0	C	0	M1
NMTTP	40	360	3	B	0	M1
NMTTP	41	0	0	A	0	M1
NMTTP	41	24	1	E	0	M1
NMTTP	41	48	2	E	0	M1
NMTTP	41	72	2	A	0	M1
NMTTP	41	96	5	A	0	M1
NMTTP	41	120	5	E	0	M1
NMTTP	41	144	4	E	0	M1
NMTTP	41	168	3	A	0	M1
BXHLD	41	192	7	96
BXTAP	41	288	0
NMTAP	42	0	5
NMTAP	42	24	4
NMTAP	42	48	5
NMTAP	42	72	4
NMTAP	42	96	5
NMTAP	42	144	2
NMTAP	42	168	4
NMTAP	42	192	2
NMTAP	42	216	4
NMTAP	42	240	2
NMTAP	42	288	1
NMTAP	42	288	3
NMTAP	43	0	2
NMTAP	43	24	3
NMTAP	43	48	2
NMTAP	43	72	3
NMTAP	43	96	2
NMTAP	43	144	5
NMTAP	43	168	3
NMTAP	43	192	5
NMTAP	43	216	3
NMTAP	43	240	5
NMTAP	43	288	4
NMTAP	43	288	6
NMTAP	44	0	5
NMTAP	44	24	4
NMTAP	44	48	5
NMTAP	44	72	4
NMTAP	44	96	5
NMTAP	44	144	2
NMTAP	44	168	4
NMTAP	44	192	2
NMTAP	44	216	4
NMTAP	44	240	2
NMTAP	44	288	1
NMTAP	44	288	3
NMTAP	45	0	1
NMTAP	45	24	7
NMTAP	45	48	1
NMTAP	45	72	7
NMTAP	45	96	1
NMTAP	45	144	6
NMTAP	45	168	7
NMTAP	45	192	6
NMTAP	45	216	7
NMTAP	45	240	6
NMTAP	45	288	1
NMTAP	45	288	5
NMTAP	46	0	6
NMTAP	46	24	4
NMTAP	46	48	6
NMTAP	46	72	4
NMTAP	46	96	6
NMTAP	46	144	2
NMTAP	46	168	4
NMTAP	46	192	2
NMTAP	46	216	4
NMTAP	46	240	2
NMTAP	46	288	1
NMTAP	46	288	5
NMTAP	47	0	2
NMTAP	47	24	4
NMTAP	47	48	2
NMTAP	47	72	4
NMTAP	47	96	2
NMTAP	47	144	6
NMTAP	47	168	4
NMTAP	47	192	6
NMTAP	47	216	4
NMTAP	47	240	6
NMTAP	47	288	3
NMTAP	47	288	7
NMTAP	48	0	1
NMTAP	48	24	7
NMTAP	48	48	1
NMTAP	48	72	7
NMTAP	48	96	1
NMTAP	48	144	6
NMTAP	48	168	7
NMTAP	48	192	6
NMTAP	48	216	7
NMTAP	48	240	6
EXSTR	48	288	0
NMSSL	48	288	0	96	96	4
EXTAP	48	288	5
BXTAP	50	0	2
BXTAP	50	0	6
NMTAP	50	96	5
NMTAP	50	128	4
NMTAP	50	160	3
NMTAP	50	192	5
NMTAP	50	224	4
NMTAP	50	256	3
NMTAP	50	288	5
NMTAP	50	320	4
NMTAP	50	352	3
NMHLD	51	0	5	64
NMHLD	51	64	4	64
NMHLD	51	128	3	256
NMHLD	52	0	4	64
NMHLD	52	64	5	64
NMTAP	52	128	6
NMTAP	52	240	5
NMTAP	52	240	6
NMHLD	52	336	4	432
NMSTR	52	336	5
NMSI_	52	336	5	96	48	1
CNSCR	53	96	1	0	96	4
CNSI_	53	192	4	0	96	7
NMHLD	54	0	7	144
NMTAP	54	144	4
NMTAP	54	168	3
NMTAP	54	192	2
NMTAP	54	256	7
NMTAP	54	320	6
NMTAP	55	0	5
NMTAP	55	64	6
NMTAP	55	128	5
NMTAP	55	192	4
NMHLD	55	256	2	64
NMTAP	55	320	3
NMTAP	55	352	4
EXTAP	56	0	5
EXSTR	56	48	5
NMSI_	56	48	5	96	96	2
EXTAP	56	96	2
EXSTR	56	144	2
NMSI_	56	144	2	96	96	7
NMTAP	56	240	0
NMTAP	56	336	3
CNSI_	56	336	7	0	96	4
NMTAP	57	48	2
NMTAP	57	96	2
NMHLD	57	144	2	144
NMTAP	57	288	5
BRTAP	58	0	3
BRTAP	58	0	4
NMTAP	58	96	2
NMTAP	58	128	3
NMTAP	58	160	4
NMTAP	58	192	2
NMTAP	58	224	3
NMTAP	58	256	4
NMTAP	58	288	2
NMTAP	58	320	3
NMTAP	58	352	4
NMHLD	59	0	2	64
NMHLD	59	64	3	64
NMTAP	59	128	4
NMTAP	59	240	2
NMTAP	59	288	2
NMHLD	59	336	2	96
NMHLD	60	48	0	96
NMTAP	60	144	7
NMTAP	60	240	6
NMTAP	60	288	6
NMSTR	60	336	6
NMSI_	60	336	6	96	96	3
NMSTR	61	48	3
NMSCL	61	48	3	96	240	5
NMHLD	61	144	2	240
NMTAP	62	96	5
NMTAP	62	128	4
NMTAP	62	160	3
NMTAP	62	192	5
NMTAP	62	224	4
NMTAP	62	256	3
NMTAP	62	288	5
NMTAP	62	320	4
NMTAP	62	352	3
NMTAP	63	0	6
NMTAP	63	32	5
NMTAP	63	64	4
NMTAP	63	96	7
NMTAP	63	128	6
NMTAP	63	160	5
NMTAP	63	192	0
NMTAP	63	224	7
NMTAP	63	256	6
NMTAP	63	288	1
NMTAP	63	320	0
NMTAP	63	352	7
EXHLD	64	0	2	144
NMTAP	64	144	3
NMTAP	64	168	4
NMTAP	64	192	5
NMTAP	64	240	2
NMTAP	64	288	2
NMSTR	64	336	2
NMSCR	64	336	2	96	96	5
NMTAP	65	48	6
NMTAP	65	96	6
NMTAP	65	144	6
BXTAP	65	192	0
BXTAP	65	192	7
BXTAP	65	256	0
BXTAP	65	256	7
BXTAP	65	320	0
BXTAP	65	320	7
EXTAP	66	0	0
EXTAP	66	24	1
EXTAP	66	48	7
EXTAP	66	72	6
EXTAP	66	96	0
EXTAP	66	120	1
EXTAP	66	144	7
EXTAP	66	168	6
NMTAP	66	192	0
NMTAP	66	216	1
NMTAP	66	240	7
NMTAP	66	264	6
NMTAP	66	288	0
NMTAP	66	312	1
NMTAP	66	336	7
NMTAP	66	360	6
EXTAP	67	0	0
EXTAP	67	24	1
EXTAP	67	48	7
EXTAP	67	72	6
EXTAP	67	96	0
EXTAP	67	120	1
EXTAP	67	144	7
EXTAP	67	168	6
NMTAP	67	192	0
NMTAP	67	216	1
NMTAP	67	240	7
NMTAP	67	264	6
NMTAP	67	288	0
NMTAP	67	312	1
NMTAP	67	336	7
NMTAP	67	360	6
EXTAP	68	0	1
EXTAP	68	24	2
EXTAP	68	48	6
EXTAP	68	72	5
EXTAP	68	96	1
EXTAP	68	120	2
EXTAP	68	144	6
EXTAP	68	168	5
NMTAP	68	192	1
NMTAP	68	216	2
NMTAP	68	240	6
NMTAP	68	264	5
NMTAP	68	288	1
NMTAP	68	312	2
NMTAP	68	336	6
NMTAP	68	360	5
EXTAP	69	0	1
EXTAP	69	24	2
EXTAP	69	48	6
EXTAP	69	72	5
EXTAP	69	96	1
EXTAP	69	120	2
EXTAP	69	144	6
EXTAP	69	168	5
NMTAP	69	192	1
NMTAP	69	216	2
NMTAP	69	240	6
NMTAP	69	264	5
NMTAP	69	288	1
NMTAP	69	312	2
NMTAP	69	336	6
NMTAP	69	360	5
EXTAP	70	0	2
EXTAP	70	24	3
EXTAP	70	48	5
EXTAP	70	72	4
EXTAP	70	96	2
EXTAP	70	120	3
EXTAP	70	144	5
EXTAP	70	168	4
NMTAP	70	192	2
NMTAP	70	216	3
NMTAP	70	240	5
NMTAP	70	264	4
NMTAP	70	288	2
NMTAP	70	312	3
NMTAP	70	336	5
NMTAP	70	360	4
EXTAP	71	0	2
EXTAP	71	24	3
EXTAP	71	48	5
EXTAP	71	72	4
EXTAP	71	96	2
EXTAP	71	120	3
EXTAP	71	144	5
EXTAP	71	168	4
NMTAP	71	192	2
NMTAP	71	216	3
NMTAP	71	240	5
NMTAP	71	264	4
NMTAP	71	288	2
NMTAP	71	312	3
NMTAP	71	336	5
NMTAP	71	360	4
EXTAP	72	0	2
EXTAP	72	24	3
EXTAP	72	48	5
EXTAP	72	72	4
EXTAP	72	96	2
EXTAP	72	120	3
EXTAP	72	144	5
EXTAP	72	168	4
BXTAP	72	192	1
BXTAP	72	216	2
BXTAP	72	240	6
BXTAP	72	264	5
NMTAP	72	288	1
NMTAP	72	312	2
NMTAP	72	336	6
NMTAP	72	360	5
NMTAP	73	0	1
NMTAP	73	24	2
NMTAP	73	48	6
NMTAP	73	72	5
BXTAP	73	96	0
BXTAP	73	120	1
BXTAP	73	144	7
BXTAP	73	168	6
NMTAP	73	192	0
NMTAP	73	216	1
NMTAP	73	240	7
NMTAP	73	264	6
NMTAP	73	288	0
NMTAP	73	312	1
NMTAP	73	336	7
NMTAP	73	360	6
BRTAP	74	0	1
NMTAP	74	24	2
NMTAP	74	48	3
NMTAP	74	72	4
NMTAP	74	96	0
NMTAP	74	120	7
NMTAP	74	144	6
NMTAP	74	168	5
NMHLD	74	192	3	96
BRTAP	74	288	0
NMTAP	74	312	7
NMTAP	74	336	6
NMTAP	74	360	5
NMTAP	75	0	3
NMTAP	75	24	2
NMTAP	75	48	1
NMTAP	75	72	0
NMHLD	75	96	4	96
BRTAP	75	192	7
NMTAP	75	216	0
NMTAP	75	240	1
NMTAP	75	264	2
NMTAP	75	288	4
NMTAP	75	312	5
NMTAP	75	336	6
NMTAP	75	360	7
NMHLD	76	0	4	96
BRTAP	76	96	0
NMTAP	76	120	7
NMTAP	76	144	6
NMTAP	76	168	5
NMTAP	76	192	3
NMTAP	76	216	2
NMTAP	76	240	1
NMTAP	76	264	0
NMHLD	76	288	4	96
BRTAP	77	0	1
NMTAP	77	24	2
NMTAP	77	48	3
NMTAP	77	72	4
NMTAP	77	96	7
NMTAP	77	120	6
NMTAP	77	144	5
NMTAP	77	168	4
NMHLD	77	192	1	96
NMTAP	77	288	6
NMTAP	77	312	0
NMTAP	77	336	6
NMTAP	77	360	0
NMTAP	78	0	6
NMTAP	78	48	1
NMTAP	78	72	7
NMTAP	78	96	1
NMTAP	78	120	7
NMTAP	78	144	1
EXHLD	78	192	0	24
EXHLD	78	240	0	24
EXHLD	78	288	0	24
EXHLD	78	336	0	24
NMHLD	79	0	1	24
NMHLD	79	0	7	24
NMHLD	79	48	1	24
NMHLD	79	48	7	24
NMHLD	79	96	2	24
NMHLD	79	96	6	24
NMHLD	79	144	2	24
NMHLD	79	144	6	24
NMHLD	79	192	3	24
NMHLD	79	192	5	24
NMHLD	79	240	3	24
NMHLD	79	240	5	24
NMSTR	79	288	2
BRSI_	79	288	2	96	48	7
NMHLD	79	288	4	24
NMHLD	79	336	2	24
NMHLD	79	336	4	24
NMSTR	88	0	5
NMSCL	88	0	5	96	96	3
NMTAP	88	96	2
NMTAP	88	192	2
NMTAP	88	288	2
NMSTR	89	0	2
BRSCR	89	0	2	96	96	4
NMTAP	89	96	4
NMTAP	89	192	5
NMTAP	89	288	5
NMSTR	90	0	5
NMSCL	90	0	5	96	96	3
NMTAP	90	96	3
NMTAP	90	192	2
NMTAP	90	288	2
NMSTR	91	0	2
BRSCR	91	0	2	96	96	4
NMTAP	91	96	4
NMHLD	91	192	5	96
NMTAP	91	288	4
NMHLD	92	0	3	48
NMHLD	92	0	4	48
NMTAP	92	96	3
NMTAP	92	96	4
NMHLD	92	192	3	48
NMHLD	92	192	4	48
NMTAP	92	288	2
NMTAP	92	288	5
NMHLD	93	0	2	48
NMHLD	93	0	5	48
NMTAP	93	96	1
NMTAP	93	96	6
NMHLD	93	192	1	48
NMHLD	93	192	6	48
NMSTR	93	288	0
NMSI_	93	288	0	768	48	4
NMSTR	93	288	7
BRSI_	93	288	7	768	48	3
NMHLD	94	0	0	576
NMHLD	94	0	7	576
EXTAP	95	288	0
EXTAP	95	288	7
BXSTR	96	0	2
BRSI_	96	0	2	96	48	6
BXTAP	96	0	5
NMTAP	96	96	6
NMSTR	96	144	7
NMSCL	96	144	7	96	48	4
NMTAP	96	240	0
NMTAP	96	256	1
NMTAP	96	272	2
NMTAP	96	288	3
NMTAP	97	0	2
NMSTR	97	0	5
BRSI_	97	0	5	96	48	1
NMTAP	97	96	1
NMSTR	97	144	0
NMSCR	97	144	0	96	48	3
NMTAP	97	240	7
NMTAP	97	256	6
NMTAP	97	272	5
NMTAP	97	288	4
NMSTR	98	0	2
BRSI_	98	0	2	96	48	7
NMTAP	98	0	5
NMTAP	98	96	5
NMSTR	98	144	6
NMSCL	98	144	6	96	48	3
NMTAP	98	240	7
NMTAP	98	256	0
NMTAP	98	272	1
NMTAP	98	288	2
NMTAP	99	0	0
NMTAP	99	0	1
NMTAP	99	48	2
NMTAP	99	48	7
NMTAP	99	96	3
NMTAP	99	96	6
NMTAP	99	144	4
NMTAP	99	144	5
NMTAP	99	192	3
NMTAP	99	192	6
NMTAP	99	240	2
NMTAP	99	240	7
EXTAP	99	288	0
EXTAP	99	288	1
NMTAP	100	0	3
NMSTR	100	0	7
NMSI_	100	0	7	96	48	2
NMTAP	100	96	4
NMHLD	100	144	3	96
NMTAP	100	240	4
NMTAP	100	288	4
NMTAP	100	336	2
NMSTR	101	0	1
NMSI_	101	0	1	96	48	4
NMTAP	101	0	3
NMTAP	101	96	4
NMHLD	101	144	5	96
NMTAP	101	240	4
NMTAP	101	288	4
NMTAP	101	336	5
NMTAP	102	0	2
NMSTR	102	0	6
NMSI_	102	0	6	96	48	2
NMSTR	102	96	3
NMSI_	102	96	3	96	48	7
NMTAP	102	96	6
NMTAP	102	192	3
NMSTR	102	192	5
NMSI_	102	192	5	96	48	2
NMTAP	102	288	0
NMTAP	102	288	5
NMTAP	103	0	0
NMTAP	103	0	1
NMTAP	103	48	0
NMTAP	103	48	1
NMSTR	103	96	2
NMSI_	103	96	2	96	48	7
NMSTR	103	96	7
NMSI_	103	96	7	96	48	3
NMTAP	103	192	2
NMTAP	103	192	7
EXTAP	103	288	0
EXTAP	103	288	4
BRTAP	104	0	0
BRSTR	104	0	5
BRSI_	104	0	5	96	48	0
NMTAP	104	96	2
NMSTR	104	144	1
NMSCR	104	144	1	96	48	4
NMTAP	104	240	0
NMTAP	104	240	1
NMTAP	104	256	7
NMTAP	104	272	6
NMTAP	104	288	5
NMSTR	105	0	2
BRSI_	105	0	2	96	48	7
NMTAP	105	0	7
NMTAP	105	96	5
NMSTR	105	144	6
NMSCL	105	144	6	96	48	3
NMTAP	105	240	6
NMTAP	105	240	7
NMTAP	105	256	0
NMTAP	105	272	1
NMTAP	105	288	2
NMSTR	106	0	1
BRSI_	106	0	1	96	48	4
NMTAP	106	0	4
NMTAP	106	96	4
NMSTR	106	144	5
NMSCR	106	144	5	96	48	0
NMTAP	106	240	4
NMTAP	106	240	5
NMTAP	106	256	3
NMTAP	106	272	2
NMTAP	106	288	1
NMTAP	107	0	2
NMTAP	107	0	3
NMTAP	107	48	1
NMTAP	107	48	4
NMTAP	107	96	0
NMTAP	107	96	5
NMTAP	107	144	6
NMTAP	107	144	7
NMTAP	107	192	0
NMTAP	107	192	5
NMTAP	107	240	1
NMTAP	107	240	4
NMTAP	107	288	2
NMTAP	107	288	3
NMSTR	108	0	5
BRSI_	108	0	5	96	48	0
NMTAP	108	48	3
NMTAP	108	96	2
NMSTR	108	144	1
NMSCR	108	144	1	96	48	4
NMTAP	108	240	0
NMTAP	108	240	1
NMTAP	108	256	7
NMTAP	108	272	6
NMTAP	108	288	5
NMSTR	109	0	2
BRSI_	109	0	2	96	48	7
NMTAP	109	48	4
NMTAP	109	96	5
NMSTR	109	144	6
NMSCL	109	144	6	96	48	3
NMTAP	109	240	6
NMTAP	109	240	7
NMTAP	109	256	0
NMTAP	109	272	1
NMTAP	109	288	2
NMSTR	110	0	0
NMTTP	110	0	0	C	1	M1
NMSI_	110	0	0	96	72	6
CNSI_	110	168	6	0	72	4
CNSI_	110	240	4	0	72	2
CNSI_	110	312	2	0	72	5
NMTAP	111	0	7
NMTAP	111	48	7
NMTAP	111	96	5
NMTAP	111	144	5
NMTAP	111	192	3
NMTAP	111	288	2
NMTAP	111	288	4
NMSTR	112	0	7
NMSI_	112	0	7	96	192	3
NMSTR	113	0	7
BRSI_	113	0	7	96	192	3
BRTAP	114	0	1
BRTAP	114	0	4
NMTAP	114	48	2
NMTAP	114	72	3
NMTAP	114	96	2
NMTAP	114	144	3
NMTAP	114	144	4
NMTAP	114	192	5
NMTAP	114	216	4
NMTAP	114	240	5
NMTAP	114	288	3
NMTAP	114	288	6
NMTAP	114	336	2
NMTAP	114	336	7
NMSTR	115	0	1
NMSCR	115	0	1	96	48	3
NMTAP	115	48	4
NMSTR	115	96	1
NMSI_	115	96	1	96	48	5
NMTAP	115	144	6
NMTAP	115	192	1
NMTAP	115	240	4
BRTAP	115	288	7
NMTAP	116	0	3
NMTAP	116	0	6
NMTAP	116	48	5
NMTAP	116	72	4
NMTAP	116	96	5
NMTAP	116	144	3
NMTAP	116	144	6
NMTAP	116	192	2
NMTAP	116	216	3
NMTAP	116	240	2
NMTAP	116	288	1
NMTAP	116	288	4
NMTAP	116	336	0
NMTAP	116	336	5
NMSTR	117	0	6
BRSI_	117	0	6	96	48	4
NMSTR	117	48	7
BRSI_	117	48	7	96	48	3
NMTAP	117	96	6
NMTAP	117	144	7
NMSTR	117	192	0
NMSI_	117	192	0	96	48	4
NMSTR	117	240	1
NMSI_	117	240	1	96	48	3
NMTAP	117	288	0
NMTAP	117	336	1
NMTAP	118	0	7
NMHLD	118	48	7	48
NMTAP	118	96	5
NMHLD	118	144	5	48
NMTAP	118	192	3
NMHLD	118	240	3	48
NMTAP	118	288	1
NMTAP	118	336	1
NMTAP	119	0	1
NMTAP	119	0	7
NMTAP	119	48	6
NMTAP	119	72	2
NMTAP	119	96	6
NMTAP	119	144	0
NMTAP	119	168	4
NMTAP	119	192	0
NMTAP	119	240	1
NMTAP	119	240	5
BRTAP	119	288	1
BRTAP	119	288	5
BRTAP	120	0	6
NMTAP	120	24	4
NMTAP	120	48	6
NMTAP	120	72	4
NMHLD	120	96	5	24
BRTAP	120	144	1
NMTAP	120	168	3
NMTAP	120	192	1
NMTAP	120	216	3
NMTAP	120	240	2
NMTAP	120	288	1
NMTAP	120	288	4
BRTAP	121	0	6
NMTAP	121	24	4
NMTAP	121	48	6
NMTAP	121	72	4
NMHLD	121	96	7	24
BRTAP	121	144	1
NMTAP	121	168	3
NMTAP	121	192	1
NMTAP	121	216	3
NMTAP	121	240	0
NMTAP	121	288	6
NMTAP	121	288	7
BRTAP	122	0	0
NMTAP	122	24	5
NMTAP	122	48	1
NMTAP	122	72	4
NMHLD	122	96	2	24
BRTAP	122	144	5
NMTAP	122	168	4
NMTAP	122	192	6
NMTAP	122	216	3
NMTAP	122	240	7
NMTAP	122	288	0
NMTAP	122	288	1
NMTAP	123	0	7
NMTAP	123	24	0
NMTAP	123	48	7
NMTAP	123	72	0
NMSTR	123	96	6
NMSCL	123	96	6	96	96	0
NMTAP	123	120	1
NMTAP	123	144	6
NMTAP	123	168	1
BRTAP	123	288	7
EXSTR	124	0	0
NMSI_	124	0	0	96	192	4
EXTAP	124	0	6
NMSTR	125	0	0
BRSI_	125	0	0	96	192	4
NMSTR	126	0	0
BRSXL	126	0	0	96	480	3
NMSXR	126	0	0	96	480	5
NMSTR	128	0	4
NMSI_	128	0	4	96	48	0
NMTAP	128	48	4
NMTAP	128	96	0
NMTAP	128	144	1
NMSTR	128	192	2
BRSI_	128	192	2	96	48	6
NMTAP	128	240	2
NMTAP	128	288	3
NMTAP	128	336	4
NMSTR	129	0	5
NMSCL	129	0	5	96	48	2
NMTAP	129	48	6
NMTAP	129	96	7
NMSTR	129	144	0
BRSCL	129	144	0	96	48	5
NMTAP	129	192	1
NMTAP	129	240	2
BRTAP	129	288	3
NMSTR	130	0	0
NMSI_	130	0	0	96	48	4
NMTAP	130	48	0
NMTAP	130	96	4
NMTAP	130	144	5
NMSTR	130	192	6
BRSI_	130	192	6	96	48	2
NMTAP	130	240	6
NMTAP	130	288	7
NMTAP	130	336	0
NMSTR	131	0	1
NMSCL	131	0	1	96	48	6
NMTAP	131	48	2
NMTAP	131	96	3
NMSTR	131	144	4
BRSCL	131	144	4	96	48	1
NMTAP	131	192	5
NMTAP	131	240	6
BRTAP	131	288	7
NMSTR	132	0	6
NMSI_	132	0	6	96	48	2
NMTAP	132	48	6
NMTAP	132	96	2
NMTAP	132	144	3
NMSTR	132	192	4
BRSI_	132	192	4	96	48	0
NMTAP	132	240	4
NMTAP	132	288	5
NMTAP	132	336	6
NMSTR	133	0	7
NMSCL	133	0	7	96	48	4
NMTAP	133	48	0
NMTAP	133	96	1
NMSTR	133	144	2
BRSCL	133	144	2	96	48	7
NMTAP	133	192	3
NMTAP	133	240	4
BRTAP	133	288	5
NMSTR	134	0	5
NMSI_	134	0	5	96	48	1
NMTAP	134	48	5
NMTAP	134	96	1
NMTAP	134	144	2
NMSTR	134	192	3
BRSI_	134	192	3	96	48	7
NMTAP	134	240	3
NMTAP	134	288	4
NMTAP	134	336	5
NMSTR	135	0	6
NMSCL	135	0	6	96	48	3
NMTAP	135	48	7
NMTAP	135	96	0
NMSTR	135	144	1
BRSCL	135	144	1	96	48	6
NMTAP	135	192	2
NMTAP	135	240	3
BRSTR	135	288	4
NMSI_	135	288	4	96	48	7
NMTTP	136	0	3	B	1	M1
NMTTP	136	0	3	E	0	M1
NMTTP	136	0	4	E	0	M1
NMTAP	137	96	3
NMTAP	137	240	3
NMHLD	138	0	3	168
NMHLD	138	144	1	144
NMHLD	138	264	7	144
NMHLD	139	0	5	288
EXTAP	139	288	4
NMTAP	140	0	6
NMTAP	140	24	4
NMTAP	140	48	6
NMTAP	140	72	4
NMTAP	140	96	6
NMTAP	140	144	0
NMTAP	140	168	3
NMSTR	140	192	0
NMSI_	140	192	0	96	48	2
BRSI_	140	192	0	96	48	3
NMTAP	140	216	3
NMTAP	140	240	0
NMTAP	141	0	7
NMTAP	141	24	4
NMTAP	141	48	7
NMTAP	141	72	4
NMTAP	141	96	7
NMTAP	141	144	1
NMTAP	141	168	3
NMSTR	141	192	1
NMSI_	141	192	1	96	48	5
BRSI_	141	192	1	96	48	4
NMTAP	141	216	3
NMTAP	141	240	1
NMTAP	142	0	7
NMTAP	142	32	7
NMTAP	142	64	1
NMTAP	142	96	1
NMTAP	142	128	3
NMTAP	142	160	3
NMTAP	142	192	5
NMTAP	142	224	5
NMTAP	142	256	7
NMSTR	142	288	7
NMSI_	142	288	7	96	8	3
NMTAP	142	320	1
NMTAP	142	352	1
NMTHO	143	0	0	0	C	0	M1

T_REC_TAP	616
T_REC_BRK	23
T_REC_XTP	67
T_REC_BXX	21
T_REC_HLD	80
T_REC_XHO	5
T_REC_BHO	0
T_REC_BXH	1
T_REC_STR	63
T_REC_BST	2
T_REC_XST	8
T_REC_XBS	3
T_REC_TTP	114
T_REC_THO	2
T_REC_SLD	49
T_REC_BSL	30
T_REC_ALL	1084
T_NUM_TAP	868
T_NUM_BRK	80
T_NUM_HLD	87
T_NUM_SLD	49
T_NUM_ALL	1084
T_JUDGE_TAP	917
T_JUDGE_HLD	334
T_JUDGE_SLD	79
T_JUDGE_ALL	1330
TTM_EACHPAIRS	87
TTM_SCR_TAP	434000
TTM_SCR_BRK	208000
TTM_SCR_HLD	87000
TTM_SCR_SLD	73500
TTM_SCR_ALL	802500
TTM_SCR_S	770700
TTM_SCR_SS	794500
TTM_RAT_ACV	10100

