VERSION	0.00.00	1.04.00
FES_MODE	0
BPM_DEF	234.000	234.000	234.000	234.000
MET_DEF	4	4
RESOLUTION	384
CLK_DEF	384
COMPATIBLE_CODE	MA2

BPM	0	0	234.000
MET	0	0	4	4

NMHLD	2	0	0	2688
NMHLD	2	0	7	2688
NMHLD	10	0	3	240
NMHLD	10	0	5	240
NMHLD	11	0	2	240
NMHLD	11	0	4	240
NMHLD	12	0	3	240
NMHLD	12	0	6	240
NMHLD	13	0	1	240
NMHLD	13	0	4	240
NMHLD	14	0	3	240
NMHLD	14	0	5	240
NMHLD	15	0	2	240
NMHLD	15	0	4	240
BRTAP	16	0	1
BRTAP	16	0	5
NMSTR	18	0	0
BRSI_	18	0	0	96	192	6
NMHLD	18	0	7	1152
CNSI_	18	288	6	0	192	1
CNSI_	19	96	1	0	192	5
CNSI_	19	288	5	0	192	2
CNSI_	20	96	2	0	192	4
NMHLD	22	0	0	1152
NMSTR	22	0	7
NMSI_	22	0	7	96	192	1
CNSI_	22	288	1	0	192	6
CNSI_	23	96	6	0	192	2
CNSI_	23	288	2	0	192	5
CNSI_	24	96	5	0	192	3
NMTAP	25	0	2
NMTAP	25	96	2
NMTAP	25	192	3
NMTAP	25	288	3
NMTAP	26	0	2
NMTAP	26	0	4
NMTAP	26	48	2
NMTAP	26	48	4
NMTAP	26	144	1
NMTAP	26	144	5
NMHLD	26	192	1	96
NMHLD	26	192	5	96
NMTAP	27	0	3
NMTAP	27	0	5
NMTAP	27	48	3
NMTAP	27	48	5
NMTAP	27	144	2
NMTAP	27	144	6
NMHLD	27	192	2	96
NMHLD	27	192	6	96
NMTAP	28	0	2
NMTAP	28	0	4
NMTAP	28	48	2
NMTAP	28	48	4
NMTAP	28	144	1
NMTAP	28	144	5
NMHLD	28	192	1	96
NMHLD	28	192	5	96
NMTAP	29	0	0
NMTAP	29	0	6
NMTAP	29	48	0
NMTAP	29	48	6
NMTAP	29	144	1
NMTAP	29	144	5
NMHLD	29	192	1	96
NMHLD	29	192	5	96
NMTAP	30	0	3
NMTAP	30	0	5
NMTAP	30	48	3
NMTAP	30	48	5
NMTAP	30	144	6
NMTAP	30	144	7
NMHLD	30	192	6	96
NMHLD	30	192	7	96
NMTAP	31	0	2
NMTAP	31	0	4
NMTAP	31	48	2
NMTAP	31	48	4
NMTAP	31	144	0
NMTAP	31	144	1
NMHLD	31	192	0	96
NMHLD	31	192	1	96
NMTAP	32	0	3
NMTAP	32	0	5
NMTAP	32	48	3
NMTAP	32	48	5
NMTAP	32	144	2
NMTAP	32	144	6
NMHLD	32	192	2	96
NMHLD	32	192	6	96
NMTAP	33	0	1
NMTAP	33	0	7
NMSTR	33	48	1
NMSI_	33	48	1	96	96	4
NMSTR	33	48	7
NMSI_	33	48	7	96	96	4
NMTAP	34	0	4
NMHLD	34	0	5	96
NMHLD	34	96	6	96
NMHLD	34	192	7	96
NMHLD	34	288	0	96
NMHLD	35	0	1	96
NMHLD	35	96	2	96
NMHLD	35	192	3	96
NMHLD	35	288	4	96
NMHLD	36	0	5	96
NMHLD	36	96	6	96
NMHLD	36	192	7	96
NMHLD	36	288	0	96
NMHLD	37	0	1	96
NMHLD	37	96	2	96
NMTAP	37	192	3
NMHLD	38	0	2	96
NMTAP	38	0	3
NMHLD	38	96	1	96
NMHLD	38	192	0	96
NMHLD	38	288	7	96
NMHLD	39	0	6	96
NMHLD	39	96	5	96
NMHLD	39	192	4	96
NMHLD	39	288	3	96
NMHLD	40	0	2	96
NMHLD	40	96	1	96
NMHLD	40	192	0	96
NMHLD	40	288	7	96
NMHLD	41	0	6	96
NMHLD	41	96	5	96
NMTAP	41	192	4
NMTAP	42	0	4
NMTAP	42	0	5
NMTAP	42	48	4
NMTAP	42	48	5
NMTAP	42	144	6
NMTAP	42	144	7
NMTAP	42	192	6
NMTAP	42	192	7
BRTAP	42	288	4
NMTAP	43	0	2
NMTAP	43	0	3
NMTAP	43	48	2
NMTAP	43	48	3
NMTAP	43	144	0
NMTAP	43	144	1
NMTAP	43	192	0
NMTAP	43	192	1
BRTAP	43	288	3
NMTAP	44	0	4
NMTAP	44	0	5
NMTAP	44	48	4
NMTAP	44	48	5
NMTAP	44	144	6
NMTAP	44	144	7
NMTAP	44	192	6
NMTAP	44	192	7
BRTAP	44	288	4
NMTAP	45	0	3
NMTAP	45	0	5
NMTAP	45	48	3
NMTAP	45	48	5
NMTAP	45	144	2
NMTAP	45	144	6
NMTAP	45	192	2
NMTAP	45	192	6
BRTAP	45	288	4
NMTAP	46	0	2
NMTAP	46	0	3
NMTAP	46	48	2
NMTAP	46	48	3
NMTAP	46	144	0
NMTAP	46	144	1
NMTAP	46	192	0
NMTAP	46	192	1
BRTAP	46	288	3
NMTAP	47	0	4
NMTAP	47	0	5
NMTAP	47	48	4
NMTAP	47	48	5
NMTAP	47	144	6
NMTAP	47	144	7
NMTAP	47	192	6
NMTAP	47	192	7
BRTAP	47	288	4
NMTAP	48	0	2
NMTAP	48	0	3
NMTAP	48	48	2
NMTAP	48	48	3
NMTAP	48	144	0
NMTAP	48	144	1
NMTAP	48	192	0
NMTAP	48	192	1
BRTAP	48	288	4
NMTAP	49	0	2
NMTAP	49	0	7
NMSTR	49	48	2
NMSI_	49	48	2	96	96	5
NMSTR	49	48	7
NMSI_	49	48	7	96	96	4
NMHLD	50	0	5	1536
NMTTP	50	96	4	E	0	M1
NMTTP	50	192	5	E	0	M1
NMTTP	50	288	6	E	0	M1
NMTTP	51	0	7	E	0	M1
NMTTP	51	96	0	E	0	M1
NMTTP	52	0	7	B	0	M1
NMTTP	52	0	7	E	0	M1
NMTTP	52	0	7	D	0	M1
NMTTP	52	192	1	B	0	M1
NMTTP	52	192	1	E	0	M1
NMTTP	52	192	1	D	0	M1
NMTTP	53	0	3	B	0	M1
NMTTP	53	0	3	E	0	M1
NMTTP	53	0	3	D	0	M1
NMHLD	54	0	2	1536
NMTTP	54	96	4	E	0	M1
NMTTP	54	192	3	E	0	M1
NMTTP	54	288	2	E	0	M1
NMTTP	55	0	1	E	0	M1
NMTTP	55	96	0	E	0	M1
NMTTP	56	0	0	B	0	M1
NMTTP	56	0	1	E	0	M1
NMTTP	56	0	1	D	0	M1
NMTTP	56	192	6	B	0	M1
NMTTP	56	192	7	E	0	M1
NMTTP	56	192	7	D	0	M1
NMTTP	57	0	4	B	0	M1
NMTTP	57	0	5	E	0	M1
NMTTP	57	0	5	D	0	M1
NMHLD	58	0	6	1536
NMTAP	58	96	4
NMTAP	58	192	4
NMTAP	58	288	4
NMSTR	59	0	3
NMSCR	59	0	3	96	192	7
NMSTR	60	0	7
NMSCL	60	0	7	96	192	3
CNSUL	60	288	3	0	288	2
NMHLD	62	0	1	1344
NMTAP	62	96	3
NMTAP	62	192	3
NMTAP	62	288	3
NMTAP	63	0	2
NMTAP	63	96	2
NMTAP	63	192	2
NMTAP	63	288	2
NMSTR	64	0	0
NMSCR	64	0	0	96	192	4
NMHLD	65	0	4	192
NMTAP	66	0	5
NMTAP	66	48	5
NMTAP	66	96	3
NMTAP	66	144	3
NMTAP	66	192	4
NMTAP	66	240	4
NMTAP	66	288	2
NMTAP	66	336	2
NMTAP	67	0	5
NMTAP	67	48	5
NMTAP	67	96	3
NMTAP	67	144	3
NMTAP	67	192	4
NMTAP	67	240	4
NMTAP	67	288	1
NMTAP	67	336	1
NMTAP	68	0	4
NMTAP	68	48	4
NMTAP	68	96	2
NMTAP	68	144	2
NMTAP	68	192	3
NMTAP	68	240	3
NMTAP	68	288	1
NMTAP	68	336	1
NMTAP	69	0	4
NMTAP	69	48	4
NMTAP	69	96	2
NMTAP	69	144	2
NMTAP	69	192	3
NMTAP	69	240	3
NMTAP	69	288	0
NMTAP	69	336	0
NMTAP	70	0	5
NMTAP	70	48	5
NMTAP	70	96	2
NMTAP	70	144	2
NMTAP	70	192	3
NMTAP	70	240	3
NMTAP	70	288	0
NMTAP	70	336	0
NMTAP	71	0	5
NMTAP	71	48	5
NMTAP	71	96	2
NMTAP	71	144	2
NMTAP	71	192	3
NMTAP	71	240	3
NMTAP	71	288	0
NMTAP	71	336	0
NMTAP	72	0	6
NMTAP	72	48	6
NMTAP	72	96	2
NMTAP	72	144	2
NMTAP	72	192	5
NMTAP	72	240	4
NMTAP	72	288	3
NMTAP	72	336	5
NMTAP	73	0	4
NMTAP	73	48	3
NMTAP	73	96	2
NMTAP	73	144	3
NMTAP	73	192	4
NMTAP	73	240	2
NMTAP	73	288	3
NMTAP	73	336	4
NMTAP	74	0	6
NMTAP	74	48	5
NMTAP	74	96	4
NMTAP	74	144	6
NMTAP	74	192	5
NMTAP	74	240	4
NMTAP	74	288	1
NMTAP	74	336	2
NMTAP	75	0	3
NMTAP	75	48	1
NMTAP	75	96	2
NMTAP	75	144	3
NMTAP	75	192	4
NMTAP	75	240	5
NMTAP	75	288	6
NMTAP	75	336	4
NMTAP	76	0	5
NMTAP	76	48	6
NMTAP	76	96	3
NMTAP	76	144	2
NMTAP	76	192	1
NMTAP	76	240	3
NMTAP	76	288	2
NMTAP	76	336	1
NMTAP	77	0	7
NMTAP	77	48	7
NMTAP	77	96	3
NMTAP	77	144	3
NMTAP	77	192	5
NMTAP	77	240	5
NMSTR	77	288	4
BRSUR	77	288	4	96	192	5
NMTAP	77	336	4
CNSCR	78	192	5	0	384	3
NMTAP	80	0	4
NMHLD	80	144	5	384
NMTAP	81	0	3
NMHLD	81	144	4	384
NMTAP	82	0	2
NMHLD	82	144	3	384
NMTAP	83	0	2
NMTAP	83	144	2
NMTAP	84	0	2
NMHLD	84	144	2	384
NMTAP	85	0	4
NMHLD	85	144	3	384
NMTAP	86	0	5
NMHLD	86	144	4	240
NMTAP	87	0	5
NMTAP	88	0	5
NMTAP	88	96	5
NMTAP	88	192	5
NMTAP	88	288	5
NMTAP	89	0	4
NMTAP	89	96	4
NMTAP	89	192	4
NMTAP	89	288	4
NMTAP	90	0	3
NMTAP	90	96	3
NMTAP	90	192	3
NMTAP	90	288	3
NMTAP	91	0	2
NMTAP	91	96	2
NMTAP	91	192	2
NMTAP	91	288	2
NMTAP	92	0	3
NMTAP	92	96	3
NMTAP	92	192	3
NMTAP	92	288	3
NMTAP	93	0	4
NMHLD	93	96	4	960
NMTAP	93	192	3
BRHLD	93	288	3	768
NMSTR	96	0	7
NMSCL	96	0	7	96	96	4
NMSTR	96	144	0
NMSCR	96	144	0	96	96	3
NMTAP	96	288	4
NMSTR	97	0	5
NMSCR	97	0	5	96	96	0
NMSTR	97	144	4
NMSCL	97	144	4	96	96	1
NMTAP	97	288	7
NMSTR	98	0	6
NMSCL	98	0	6	96	96	3
NMSTR	98	144	7
NMSCR	98	144	7	96	96	2
NMTAP	98	288	4
NMTAP	99	0	5
NMHLD	99	48	5	48
NMTAP	99	96	7
NMHLD	99	144	7	48
NMTAP	99	192	0
NMHLD	99	240	0	48
NMTAP	99	288	2
NMSTR	100	0	5
NMSCR	100	0	5	96	96	0
NMSTR	100	144	1
NMSCR	100	144	1	96	96	4
NMTAP	100	288	6
NMSTR	101	0	6
NMSCR	101	0	6	96	96	1
NMSTR	101	144	2
NMSCR	101	144	2	96	96	5
NMTAP	101	288	7
NMTAP	102	0	6
NMHLD	102	48	6	48
NMTAP	102	96	4
NMHLD	102	144	4	48
NMTAP	102	192	3
NMHLD	102	240	3	48
NMTAP	102	288	1
NMTAP	103	0	0
NMTAP	103	0	1
NMTAP	103	96	2
NMTAP	103	96	3
NMTAP	103	192	4
NMTAP	103	192	5
NMTAP	103	288	6
NMTAP	103	288	7
NMSTR	104	0	0
NMSCR	104	0	0	96	96	3
NMSTR	104	144	7
NMSCL	104	144	7	96	96	4
NMTAP	104	288	3
NMSTR	105	0	2
NMSCL	105	0	2	96	96	7
NMSTR	105	144	3
NMSCR	105	144	3	96	96	6
NMTAP	105	288	0
NMSTR	106	0	1
NMSCR	106	0	1	96	96	4
NMSTR	106	144	0
NMSCL	106	144	0	96	96	5
NMTAP	106	288	3
NMTAP	107	0	2
NMHLD	107	48	2	48
NMTAP	107	96	0
NMHLD	107	144	0	48
NMTAP	107	192	7
NMHLD	107	240	7	48
NMTAP	107	288	5
NMSTR	108	0	2
NMSCL	108	0	2	96	96	7
NMSTR	108	144	6
NMSCL	108	144	6	96	96	3
NMTAP	108	288	1
NMSTR	109	0	1
NMSCL	109	0	1	96	96	6
NMSTR	109	144	5
NMSCL	109	144	5	96	96	2
NMTAP	109	288	0
NMTAP	110	0	1
NMHLD	110	48	1	48
NMTAP	110	96	3
NMHLD	110	144	3	48
NMTAP	110	192	4
NMHLD	110	240	4	48
NMTAP	110	288	6
NMTAP	111	0	6
NMTAP	111	0	7
NMTAP	111	96	4
NMTAP	111	96	5
NMTAP	111	192	2
NMTAP	111	192	3
NMTAP	111	288	0
NMSTR	111	288	1
BRSCR	111	288	1	96	576	0
NMTTP	112	0	0	C	1	M1
NMTAP	114	0	6
NMTAP	114	48	6
NMTAP	114	96	6
NMTAP	114	144	6
NMTAP	114	192	6
NMTAP	114	192	7
NMTAP	114	240	6
NMTAP	114	240	7
NMTAP	114	288	6
NMTAP	114	288	7
NMTAP	115	0	5
NMTAP	115	48	5
NMTAP	115	96	5
NMTAP	115	144	5
NMTAP	115	192	4
NMTAP	115	192	6
NMTAP	115	240	4
NMTAP	115	240	6
NMTAP	115	288	4
NMTAP	115	288	6
NMTAP	116	0	1
NMTAP	116	48	1
NMTAP	116	96	1
NMTAP	116	144	1
NMTAP	116	192	0
NMTAP	116	192	1
NMTAP	116	240	0
NMTAP	116	240	1
NMTAP	116	288	0
NMTAP	116	288	1
NMTAP	117	0	2
NMTAP	117	48	2
NMTAP	117	96	2
NMTAP	117	144	2
NMTAP	117	192	1
NMTAP	117	192	3
NMTAP	117	240	1
NMTAP	117	240	3
NMTAP	117	288	1
NMTAP	117	288	3
NMTAP	118	0	5
NMTAP	118	48	5
NMTAP	118	96	4
NMTAP	118	144	4
NMTAP	118	192	3
NMTAP	118	192	5
NMTAP	118	240	3
NMTAP	118	240	5
NMTAP	118	288	3
NMTAP	118	288	5
NMTAP	118	336	3
NMTAP	118	336	5
NMTAP	119	0	2
NMTAP	119	48	2
NMTAP	119	96	3
NMTAP	119	144	3
NMTAP	119	192	2
NMTAP	119	192	4
NMTAP	119	240	2
NMTAP	119	240	4
NMTAP	119	288	2
NMTAP	119	288	4
NMSTR	120	0	1
NMSI_	120	0	1	96	48	3
NMTAP	120	48	1
NMSTR	120	96	7
NMSI_	120	96	7	96	48	5
NMTAP	120	144	7
NMSTR	120	192	0
NMSI_	120	192	0	96	48	4
NMTAP	120	240	0
EXTAP	120	288	7
NMSTR	121	0	6
NMSI_	121	0	6	96	48	4
NMTAP	121	48	6
NMSTR	121	96	0
NMSI_	121	96	0	96	48	2
NMTAP	121	144	0
NMSTR	121	192	7
NMSI_	121	192	7	96	48	3
NMTAP	121	240	7
EXTAP	121	288	0
NMSTR	122	0	1
NMSI_	122	0	1	96	48	3
NMTAP	122	48	1
NMSTR	122	96	7
NMSI_	122	96	7	96	48	5
NMTAP	122	144	7
NMSTR	122	192	0
NMSI_	122	192	0	96	48	4
NMTAP	122	240	0
EXTAP	122	288	7
NMSTR	123	0	6
NMSI_	123	0	6	96	48	4
NMTAP	123	48	6
NMSTR	123	96	0
NMSI_	123	96	0	96	48	2
NMTAP	123	144	0
NMSTR	123	192	7
NMSI_	123	192	7	96	48	3
NMTAP	123	240	7
EXTAP	123	288	0
NMHLD	124	0	1	1344
NMHLD	126	0	5	576
NMHLD	128	0	6	96
NMTAP	128	96	4
NMTAP	128	144	3
NMTAP	128	192	2
NMTAP	128	240	2
NMTAP	128	288	3
NMTAP	128	336	1
NMTAP	129	0	5
NMTAP	129	48	5
NMTAP	129	96	4
NMTAP	129	144	6
NMTAP	129	192	3
NMTAP	129	240	3
NMTAP	129	288	2
NMTAP	129	288	4
NMHLD	130	0	1	96
NMTAP	130	96	3
NMTAP	130	144	4
NMTAP	130	192	5
NMTAP	130	240	5
NMTAP	130	288	4
NMTAP	130	336	6
NMTAP	131	0	2
NMTAP	131	48	2
NMTAP	131	96	3
NMTAP	131	144	1
NMTAP	131	192	4
NMTAP	131	240	4
NMTAP	131	288	3
NMTAP	131	288	5
NMHLD	132	0	6	96
NMTAP	132	96	7
NMTAP	132	144	0
NMTAP	132	192	1
NMTAP	132	240	1
NMTAP	132	288	3
NMTAP	132	336	2
NMTAP	133	0	6
NMTAP	133	48	6
NMTAP	133	96	4
NMTAP	133	144	5
NMTAP	133	192	3
NMTAP	133	240	3
NMTAP	133	288	2
NMTAP	133	288	4
NMHLD	134	0	1	96
NMTAP	134	96	0
NMTAP	134	144	7
NMTAP	134	192	6
NMTAP	134	240	6
NMTAP	134	288	4
NMTAP	134	336	5
NMTAP	135	0	1
NMTAP	135	48	1
NMTAP	135	96	3
NMTAP	135	144	2
NMTAP	135	192	4
NMTAP	135	240	4
NMSTR	135	288	3
NMSCL	135	288	3	96	384	4
NMTAP	135	288	5
NMTTP	136	0	0	C	1	M1
NMTTP	137	256	2	E	0	M1
NMTTP	138	0	3	E	0	M1
NMTTP	138	128	4	E	0	M1
NMTTP	138	256	5	E	0	M1
NMTTP	139	0	6	E	0	M1
NMTAP	140	0	5
NMTAP	140	24	4
NMTAP	140	48	5
NMTAP	140	144	2
NMTAP	140	168	3
NMTAP	140	192	2
BRTAP	140	288	0
BRTAP	140	288	7
NMTAP	141	0	2
NMTAP	141	24	3
NMTAP	141	48	2
NMTAP	141	144	5
NMTAP	141	168	4
NMTAP	141	192	5
BRTAP	141	288	0
BRTAP	141	288	7
BRTAP	142	0	6
NMTAP	142	64	5
EXTAP	142	128	4
BXTAP	142	192	3
NMTAP	142	256	2
EXTAP	142	320	1
BRHLD	143	0	0	48
BRHLD	143	0	7	48

T_REC_TAP	430
T_REC_BRK	14
T_REC_XTP	6
T_REC_BXX	1
T_REC_HLD	88
T_REC_XHO	0
T_REC_BHO	3
T_REC_BXH	0
T_REC_STR	44
T_REC_BST	0
T_REC_XST	0
T_REC_XBS	0
T_REC_TTP	35
T_REC_THO	0
T_REC_SLD	41
T_REC_BSL	3
T_REC_ALL	665
T_NUM_TAP	515
T_NUM_BRK	21
T_NUM_HLD	88
T_NUM_SLD	41
T_NUM_ALL	665
T_JUDGE_TAP	530
T_JUDGE_HLD	575
T_JUDGE_SLD	44
T_JUDGE_ALL	1149
TTM_EACHPAIRS	106
TTM_SCR_TAP	257500
TTM_SCR_BRK	54600
TTM_SCR_HLD	88000
TTM_SCR_SLD	61500
TTM_SCR_ALL	461600
TTM_SCR_S	445750
TTM_SCR_SS	459500
TTM_RAT_ACV	10045

