VERSION	0.00.00	1.04.00
FES_MODE	0
BPM_DEF	234.000	234.000	234.000	234.000
MET_DEF	4	4
RESOLUTION	384
CLK_DEF	384
COMPATIBLE_CODE	MA2

BPM	0	0	234.000
MET	0	0	4	4

NMTHO	8	0	0	3072	C	1	L1
NMTAP	18	0	1
NMTAP	18	192	1
NMTAP	19	0	2
NMTAP	19	192	2
NMTAP	20	0	3
NMTAP	20	192	3
NMTAP	21	0	4
NMTAP	21	0	5
NMTAP	22	0	6
NMTAP	22	192	6
NMTAP	23	0	5
NMTAP	23	192	5
NMTAP	24	0	4
NMTAP	24	192	4
NMTAP	25	0	2
NMTAP	25	0	3
NMTAP	26	0	2
NMTAP	26	96	2
NMTAP	26	192	2
NMTAP	27	0	3
NMTAP	27	96	3
NMTAP	27	192	3
NMTAP	28	0	4
NMTAP	28	96	4
NMTAP	28	192	4
BXTAP	29	0	4
BXTAP	29	0	5
BXTAP	29	144	4
BXTAP	29	144	5
NMTAP	30	0	5
NMTAP	30	96	5
NMTAP	30	192	5
NMTAP	31	0	4
NMTAP	31	96	4
NMTAP	31	192	4
NMTAP	32	0	3
NMTAP	32	96	3
NMTAP	32	192	3
BXTAP	33	0	2
BXTAP	33	0	3
BXTAP	33	144	2
BXTAP	33	144	3
NMTAP	34	0	2
NMTAP	34	96	2
NMTAP	34	192	1
NMTAP	34	288	1
NMTAP	35	0	0
NMTAP	35	96	0
NMTAP	35	192	6
NMTAP	35	192	7
NMTAP	36	0	5
NMTAP	36	96	5
NMTAP	36	192	6
NMTAP	36	288	6
NMTAP	37	0	7
NMTAP	37	96	7
NMTAP	37	192	0
NMTAP	37	192	1
NMTAP	38	0	2
NMTAP	38	96	2
NMTAP	38	192	1
NMTAP	38	288	1
NMTAP	39	0	0
NMTAP	39	96	0
NMTAP	39	192	6
NMTAP	39	192	7
NMTAP	40	0	5
NMTAP	40	96	5
NMTAP	40	192	6
NMTAP	40	288	6
NMTAP	41	0	7
NMTAP	41	96	7
NMTAP	41	192	0
NMTAP	41	192	1
NMTAP	42	0	1
NMTAP	42	96	1
NMTAP	42	192	0
NMTAP	42	192	1
NMTAP	43	0	2
NMTAP	43	96	2
NMTAP	43	192	2
NMTAP	43	192	3
NMTAP	44	0	3
NMTAP	44	96	3
NMTAP	44	192	3
NMTAP	44	192	4
BXTAP	45	0	4
BXTAP	45	0	5
BXTAP	45	144	4
BXTAP	45	144	5
NMTAP	46	0	6
NMTAP	46	96	6
NMTAP	46	192	6
NMTAP	46	192	7
NMTAP	47	0	5
NMTAP	47	96	5
NMTAP	47	192	4
NMTAP	47	192	5
NMTAP	48	0	4
NMTAP	48	96	4
NMTAP	48	192	3
NMTAP	48	192	4
BRTAP	49	0	2
BRTAP	49	0	3
NMHLD	50	0	1	384
NMHLD	51	0	2	384
NMHLD	52	0	3	384
NMTAP	53	0	4
NMHLD	54	0	6	384
NMHLD	55	0	5	384
NMHLD	56	0	4	384
NMTAP	57	0	3
NMHLD	58	0	2	384
NMHLD	59	0	1	384
NMHLD	60	0	0	384
NMTAP	61	0	7
NMHLD	62	0	5	384
NMHLD	63	0	6	384
NMHLD	64	0	7	384
NMTAP	65	0	0
NMTTP	66	0	1	B	0	L1
NMTTP	66	192	2	B	0	L1
NMTTP	67	0	3	B	0	L1
NMTTP	68	0	6	B	0	L1
NMTTP	68	192	5	B	0	L1
NMTTP	69	0	4	B	0	L1
NMTTP	70	0	0	B	0	L1
NMTTP	70	192	1	B	0	L1
NMTTP	71	0	2	B	0	L1
NMTTP	71	0	3	B	0	L1
NMTTP	72	0	7	B	0	L1
NMTTP	72	192	6	B	0	L1
NMTTP	73	0	4	B	0	L1
NMTTP	73	0	5	B	0	L1
NMTTP	74	0	0	B	0	L1
NMTTP	74	192	1	B	0	L1
NMTTP	75	0	2	B	0	L1
NMTTP	75	192	3	B	0	L1
NMTTP	76	0	4	B	0	L1
NMTTP	76	192	5	B	0	L1
NMTTP	77	0	6	B	0	L1
NMTTP	77	192	7	B	0	L1
NMTTP	78	0	0	C	1	L1
NMSTR	80	0	0
NMSI_	80	0	0	96	288	5
NMSTR	80	0	1
NMSI_	80	0	1	96	288	4
NMSTR	82	0	5
NMSI_	82	0	5	96	288	2
NMSTR	82	0	6
NMSI_	82	0	6	96	288	1
NMSTR	84	0	2
NMSI_	84	0	2	96	288	7
NMSTR	84	0	3
NMSI_	84	0	3	96	288	6
NMSTR	86	0	4
NMSI_	86	0	4	96	288	1
NMSTR	86	0	5
NMSI_	86	0	5	96	288	0
NMSTR	88	0	1
NMSI_	88	0	1	96	288	6
NMSTR	88	0	2
NMSI_	88	0	2	96	288	5
NMSTR	90	0	6
NMSI_	90	0	6	96	288	3
NMSTR	90	0	7
NMSI_	90	0	7	96	288	2
NMSTR	92	0	3
NMSI_	92	0	3	96	288	0
NMSTR	92	0	4
NMSI_	92	0	4	96	288	7
BRTAP	94	0	0
BRTAP	94	0	7
NMTAP	96	0	6
NMTAP	96	96	6
NMTAP	96	192	4
NMTAP	96	192	5
NMTAP	96	288	4
NMTAP	96	288	5
NMTAP	97	0	3
NMTAP	97	96	3
NMTAP	97	192	2
NMTAP	97	192	3
NMTAP	98	0	1
NMTAP	98	96	1
NMTAP	98	192	2
NMTAP	98	192	3
NMTAP	98	288	2
NMTAP	98	288	3
NMTAP	99	0	4
NMTAP	99	96	4
NMTAP	99	192	4
NMTAP	99	192	5
NMTAP	100	0	6
NMTAP	100	96	6
NMTAP	100	192	4
NMTAP	100	192	5
NMTAP	100	288	4
NMTAP	100	288	5
NMTAP	101	0	3
NMTAP	101	96	3
NMTAP	101	192	2
NMTAP	101	192	3
NMTAP	102	0	1
NMTAP	102	96	1
NMTAP	102	192	2
NMTAP	102	192	3
NMTAP	102	288	2
NMTAP	102	288	3
NMTAP	103	0	4
NMTAP	103	96	4
NMTAP	103	192	4
NMTAP	103	192	5
NMTAP	104	0	5
NMTAP	104	96	5
NMTAP	104	192	6
NMTAP	104	192	7
NMTAP	104	288	6
NMTAP	104	288	7
NMTAP	105	0	0
NMTAP	105	96	0
NMTAP	105	192	0
NMTAP	105	192	1
NMTAP	106	0	2
NMTAP	106	96	2
NMTAP	106	192	0
NMTAP	106	192	1
NMTAP	106	288	0
NMTAP	106	288	1
NMTAP	107	0	7
NMTAP	107	96	7
NMTAP	107	192	6
NMTAP	107	192	7
NMTAP	108	0	5
NMTAP	108	96	5
NMTAP	108	192	6
NMTAP	108	192	7
NMTAP	108	288	6
NMTAP	108	288	7
NMTAP	109	0	0
NMTAP	109	96	0
NMTAP	109	192	0
NMTAP	109	192	1
NMTAP	110	0	2
NMTAP	110	96	2
NMTAP	110	192	0
NMTAP	110	192	1
NMTAP	110	288	0
NMTAP	110	288	1
NMTAP	111	0	7
NMTAP	111	96	7
NMTAP	111	192	6
NMTAP	111	192	7
NMHLD	112	0	0	576
NMHLD	112	0	7	576
NMTAP	114	0	0
NMTAP	114	0	7
NMTAP	114	96	0
NMTAP	114	96	7
NMTAP	114	192	1
NMTAP	114	192	6
NMTAP	114	288	1
NMTAP	114	288	6
NMTAP	115	0	2
NMTAP	115	0	5
NMTAP	115	96	2
NMTAP	115	96	5
BRTAP	115	192	3
BRTAP	115	192	4
NMTAP	116	0	2
NMTAP	116	0	3
NMTAP	116	96	2
NMTAP	116	96	3
NMTAP	116	192	1
NMTAP	116	288	1
NMTAP	117	0	0
NMTAP	117	0	7
NMTAP	117	96	0
NMTAP	117	96	7
NMTAP	117	192	6
NMTAP	117	288	6
NMTAP	118	0	4
NMTAP	118	0	5
NMTAP	118	96	4
NMTAP	118	96	5
NMTAP	118	192	6
NMTAP	118	288	6
NMTAP	119	0	6
NMTAP	119	0	7
NMTAP	119	96	6
NMTAP	119	96	7
NMTAP	119	192	6
NMTAP	119	192	7
NMTAP	120	0	4
NMTAP	120	0	5
NMTAP	120	96	4
NMTAP	120	96	5
NMTAP	120	192	6
NMTAP	120	288	6
NMTAP	121	0	0
NMTAP	121	0	7
NMTAP	121	96	0
NMTAP	121	96	7
NMTAP	121	192	1
NMTAP	121	288	1
NMTAP	122	0	2
NMTAP	122	0	3
NMTAP	122	96	2
NMTAP	122	96	3
NMTAP	122	192	1
NMTAP	122	288	1
NMTAP	123	0	0
NMTAP	123	0	1
NMTAP	123	96	0
NMTAP	123	96	1
NMTAP	123	192	0
NMTAP	123	192	1
NMSTR	124	0	0
NMSCL	124	0	0	96	288	5
NMSTR	124	0	1
NMSCR	124	0	1	96	288	4
NMSTR	126	0	6
NMSCL	126	0	6	96	288	3
NMSTR	126	0	7
NMSCR	126	0	7	96	288	2
NMTAP	128	0	1
NMTAP	128	96	1
NMTAP	128	192	0
NMTAP	128	192	1
NMTAP	128	288	0
NMTAP	128	288	1
NMTAP	129	0	2
NMTAP	129	96	2
NMTAP	129	192	2
NMTAP	129	192	3
NMTAP	129	288	2
NMTAP	129	288	3
NMTAP	130	0	4
NMTAP	130	96	4
NMTAP	130	192	4
NMTAP	130	192	5
NMTAP	130	288	4
NMTAP	130	288	5
NMTAP	131	0	6
NMTAP	131	0	7
NMTAP	131	96	6
NMTAP	131	96	7
NMTAP	131	192	6
NMTAP	131	192	7
NMTAP	132	0	6
NMTAP	132	96	6
NMTAP	132	192	6
NMTAP	132	192	7
NMTAP	132	288	6
NMTAP	132	288	7
NMTAP	133	0	5
NMTAP	133	96	5
NMTAP	133	192	4
NMTAP	133	192	5
NMTAP	133	288	4
NMTAP	133	288	5
NMTAP	134	0	3
NMTAP	134	96	3
NMTAP	134	192	2
NMTAP	134	192	3
NMTAP	134	288	2
NMTAP	134	288	3
NMTAP	135	0	0
NMTAP	135	0	1
NMTAP	135	96	0
NMTAP	135	96	1
NMTAP	135	192	0
NMTAP	135	192	1
NMHLD	136	0	0	1152
NMHLD	136	0	7	1152
NMTAP	140	0	0
NMTAP	140	96	1
NMTAP	140	192	2
NMTAP	140	288	3
NMTAP	141	0	4
NMTAP	141	96	5
NMTAP	141	192	6
NMTAP	141	288	7
NMTAP	142	0	0
NMTAP	142	96	1
NMTAP	142	192	2
NMTAP	142	288	3
BRTAP	143	0	3
BRTAP	143	0	4

T_REC_TAP	294
T_REC_BRK	8
T_REC_XTP	0
T_REC_BXX	12
T_REC_HLD	16
T_REC_XHO	0
T_REC_BHO	0
T_REC_BXH	0
T_REC_STR	18
T_REC_BST	0
T_REC_XST	0
T_REC_XBS	0
T_REC_TTP	23
T_REC_THO	1
T_REC_SLD	18
T_REC_BSL	0
T_REC_ALL	390
T_NUM_TAP	335
T_NUM_BRK	20
T_NUM_HLD	17
T_NUM_SLD	18
T_NUM_ALL	390
T_JUDGE_TAP	355
T_JUDGE_HLD	232
T_JUDGE_SLD	18
T_JUDGE_ALL	605
TTM_EACHPAIRS	99
TTM_SCR_TAP	167500
TTM_SCR_BRK	52000
TTM_SCR_HLD	17000
TTM_SCR_SLD	27000
TTM_SCR_ALL	263500
TTM_SCR_S	253700
TTM_SCR_SS	261500
TTM_RAT_ACV	10076

