VERSION	0.00.00	1.04.00
FES_MODE	0
BPM_DEF	170.000	170.000	170.000	170.000
MET_DEF	4	4
RESOLUTION	384
CLK_DEF	384
COMPATIBLE_CODE	MA2

BPM	0	0	170.000
MET	0	0	4	4

EXTAP	2	0	4
EXTAP	2	0	5
NMTAP	2	48	4
NMTAP	2	96	3
NMTAP	2	96	5
NMTAP	2	144	3
NMTAP	2	192	2
NMTAP	2	192	5
NMTAP	2	288	4
NMTAP	2	288	5
NMTAP	2	336	4
NMTAP	3	0	3
NMTAP	3	0	5
NMTAP	3	48	3
NMTAP	3	96	2
NMTAP	3	96	5
NMSTR	3	192	4
NMSI_	3	192	4	96	48	1
NMTAP	3	192	5
NMTAP	3	288	5
NMTAP	4	0	2
NMTAP	4	0	3
NMTAP	4	48	3
NMTAP	4	96	2
NMTAP	4	96	4
NMTAP	4	144	4
NMTAP	4	192	2
NMTAP	4	192	5
NMTAP	4	288	2
NMTAP	4	288	3
NMTAP	4	336	3
NMTAP	5	0	2
NMTAP	5	0	4
NMTAP	5	48	4
NMTAP	5	96	2
NMTAP	5	96	5
NMSTR	5	192	3
NMSI_	5	192	3	96	48	6
NMTAP	5	240	2
NMTAP	5	288	1
NMTAP	5	336	0
EXTAP	6	0	6
EXTAP	6	0	7
NMTAP	6	48	7
NMTAP	6	96	0
NMTAP	6	96	6
NMTAP	6	144	0
NMTAP	6	192	1
NMTAP	6	192	6
NMTAP	6	288	6
NMTAP	6	288	7
NMTAP	6	336	7
NMTAP	7	0	0
NMTAP	7	0	6
NMTAP	7	48	0
NMTAP	7	96	1
NMTAP	7	96	6
NMTAP	7	192	6
NMSTR	7	192	7
NMSI_	7	192	7	96	48	2
NMTAP	7	288	6
NMTAP	8	0	0
NMTAP	8	0	1
NMTAP	8	48	0
NMTAP	8	96	1
NMTAP	8	96	7
NMTAP	8	144	7
NMTAP	8	192	1
NMTAP	8	192	6
NMTAP	8	288	0
NMTAP	8	288	1
NMTAP	8	336	0
BXTAP	9	0	1
BXTAP	9	0	7
BXTAP	9	72	3
BXTAP	9	72	4
BXTAP	9	144	0
BXTAP	9	144	6
NMTAP	9	192	6
NMTAP	9	216	5
NMTAP	9	240	4
NMTAP	9	264	3
NMTAP	9	288	2
NMTAP	9	312	1
NMTAP	9	336	0
NMTAP	9	360	7
EXSTR	10	0	6
NMSV_	10	0	6	96	96	4
NMTAP	10	192	3
NMTAP	10	336	0
NMTAP	10	336	7
NMTAP	11	96	0
NMSTR	11	96	1
NMSCR	11	96	1	96	96	4
NMHLD	11	192	5	96
NMTAP	12	0	6
NMTAP	12	0	7
NMTAP	12	48	6
NMSTR	12	48	7
NMSI_	12	48	7	96	48	2
NMTAP	12	192	3
NMTAP	12	336	3
NMTAP	12	336	4
NMTAP	13	96	4
NMSTR	13	96	5
NMSCR	13	96	5	96	96	0
NMHLD	13	192	1	96
NMTAP	14	0	2
NMTAP	14	0	3
NMTAP	14	48	2
NMSTR	14	48	3
NMSI_	14	48	3	96	48	6
NMTAP	14	192	7
NMTAP	14	336	0
NMTAP	14	336	7
NMTAP	15	96	0
NMSTR	15	96	1
NMSCR	15	96	1	96	96	4
NMHLD	15	192	5	96
NMTAP	16	0	6
NMTAP	16	0	7
NMSTR	16	48	6
NMSI_	16	48	6	96	48	3
NMTAP	16	48	7
NMTAP	16	192	2
NMTAP	16	336	3
NMTAP	16	336	4
NMTAP	17	96	5
NMTAP	17	96	6
NMTAP	17	192	0
NMTAP	17	216	7
NMTAP	17	240	0
NMTAP	17	264	7
NMTAP	17	288	0
NMTAP	17	312	6
NMTAP	17	336	0
EXTAP	18	0	1
EXTAP	18	0	5
NMTAP	18	96	2
NMHLD	18	96	3	96
NMTAP	18	144	1
NMHLD	18	192	0	96
NMTAP	18	240	2
NMHLD	18	288	3	96
NMTAP	18	336	1
NMSTR	19	0	0
NMSI_	19	0	0	96	48	5
NMHLD	19	96	6	96
NMSTR	19	192	4
NMSI_	19	192	4	96	48	1
NMTAP	19	288	0
NMTAP	20	0	0
NMTAP	20	0	7
NMTAP	20	96	6
NMHLD	20	96	7	96
NMTAP	20	144	5
NMHLD	20	192	4	96
NMTAP	20	240	6
NMHLD	20	288	7	96
NMTAP	20	336	5
NMSTR	21	0	4
NMSI_	21	0	4	96	48	1
NMHLD	21	96	3	96
NMSTR	21	192	0
NMSI_	21	192	0	96	48	5
NMTAP	21	288	1
NMSTR	22	0	0
NMSV_	22	0	0	96	48	3
NMTAP	22	0	4
NMTAP	22	96	5
NMTAP	22	144	6
NMHLD	22	192	2	192
NMSTR	22	192	7
NMSCL	22	192	7	96	96	0
NMTAP	23	96	1
NMTAP	23	96	7
NMTAP	23	144	0
NMTAP	23	144	6
NMHLD	23	192	5	144
NMTAP	23	192	7
NMTAP	23	288	6
NMTAP	23	336	4
NMSTR	24	0	3
NMSV_	24	0	3	96	192	0
NMSTR	24	0	5
NMSV_	24	0	5	96	192	0
NMSTR	25	0	2
NMSI_	25	0	2	96	48	6
NMTAP	25	0	3
NMTAP	25	96	5
NMTAP	25	192	4
NMTAP	25	216	3
NMTAP	25	240	4
NMTAP	25	264	3
NMTAP	25	288	4
NMTAP	25	312	2
NMTAP	25	336	4
EXTAP	26	0	1
EXHLD	26	0	5	192
NMHLD	26	192	4	64
NMHLD	26	256	3	64
NMHLD	26	320	2	64
NMSTR	27	0	1
NMSCL	27	0	1	96	192	5
NMSTR	27	192	3
BRSI_	27	192	3	96	48	7
NMTAP	28	0	0
NMHLD	28	0	6	192
NMTAP	28	192	2
NMHLD	28	240	2	72
NMHLD	28	312	0	72
NMSTR	29	0	6
NMSCL	29	0	6	96	192	1
NMSTR	29	96	7
BRSXR	29	96	7	96	96	7
NMSTR	30	0	6
NMSLL	30	0	6	96	96	2
NMTAP	30	96	0
NMSTR	30	192	7
NMSLR	30	192	7	96	96	3
NMTAP	30	288	4
NMSTR	31	0	5
NMSLR	31	0	5	96	96	1
NMTAP	31	96	3
NMSTR	31	192	4
NMSLL	31	192	4	96	96	0
NMTAP	31	288	7
NMHLD	32	0	6	192
NMHLD	32	192	5	64
NMHLD	32	256	4	64
NMHLD	32	320	3	64
EXTAP	33	0	2
EXTAP	33	72	0
EXTAP	33	72	7
EXTAP	33	144	4
EXTAP	33	144	5
NMTAP	33	192	1
NMTAP	33	216	3
NMTAP	33	240	1
NMTAP	33	264	3
NMTAP	33	288	2
NMTAP	33	312	4
NMTAP	33	336	2
EXSTR	34	0	3
NMSXR	34	0	3	96	192	4
EXTAP	34	0	6
NMTAP	34	192	5
NMTAP	34	256	6
NMTAP	34	320	7
NMHLD	35	0	5	96
NMSTR	35	0	7
NMSXL	35	0	7	96	192	6
NMSTR	35	192	5
NMSI_	35	192	5	96	48	1
NMSTR	36	0	4
NMSXL	36	0	4	96	192	3
NMTAP	36	192	2
NMTAP	36	256	1
NMTAP	36	320	0
NMSTR	37	0	0
NMSXR	37	0	0	96	192	1
NMSTR	37	0	4
NMSXR	37	0	4	96	192	5
NMTAP	38	0	3
NMHLD	38	48	3	48
NMTAP	38	96	5
NMHLD	38	144	5	48
NMTAP	38	192	7
NMHLD	38	240	7	48
NMTAP	38	288	1
NMHLD	38	336	1	48
NMTAP	39	0	2
NMHLD	39	48	2	48
NMTAP	39	96	0
NMHLD	39	144	0	48
NMTAP	39	192	6
NMHLD	39	240	6	48
NMTAP	39	288	4
NMHLD	39	336	4	48
BRTAP	40	0	2
BRTAP	40	64	3
BRTAP	40	64	5
BRTAP	40	128	1
BRTAP	40	128	6
BRTAP	40	192	4
BRTAP	40	192	5
BRTAP	40	256	2
BRTAP	40	256	3
BRTAP	40	320	0
BRTAP	40	320	7
NMSTR	41	0	1
NMSLL	41	0	1	96	192	3
NMSTR	41	0	6
NMSLR	41	0	6	96	192	4
EXSTR	42	0	1
NMSI_	42	0	1	96	48	4
EXSTR	42	0	5
NMSI_	42	0	5	96	48	0
NMTAP	42	96	1
NMTAP	42	96	5
NMTAP	42	192	3
NMSTR	42	192	7
NMSI_	42	192	7	96	48	4
NMTAP	42	264	1
NMTAP	42	288	7
NMTAP	42	336	0
NMSTR	43	0	3
NMSI_	43	0	3	96	48	6
NMSTR	43	0	7
NMSI_	43	0	7	96	48	2
NMTAP	43	96	3
NMTAP	43	96	7
NMSTR	43	192	1
NMSI_	43	192	1	96	48	6
NMTAP	43	192	5
NMTAP	43	264	3
NMTAP	43	288	1
NMTAP	43	336	2
NMSTR	44	0	3
NMSUR	44	0	3	96	48	7
NMSTR	44	0	7
NMSUR	44	0	7	96	48	3
NMTAP	44	96	3
NMTAP	44	96	7
NMSTR	44	192	0
NMSUL	44	192	0	96	48	4
NMTAP	44	192	4
NMTAP	44	264	3
NMTAP	44	288	0
NMTAP	44	336	2
NMSTR	45	0	1
NMSCR	45	0	1	96	48	5
NMSTR	45	48	5
NMSCR	45	48	5	96	48	1
NMTAP	45	240	3
NMTAP	45	288	2
NMTAP	45	288	4
NMTAP	46	0	4
NMTAP	46	0	5
NMTAP	46	48	2
NMTAP	46	72	3
NMTAP	46	120	1
NMTAP	46	144	0
BRTAP	46	192	0
BRSTR	46	192	7
NMSI_	46	192	7	96	48	4
NMTAP	46	288	6
NMTAP	46	288	7
NMTAP	47	0	2
NMTAP	47	0	3
NMTAP	47	48	5
NMTAP	47	72	4
NMTAP	47	120	6
NMTAP	47	144	7
BRSTR	47	192	0
NMSI_	47	192	0	96	48	3
BRTAP	47	192	7
NMTAP	47	288	0
NMTAP	47	288	1
NMSTR	48	0	2
NMSSR	48	0	2	96	96	6
NMSTR	48	192	5
NMSV_	48	192	5	96	48	2
NMTAP	48	288	4
NMTAP	48	288	5
BRTAP	49	0	0
BRTAP	49	0	1
BRTAP	49	72	6
BRTAP	49	72	7
BRTAP	49	144	2
BRTAP	49	144	5
NMTAP	49	192	3
NMTAP	49	216	4
NMTAP	49	240	3
NMTAP	49	264	4
NMTAP	49	288	1
NMTAP	49	312	0
NMTAP	49	336	1
EXSTR	50	0	2
NMSI_	50	0	2	96	48	7
EXSTR	50	0	6
NMSI_	50	0	6	96	48	3
NMTAP	50	96	2
NMTAP	50	96	6
NMSTR	50	192	0
NMSI_	50	192	0	96	48	3
NMTAP	50	192	4
NMTAP	50	264	6
NMTAP	50	288	0
NMTAP	50	336	7
NMSTR	51	0	0
NMSI_	51	0	0	96	48	5
NMSTR	51	0	4
NMSI_	51	0	4	96	48	1
NMTAP	51	96	0
NMTAP	51	96	4
NMTAP	51	192	2
NMSTR	51	192	6
NMSI_	51	192	6	96	48	1
NMTAP	51	264	4
NMTAP	51	288	6
NMTAP	51	336	5
NMSTR	52	0	0
NMSUL	52	0	0	96	48	4
NMSTR	52	0	4
NMSUL	52	0	4	96	48	0
NMTAP	52	96	0
NMTAP	52	96	4
NMTAP	52	192	3
NMSTR	52	192	7
NMSUR	52	192	7	96	48	3
NMTAP	52	264	4
NMTAP	52	288	7
NMTAP	52	336	5
NMSTR	53	0	6
NMSCL	53	0	6	96	48	2
NMSTR	53	48	2
NMSCL	53	48	2	96	48	6
NMTAP	53	240	0
NMTAP	53	240	5
NMTAP	53	288	1
NMTAP	53	288	6
NMTAP	53	336	2
NMTAP	53	336	7
BRTAP	54	0	0
BRTAP	54	0	3
BRTAP	54	72	1
BRTAP	54	72	7
BRTAP	54	144	0
BRTAP	54	144	6
BRTAP	54	192	4
BRTAP	54	192	7
BRTAP	54	264	0
BRTAP	54	264	6
BRTAP	54	336	1
BRTAP	54	336	7
BRTAP	55	0	0
BRTAP	55	0	3
BRTAP	55	72	1
BRTAP	55	72	7
BRTAP	55	144	0
BRTAP	55	144	6
NMTAP	55	192	5
NMTAP	55	216	4
NMTAP	55	240	6
NMTAP	55	264	3
NMTAP	55	288	5
NMTAP	55	312	4
NMTAP	55	336	6
NMSTR	56	0	2
NMSI_	56	0	2	96	48	7
NMSTR	56	48	3
NMSI_	56	48	3	96	48	6
NMTAP	56	96	2
NMTAP	56	144	3
NMSTR	56	192	0
NMSV_	56	192	0	96	48	3
NMTAP	56	264	7
NMTAP	56	288	0
NMTAP	56	336	6
NMTAP	56	360	5
EXSTR	57	0	2
NMSI_	57	0	2	96	48	7
EXSTR	57	0	4
NMSI_	57	0	4	96	48	7
NMHLD	57	192	0	32
NMHLD	57	192	1	32
NMHLD	57	256	2	32
NMHLD	57	256	7	32
NMHLD	57	320	3	32
NMHLD	57	320	6	32
BXHLD	58	0	4	768
BXHLD	58	0	5	960
NMSTR	60	192	3
NMSF_	60	192	3	96	384	7
EXSTR	62	0	2
BRSCL	62	0	2	96	576	5
NMHLD	62	144	4	336
NMTAP	63	192	3
NMTAP	63	288	3
CNSCR	63	288	5	0	672	2
NMHLD	64	0	3	288
NMTHO	65	0	0	192	C	0	M1
EXSTR	66	0	5
NMSCR	66	0	5	96	576	2
NMHLD	66	192	3	96
NMHLD	67	0	4	96
NMHLD	67	192	3	96
CNSCL	67	288	2	0	672	5
NMHLD	68	0	4	288
NMTHO	69	0	0	192	C	0	M1
NMTAP	70	0	1
NMTAP	70	0	4
NMTAP	70	48	2
NMTAP	70	72	3
NMTAP	70	96	2
NMTAP	70	144	1
NMTAP	70	144	4
NMTAP	70	192	2
NMTAP	70	216	3
NMTAP	70	240	2
NMTAP	70	288	1
NMTAP	70	288	4
NMTAP	70	336	2
NMTAP	70	360	3
NMTAP	71	0	2
NMTAP	71	48	1
NMTAP	71	48	4
NMTAP	71	96	2
NMTAP	71	120	3
NMTAP	71	144	2
NMTAP	71	192	5
NMTAP	71	216	4
NMTAP	71	240	5
NMTAP	71	288	2
NMTAP	71	312	3
NMTAP	71	336	2
NMTAP	72	0	3
NMTAP	72	0	6
NMTAP	72	48	5
NMTAP	72	72	4
NMTAP	72	96	5
NMTAP	72	144	3
NMTAP	72	144	6
NMTAP	72	192	5
NMTAP	72	216	4
NMTAP	72	240	5
NMTAP	72	288	3
NMTAP	72	288	6
NMTAP	72	336	5
NMTAP	72	360	4
NMTAP	73	0	5
NMTAP	73	48	3
NMTAP	73	48	6
NMTAP	73	96	5
NMTAP	73	120	4
NMTAP	73	144	5
NMTAP	73	192	2
NMTAP	73	216	3
NMTAP	73	240	2
NMTAP	73	288	5
NMTAP	73	312	4
NMTAP	73	336	5
NMTAP	74	0	1
NMTAP	74	0	7
NMTAP	74	48	0
NMTAP	74	72	0
NMTAP	74	96	0
NMTAP	74	144	1
NMTAP	74	144	7
NMTAP	74	192	0
NMTAP	74	216	0
NMTAP	74	240	0
NMTAP	74	288	1
NMTAP	74	288	7
NMTAP	74	336	0
NMTAP	74	360	0
NMTAP	75	0	0
NMTAP	75	48	1
NMTAP	75	48	7
NMTAP	75	96	0
NMTAP	75	120	0
NMTAP	75	144	0
NMTAP	75	192	7
NMTAP	75	216	7
NMTAP	75	240	7
NMTAP	75	288	0
NMTAP	75	312	0
NMTAP	75	336	0
EXHLD	76	0	1	32
EXTAP	76	0	4
NMHLD	76	64	2	32
NMTAP	76	64	5
NMHLD	76	128	3	32
NMTAP	76	128	6
EXTAP	76	192	2
EXHLD	76	192	7	32
NMTAP	76	256	1
NMHLD	76	256	6	32
NMTAP	76	320	0
NMHLD	76	320	5	32
EXHLD	77	0	1	32
EXTAP	77	0	3
NMHLD	77	64	0	32
NMHLD	77	64	7	32
NMTAP	77	128	4
NMHLD	77	128	6	32
EXTAP	77	192	0
EXTAP	77	192	7
BRTAP	77	288	2
BRTAP	77	288	3
EXTAP	78	0	5
NMTAP	78	24	4
NMTAP	78	48	5
NMTAP	78	72	4
NMTAP	78	96	6
NMTAP	78	120	4
NMTAP	78	144	6
NMTAP	78	168	4
NMTAP	78	192	7
NMTAP	78	216	4
NMTAP	78	240	7
NMTAP	78	264	4
NMTAP	78	288	0
NMTAP	78	312	4
NMTAP	78	336	0
NMTAP	78	360	4
NMTAP	79	0	1
NMTAP	79	24	4
NMTAP	79	48	1
NMTAP	79	72	4
NMTAP	79	96	0
NMTAP	79	120	4
NMTAP	79	144	0
NMTAP	79	168	4
NMTAP	79	192	7
NMTAP	79	216	4
NMTAP	79	240	7
NMTAP	79	264	4
NMHLD	79	288	6	48
NMTAP	79	336	1
NMTAP	80	0	2
NMTAP	80	24	3
NMTAP	80	48	2
NMTAP	80	72	3
NMTAP	80	96	1
NMTAP	80	120	3
NMTAP	80	144	1
NMTAP	80	168	3
NMTAP	80	192	0
NMTAP	80	216	3
NMTAP	80	240	0
NMTAP	80	264	3
NMTAP	80	288	7
NMTAP	80	312	3
NMTAP	80	336	7
NMTAP	80	360	3
NMTAP	81	0	6
NMTAP	81	24	3
NMTAP	81	48	6
NMTAP	81	72	3
NMTAP	81	96	7
NMTAP	81	120	3
NMTAP	81	144	7
NMTAP	81	168	3
NMTAP	81	192	0
NMTAP	81	216	3
NMTAP	81	240	0
NMTAP	81	264	3
NMHLD	81	288	1	48
NMTAP	81	336	6
EXTAP	82	0	5
NMTAP	82	24	4
NMTAP	82	48	5
NMTAP	82	72	4
NMTAP	82	96	6
NMTAP	82	120	4
NMTAP	82	144	6
NMTAP	82	168	4
NMTAP	82	192	7
NMTAP	82	216	4
NMTAP	82	240	7
NMTAP	82	264	4
NMTAP	82	288	0
NMTAP	82	336	0
NMTAP	82	336	1
NMTAP	83	0	2
NMTAP	83	24	3
NMTAP	83	48	2
NMTAP	83	72	3
NMTAP	83	96	1
NMTAP	83	120	3
NMTAP	83	144	1
NMTAP	83	168	3
NMTAP	83	192	0
NMTAP	83	216	3
NMTAP	83	240	0
NMTAP	83	264	3
NMTAP	83	288	7
NMTAP	83	336	6
NMTAP	83	336	7
NMTTP	84	0	5	A	0	M1
NMTTP	84	24	4	A	0	M1
NMTTP	84	48	6	E	0	M1
NMTTP	84	72	4	E	0	M1
NMTTP	84	96	6	B	0	M1
NMTTP	84	120	3	B	0	M1
NMTTP	84	144	7	B	0	M1
NMTTP	84	168	2	B	0	M1
NMTAP	84	192	0
NMTAP	84	216	1
NMTAP	84	240	0
NMTAP	84	264	1
NMTAP	84	288	0
NMTAP	84	312	1
NMTAP	84	336	0
NMTAP	84	360	1
BRTAP	85	0	0
BRTAP	85	72	6
BRTAP	85	72	7
BRTAP	85	144	3
BRTAP	85	144	4
NMTAP	85	192	2
NMTAP	85	216	3
NMTAP	85	240	2
NMTAP	85	264	3
NMTAP	85	288	1
NMTAP	85	312	4
NMTAP	85	336	1
BXSTR	86	0	0
NMSCR	86	0	0	96	192	7
BXHLD	86	0	5	288
BXHLD	87	0	3	288
BXSTR	87	0	7
NMSCL	87	0	7	96	192	0
BXSTR	88	0	2
NMSCL	88	0	2	96	192	3
BXHLD	88	0	7	288
BXTAP	89	0	1
BXSTR	89	0	6
NMSI_	89	0	6	96	48	2
NMTAP	89	96	3
BXSTR	89	144	3
NMSCL	89	144	3	96	48	0
NMTAP	89	240	7
NMTAP	89	256	6
NMTAP	89	272	5
NMTAP	89	288	4
BXHLD	90	0	6	32
NMHLD	90	64	5	32
NMHLD	90	64	7	32
NMTAP	90	128	4
NMTAP	90	160	4
NMHLD	90	192	3	32
NMHLD	90	256	2	32
NMHLD	90	256	4	32
NMTAP	90	320	1
NMTAP	90	352	1
BXHLD	91	0	0	32
NMHLD	91	64	1	32
NMHLD	91	64	7	32
NMTAP	91	128	2
NMTAP	91	160	2
NMHLD	91	192	3	32
NMHLD	91	256	2	32
NMHLD	91	256	4	32
NMTAP	91	320	5
NMTAP	91	352	5
BXSTR	92	0	4
NMSI_	92	0	4	96	48	0
NMTAP	92	64	6
NMTAP	92	128	7
NMTAP	92	160	7
NMSTR	92	192	1
NMSI_	92	192	1	96	48	6
NMTAP	92	192	7
NMTAP	92	256	6
NMTAP	92	320	5
NMTAP	92	352	5
BXTAP	93	0	4
BXTAP	93	0	5
BXTAP	93	72	1
BXTAP	93	72	3
BXTAP	93	144	0
BXTAP	93	144	7
NMTAP	93	192	1
NMTAP	93	192	6
NMTAP	93	216	2
NMTAP	93	240	3
NMTAP	93	264	4
NMTAP	93	288	5
NMTAP	93	312	6
NMTAP	93	336	7
NMTAP	93	360	0
EXSTR	94	0	1
NMSI_	94	0	1	96	48	4
EXSTR	94	0	5
NMSI_	94	0	5	96	48	0
NMTAP	94	96	1
NMTAP	94	96	5
NMTAP	94	192	3
NMSTR	94	192	7
NMSV_	94	192	7	96	48	4
NMTAP	94	264	1
NMTAP	94	288	7
NMTAP	94	336	0
NMSTR	95	0	3
NMSI_	95	0	3	96	48	6
NMSTR	95	0	7
NMSI_	95	0	7	96	48	2
NMTAP	95	96	3
NMTAP	95	96	7
NMSTR	95	192	1
NMSV_	95	192	1	96	48	6
NMTAP	95	192	5
NMTAP	95	264	3
NMTAP	95	288	1
NMTAP	95	336	2
NMSTR	96	0	3
NMSUR	96	0	3	96	48	7
NMSTR	96	0	7
NMSUR	96	0	7	96	48	3
NMTAP	96	96	3
NMTAP	96	96	7
NMSTR	96	192	0
NMSUL	96	192	0	96	48	4
NMTAP	96	192	4
NMTAP	96	264	3
NMTAP	96	288	0
NMTAP	96	336	2
NMSTR	97	0	1
NMSCR	97	0	1	96	48	5
NMSTR	97	48	5
NMSCR	97	48	5	96	48	1
NMTAP	97	240	2
NMTAP	97	240	7
NMTAP	97	288	1
NMTAP	97	288	6
NMTAP	97	336	0
NMTAP	97	336	5
BRTAP	98	0	4
BRTAP	98	0	7
BRTAP	98	72	0
BRTAP	98	72	6
BRTAP	98	144	1
BRTAP	98	144	7
BRTAP	98	192	0
BRTAP	98	192	3
BRTAP	98	264	1
BRTAP	98	264	7
BRTAP	98	336	0
BRTAP	98	336	6
BRTAP	99	0	4
BRTAP	99	0	7
BRTAP	99	72	0
BRTAP	99	72	6
BRTAP	99	144	1
BRTAP	99	144	7
NMTAP	99	192	2
NMTAP	99	216	3
NMTAP	99	240	1
NMTAP	99	264	4
NMTAP	99	288	2
NMTAP	99	312	3
NMTAP	99	336	1
NMSTR	100	0	5
NMSI_	100	0	5	96	48	0
NMSTR	100	48	4
NMSI_	100	48	4	96	48	1
NMTAP	100	96	5
NMTAP	100	144	4
NMSTR	100	192	7
NMSV_	100	192	7	96	48	4
NMTAP	100	264	0
NMTAP	100	288	7
NMTAP	100	336	1
NMTAP	100	360	2
EXSTR	101	0	3
NMSI_	101	0	3	96	48	0
EXSTR	101	0	5
NMSI_	101	0	5	96	48	0
NMHLD	101	192	6	32
NMHLD	101	192	7	32
NMHLD	101	256	0	32
NMHLD	101	256	5	32
NMHLD	101	320	1	32
NMHLD	101	320	4	32
EXTAP	102	0	2
EXTAP	102	0	3
NMTAP	102	64	5
NMTAP	102	96	5
NMTAP	102	128	4
NMTAP	102	160	4
NMTAP	102	192	3
NMTAP	102	192	6
NMTAP	102	256	2
NMTAP	102	288	2
NMTAP	102	320	3
NMTAP	102	352	3
EXTAP	103	0	1
EXTAP	103	0	4
NMTAP	103	64	6
NMTAP	103	96	6
NMTAP	103	128	7
NMTAP	103	160	7
NMTAP	103	192	0
NMTAP	103	192	5
NMTAP	103	256	1
NMTAP	103	288	1
NMTAP	103	320	0
NMTAP	103	352	0
EXSTR	104	0	2
NMSUL	104	0	2	96	192	1
EXSTR	104	0	7
NMSLL	104	0	7	96	192	3
EXSTR	105	0	4
NMSXL	105	0	4	96	192	7
NMSTR	105	192	0
NMSCR	105	192	0	96	48	3
BRTAP	106	0	2
BRTAP	106	0	6
NMTAP	106	64	5
NMTAP	106	96	5
NMTAP	106	128	5
NMTAP	106	160	5
BRTAP	106	192	4
BRTAP	106	192	6
NMTAP	106	256	2
NMTAP	106	288	2
NMTAP	106	320	2
NMTAP	106	352	2
BRTAP	107	0	1
BRTAP	107	0	3
NMTAP	107	64	4
NMTAP	107	96	2
NMTAP	107	128	2
NMTAP	107	160	2
BRTAP	107	192	6
NMTAP	107	224	6
NMTAP	107	256	6
NMTAP	107	288	0
NMTAP	107	288	7
NMTAP	107	320	0
NMTAP	107	320	7
NMTAP	107	352	0
NMTAP	107	352	7
BRTAP	108	0	1
BRTAP	108	0	6

T_REC_TAP	536
T_REC_BRK	71
T_REC_XTP	24
T_REC_BXX	13
T_REC_HLD	69
T_REC_XHO	4
T_REC_BHO	0
T_REC_BXH	7
T_REC_STR	71
T_REC_BST	2
T_REC_XST	17
T_REC_XBS	6
T_REC_TTP	8
T_REC_THO	2
T_REC_SLD	93
T_REC_BSL	3
T_REC_ALL	926
T_NUM_TAP	656
T_NUM_BRK	102
T_NUM_HLD	75
T_NUM_SLD	93
T_NUM_ALL	926
T_JUDGE_TAP	748
T_JUDGE_HLD	190
T_JUDGE_SLD	96
T_JUDGE_ALL	1034
TTM_EACHPAIRS	188
TTM_SCR_TAP	328000
TTM_SCR_BRK	265200
TTM_SCR_HLD	75000
TTM_SCR_SLD	139500
TTM_SCR_ALL	807700
TTM_SCR_S	773600
TTM_SCR_SS	797500
TTM_RAT_ACV	10127

