VERSION	0.00.00	1.04.00
FES_MODE	0
BPM_DEF	170.000	170.000	170.000	170.000
MET_DEF	4	4
RESOLUTION	384
CLK_DEF	384
COMPATIBLE_CODE	MA2

BPM	0	0	170.000
MET	0	0	4	4

NMTAP	2	0	3
NMTAP	2	0	6
NMTAP	2	96	5
NMTAP	2	144	5
NMTAP	2	192	4
NMTAP	2	288	1
NMTAP	2	288	4
NMTAP	3	0	2
NMTAP	3	48	2
NMTAP	3	96	3
NMTAP	3	192	0
NMTAP	3	192	1
NMTAP	3	288	6
NMTAP	3	288	7
NMTAP	4	0	4
NMTAP	4	0	5
NMTAP	4	96	2
NMTAP	4	144	2
NMTAP	4	192	3
NMTAP	4	288	1
NMTAP	4	288	4
NMTAP	5	0	5
NMTAP	5	48	5
NMTAP	5	96	4
NMTAP	5	192	6
NMTAP	5	192	7
NMTAP	5	288	0
NMTAP	5	288	1
BXTAP	6	0	2
BXTAP	6	0	3
NMTAP	6	96	5
NMTAP	6	144	5
NMTAP	6	192	4
NMTAP	6	192	6
NMTAP	6	288	0
NMTAP	6	288	7
NMTAP	7	0	2
NMTAP	7	48	2
NMTAP	7	96	1
NMTAP	7	96	3
NMTAP	7	192	0
NMTAP	7	192	7
NMTAP	7	288	4
NMTAP	7	288	5
NMTAP	8	0	2
NMTAP	8	0	3
NMTAP	8	96	1
NMTAP	8	144	1
NMTAP	8	192	3
NMTAP	8	288	1
NMTAP	8	288	3
EXTAP	9	0	2
EXTAP	9	0	4
EXTAP	9	72	3
EXTAP	9	72	5
EXTAP	9	144	2
EXTAP	9	144	6
BXTAP	9	192	2
BXTAP	9	192	6
NMSTR	10	0	5
NMSCL	10	0	5	96	192	2
NMSTR	11	0	1
NMSUR	11	0	1	96	192	5
NMSTR	12	0	6
NMSUL	12	0	6	96	192	2
NMHLD	13	0	1	192
NMHLD	13	192	2	192
NMSTR	14	0	3
NMSCL	14	0	3	96	192	7
NMSTR	15	0	6
NMSCL	15	0	6	96	192	2
NMSTR	16	0	1
NMSUR	16	0	1	96	192	6
BRHLD	17	0	7	288
NMTAP	17	192	1
NMTAP	17	288	1
NMTAP	18	0	2
NMTAP	18	0	6
NMHLD	18	96	5	96
NMTAP	18	192	4
NMHLD	18	288	2	96
NMTAP	19	0	3
NMTAP	19	96	1
NMTAP	19	96	4
NMTAP	19	192	2
NMTAP	19	192	3
NMTAP	19	288	0
NMHLD	20	0	1	96
NMTAP	20	96	3
NMHLD	20	192	6	96
NMTAP	20	288	4
NMTAP	21	0	3
NMTAP	21	0	7
NMTAP	21	96	3
NMTAP	21	96	7
NMTAP	21	192	2
NMTAP	21	288	1
NMHLD	22	0	1	96
NMTAP	22	0	4
NMHLD	22	96	3	96
NMTAP	22	192	2
NMTAP	22	288	1
NMTAP	22	288	4
NMHLD	23	0	6	96
NMTAP	23	96	4
NMTAP	23	192	4
NMTAP	23	288	3
NMTAP	23	288	5
NMSTR	24	0	2
NMSV_	24	0	2	96	192	7
NMSTR	24	0	4
NMSV_	24	0	4	96	192	7
BXHLD	25	0	0	288
NMTAP	25	192	7
NMTAP	25	240	7
NMTAP	25	288	7
EXHLD	26	0	1	576
EXTAP	26	0	6
NMTTP	26	192	1	E	0	M1
NMTTP	26	288	2	E	0	M1
NMTTP	27	0	3	E	0	M1
NMTAP	27	192	7
NMTAP	27	288	7
BXHLD	28	0	6	288
BXTAP	28	0	7
NMTAP	28	192	0
NMSTR	28	288	0
BRSXL	28	288	0	96	192	0
NMHLD	30	0	6	96
NMHLD	30	0	7	96
NMHLD	30	192	5	96
NMHLD	30	192	6	96
NMHLD	31	0	4	96
NMHLD	31	0	5	96
NMTAP	31	192	3
NMSTR	31	288	2
NMSCL	31	288	2	96	96	7
NMSTR	31	288	3
NMSCR	31	288	3	96	96	6
NMSTR	32	288	0
NMSCL	32	288	0	96	96	5
NMSTR	32	288	1
NMSCR	32	288	1	96	96	4
NMTAP	33	288	3
NMTAP	33	288	4
NMHLD	34	0	2	576
NMTTP	34	192	3	E	0	M1
NMTTP	34	288	2	E	0	M1
NMTTP	35	0	1	E	0	M1
NMTAP	35	192	7
NMTAP	35	288	7
BXTAP	36	0	4
BXHLD	36	0	6	288
NMTAP	36	192	3
NMSTR	36	288	3
NMSI_	36	288	3	96	96	7
NMTAP	37	192	6
NMSTR	37	288	1
NMSI_	37	288	1	96	96	5
NMTAP	37	288	7
NMSTR	38	96	6
NMSI_	38	96	6	96	96	2
NMSTR	38	288	0
NMSI_	38	288	0	96	96	4
NMTAP	39	96	5
NMTAP	39	192	3
NMTAP	39	192	5
NMTAP	39	288	3
NMTAP	39	288	5
BXTAP	40	0	3
BXTAP	40	64	2
BXTAP	40	64	4
BXTAP	40	128	1
BXTAP	40	128	5
BXTAP	40	192	0
BXTAP	40	256	1
BXTAP	40	256	7
BXTAP	40	320	2
BXTAP	40	320	6
BXTAP	41	0	3
BXTAP	41	0	5
NMSTR	41	192	4
NMSI_	41	192	4	96	48	0
NMSTR	41	192	5
NMSI_	41	192	5	96	48	0
BXTAP	42	0	1
BXTAP	42	0	7
NMTAP	42	96	0
NMTAP	42	96	1
NMHLD	42	192	6	72
NMTAP	42	192	7
NMHLD	42	264	5	72
NMTAP	42	336	4
NMSTR	43	0	4
NMSI_	43	0	4	96	48	0
NMHLD	43	192	1	72
NMHLD	43	264	2	72
NMTAP	43	336	3
NMSTR	44	0	3
NMSI_	44	0	3	96	48	7
NMHLD	44	192	6	72
NMHLD	44	264	5	72
NMTAP	44	336	4
NMTAP	45	0	4
NMTAP	45	96	0
NMTAP	45	96	1
NMTAP	45	144	0
NMTAP	45	144	1
NMTAP	45	240	6
NMTAP	45	240	7
NMSTR	45	288	6
NMSCL	45	288	6	96	96	3
NMSTR	45	288	7
NMSUL	45	288	7	96	96	2
BRTAP	46	192	2
BRTAP	46	192	3
NMSTR	46	288	0
NMSCL	46	288	0	96	96	5
NMSTR	46	288	1
NMSUL	46	288	1	96	96	4
BRTAP	47	192	4
BRTAP	47	192	5
NMTAP	47	288	2
NMTAP	47	288	3
BXHLD	48	0	0	96
BXHLD	48	0	6	96
NMTAP	48	192	2
NMTAP	48	192	7
NMTAP	48	288	3
NMTAP	48	288	6
EXTAP	49	0	4
EXTAP	49	0	5
EXTAP	49	72	3
EXTAP	49	72	4
EXTAP	49	144	2
EXTAP	49	144	3
EXSTR	49	192	2
NMSI_	49	192	2	96	48	7
EXSTR	49	192	3
NMSI_	49	192	3	96	48	6
BXTAP	50	0	0
BXTAP	50	0	5
NMTAP	50	96	6
NMTAP	50	96	7
NMHLD	50	192	0	72
NMHLD	50	264	1	72
NMTAP	50	336	2
NMSTR	51	0	2
NMSI_	51	0	2	96	48	7
NMHLD	51	192	6	72
NMHLD	51	264	5	72
NMTAP	51	336	4
NMTAP	52	0	4
NMTAP	52	96	0
NMTAP	52	96	1
NMSTR	52	192	6
NMSXR	52	192	6	96	192	0
NMTAP	52	192	7
EXTAP	53	288	2
EXTAP	53	288	7
NMHLD	54	0	1	72
NMTAP	54	72	0
NMTAP	54	144	2
NMTAP	54	144	7
NMHLD	54	192	6	72
NMTAP	54	264	7
NMTAP	54	336	0
NMTAP	54	336	5
NMHLD	55	0	1	72
NMTAP	55	72	0
NMTAP	55	144	2
NMTAP	55	144	7
BRTAP	55	192	3
BRTAP	55	192	6
NMTAP	55	288	3
NMTAP	55	288	6
NMTAP	56	0	5
NMTAP	56	48	5
NMTAP	56	96	3
NMTAP	56	144	3
EXTAP	56	192	2
EXTAP	56	192	4
EXTAP	56	264	1
EXTAP	56	264	3
EXTAP	56	336	0
EXTAP	56	336	4
EXHLD	57	0	0	96
EXHLD	57	0	4	96
NMSTR	57	192	0
NMSI_	57	192	0	96	48	4
NMSTR	57	192	7
NMSI_	57	192	7	96	48	3
BXHLD	58	0	2	1152
BXTAP	58	0	5
NMHLD	60	0	3	576
NMTAP	61	192	2
NMHLD	62	0	4	96
NMHLD	62	0	5	96
NMHLD	62	144	4	240
NMTAP	62	144	5
NMSTR	63	0	6
NMSCR	63	0	6	96	192	1
NMHLD	64	0	2	96
NMHLD	64	0	3	96
NMTAP	64	144	2
NMHLD	64	144	3	240
NMSTR	65	0	1
NMSCL	65	0	1	96	192	6
NMHLD	66	0	5	144
NMTAP	66	144	4
NMHLD	66	192	4	144
NMTAP	66	336	3
NMHLD	67	0	3	144
NMTAP	67	144	2
NMHLD	67	192	2	192
NMTHO	68	0	0	384	C	0	M1
NMHLD	69	0	0	384
NMSTR	70	0	7
NMSI_	70	0	7	96	96	4
NMSTR	70	192	3
NMSI_	70	192	3	96	96	0
NMSTR	71	0	6
NMSI_	71	0	6	96	96	3
NMSTR	71	192	2
NMSI_	71	192	2	96	96	7
NMSTR	72	0	5
NMSI_	72	0	5	96	96	2
NMSTR	72	192	1
NMSI_	72	192	1	96	96	6
NMHLD	73	0	5	288
NMHLD	73	192	4	96
NMTAP	74	0	5
NMTAP	74	96	5
NMTAP	74	192	4
NMTAP	74	288	4
NMTAP	75	0	3
NMTAP	75	96	3
NMTAP	75	192	2
NMTAP	75	288	2
BXTAP	76	0	1
BXTAP	76	0	3
EXTAP	76	64	1
EXTAP	76	64	3
EXTAP	76	128	1
EXTAP	76	128	3
BXTAP	76	192	3
BXTAP	76	192	4
EXTAP	76	256	3
EXTAP	76	256	4
EXTAP	76	320	3
EXTAP	76	320	4
BXTAP	77	0	4
BXTAP	77	0	6
EXTAP	77	64	4
EXTAP	77	64	6
EXTAP	77	128	4
EXTAP	77	128	6
BXHLD	77	192	3	96
BXHLD	77	192	7	96
NMTAP	78	0	6
NMTAP	78	48	6
NMTAP	78	96	4
NMTAP	78	144	5
NMTAP	78	192	2
NMTAP	78	240	2
NMTAP	78	288	3
NMTAP	78	336	1
NMTAP	79	0	7
NMTAP	79	48	7
NMTAP	79	96	2
NMTAP	79	144	2
NMTAP	79	192	4
NMTAP	79	240	4
NMTAP	79	288	3
NMTAP	79	336	3
NMTAP	80	0	6
NMTAP	80	48	6
NMTAP	80	96	4
NMTAP	80	144	5
NMTAP	80	192	3
NMTAP	80	240	3
NMTAP	80	288	3
NMTAP	80	288	4
NMTAP	81	0	2
NMTAP	81	24	3
NMTAP	81	48	2
NMTAP	81	96	5
NMTAP	81	120	4
NMTAP	81	144	5
NMTAP	81	192	3
NMTAP	81	192	6
NMTAP	81	240	3
NMTAP	81	240	6
NMTAP	81	288	3
NMTAP	81	288	6
BRTAP	82	0	2
NMTAP	82	48	2
NMTAP	82	96	3
NMTAP	82	144	1
NMTAP	82	192	5
NMTAP	82	240	5
NMTAP	82	288	4
NMTAP	82	336	6
NMTAP	83	0	0
NMTAP	83	48	0
NMTAP	83	96	5
NMTAP	83	144	5
NMTAP	83	192	2
NMTAP	83	240	2
NMTAP	83	288	4
NMTAP	83	336	4
NMTAP	84	0	0
NMTAP	84	48	0
NMTAP	84	96	2
NMTAP	84	144	2
NMTAP	84	192	4
NMTAP	84	240	4
NMTAP	84	288	6
NMTAP	84	336	6
NMTAP	85	0	0
NMTAP	85	48	0
NMTAP	85	96	7
NMTAP	85	144	7
NMTAP	85	192	0
NMTAP	85	216	7
NMTAP	85	240	0
NMTAP	85	264	7
NMTAP	85	288	0
NMTAP	85	312	7
NMTAP	85	336	0
NMTAP	85	360	7
BXSTR	86	0	0
NMSCR	86	0	0	96	192	5
BXSTR	87	0	7
NMSCL	87	0	7	96	192	2
BXSTR	88	0	1
NMSCR	88	0	1	96	192	6
EXHLD	89	0	0	240
EXHLD	89	0	7	240
EXTAP	89	288	0
EXTAP	89	288	7
NMHLD	90	0	6	64
NMHLD	90	64	7	64
NMHLD	90	128	5	64
NMHLD	90	192	1	64
NMHLD	90	256	0	64
NMHLD	90	320	2	64
BXHLD	91	0	6	64
NMHLD	91	64	4	64
NMHLD	91	128	5	64
NMHLD	91	192	1	64
NMHLD	91	256	3	64
NMTAP	91	320	2
BXTAP	92	0	4
BXTAP	92	0	5
NMTAP	92	64	4
NMTAP	92	64	5
NMTAP	92	128	4
NMTAP	92	128	5
NMHLD	92	192	3	96
NMHLD	92	192	6	96
BXTAP	93	0	4
BXTAP	93	0	5
BXTAP	93	72	3
BXTAP	93	72	4
BXTAP	93	144	2
BXTAP	93	144	3
BXSTR	93	192	2
NMSI_	93	192	2	96	48	7
BXSTR	93	192	3
NMSI_	93	192	3	96	48	6
BXTAP	94	0	0
BXTAP	94	0	5
NMTAP	94	96	6
NMTAP	94	96	7
NMTAP	94	192	0
NMHLD	94	192	1	72
NMHLD	94	264	2	72
NMTAP	94	336	3
NMSTR	95	0	3
NMSUL	95	0	3	96	48	7
NMHLD	95	192	6	72
NMHLD	95	264	5	72
NMTAP	95	336	4
NMTAP	96	0	4
NMTAP	96	96	1
NMTAP	96	96	3
NMSTR	96	192	0
NMSXL	96	192	0	96	192	7
NMTAP	96	192	4
EXTAP	97	288	0
EXTAP	97	288	5
NMHLD	98	0	1	72
NMTAP	98	72	0
NMTAP	98	144	2
NMTAP	98	144	7
NMHLD	98	192	6	72
NMTAP	98	264	7
NMTAP	98	336	0
NMTAP	98	336	5
NMHLD	99	0	1	72
NMTAP	99	72	0
NMTAP	99	144	2
NMTAP	99	144	7
BRTAP	99	192	3
BRTAP	99	192	6
NMTAP	99	288	3
NMTAP	99	288	6
NMTAP	100	0	5
NMTAP	100	48	5
NMTAP	100	96	3
NMTAP	100	144	3
EXTAP	100	192	2
EXTAP	100	192	4
EXTAP	100	264	1
EXTAP	100	264	3
EXTAP	100	336	0
EXTAP	100	336	4
EXHLD	101	0	0	192
EXTAP	101	0	4
NMSTR	101	192	7
NMSI_	101	192	7	96	48	4
BXTAP	102	0	2
NMTAP	102	64	2
NMTAP	102	128	2
BXTAP	102	192	0
BXTAP	102	192	1
NMTAP	102	256	0
NMTAP	102	256	1
NMTAP	102	320	0
NMTAP	102	320	1
BXTAP	103	0	6
BXTAP	103	0	7
NMTAP	103	64	6
NMTAP	103	64	7
NMTAP	103	128	6
NMTAP	103	128	7
BXTAP	103	192	4
BXTAP	103	192	5
NMTAP	103	256	4
NMTAP	103	256	5
NMTAP	103	320	4
NMTAP	103	320	5
NMSTR	104	0	3
NMSCL	104	0	3	96	144	0
NMSTR	104	0	6
NMSCL	104	0	6	96	144	3
NMSTR	105	0	7
NMSF_	105	0	7	96	144	3
BRTAP	106	0	1
BRTAP	106	0	4
NMTAP	106	64	2
NMTAP	106	64	5
NMTAP	106	128	3
NMTAP	106	128	6
BRTAP	106	192	2
BRTAP	106	192	7
NMTAP	106	256	1
NMTAP	106	256	6
NMTAP	106	320	0
NMTAP	106	320	5
BRTAP	107	0	1
BRTAP	107	0	6
NMTAP	107	64	2
NMTAP	107	64	7
NMTAP	107	128	2
NMTAP	107	128	7
NMTAP	107	192	1
NMTAP	107	224	0
NMTAP	107	256	1
NMTAP	107	288	0
NMTAP	107	320	1
NMTAP	107	352	0
NMTTP	108	0	0	C	1	M1

T_REC_TAP	283
T_REC_BRK	15
T_REC_XTP	44
T_REC_BXX	46
T_REC_HLD	62
T_REC_XHO	6
T_REC_BHO	1
T_REC_BXH	9
T_REC_STR	43
T_REC_BST	0
T_REC_XST	2
T_REC_XBS	5
T_REC_TTP	7
T_REC_THO	1
T_REC_SLD	49
T_REC_BSL	1
T_REC_ALL	574
T_NUM_TAP	379
T_NUM_BRK	77
T_NUM_HLD	69
T_NUM_SLD	49
T_NUM_ALL	574
T_JUDGE_TAP	445
T_JUDGE_HLD	265
T_JUDGE_SLD	50
T_JUDGE_ALL	760
TTM_EACHPAIRS	143
TTM_SCR_TAP	189500
TTM_SCR_BRK	200200
TTM_SCR_HLD	69000
TTM_SCR_SLD	73500
TTM_SCR_ALL	532200
TTM_SCR_S	508800
TTM_SCR_SS	524500
TTM_RAT_ACV	10146

