VERSION	0.00.00	1.04.00
FES_MODE	0
BPM_DEF	170.000	170.000	170.000	170.000
MET_DEF	4	4
RESOLUTION	384
CLK_DEF	384
COMPATIBLE_CODE	MA2

BPM	0	0	170.000
MET	0	0	4	4

NMTAP	2	0	2
NMTAP	2	96	2
NMTAP	2	192	2
NMTAP	3	0	1
NMTAP	3	96	1
NMTAP	3	192	1
NMTAP	4	0	0
NMTAP	4	96	0
NMTAP	4	192	0
NMTAP	5	0	6
NMTAP	5	0	7
NMTAP	5	192	6
NMTAP	5	192	7
NMTAP	6	0	5
NMTAP	6	96	5
NMTAP	6	192	5
NMTAP	7	0	6
NMTAP	7	96	6
NMTAP	7	192	6
NMTAP	8	0	7
NMTAP	8	96	7
NMTAP	8	192	7
BRTAP	9	0	0
BRTAP	9	0	1
EXTAP	10	0	2
EXTAP	10	48	2
EXHLD	10	336	3	144
EXHLD	10	336	4	144
EXTAP	12	0	5
EXTAP	12	48	5
EXHLD	12	336	3	144
EXHLD	12	336	4	144
EXTAP	14	0	2
EXTAP	14	48	2
EXHLD	14	336	3	144
EXHLD	14	336	4	144
EXTAP	16	0	5
EXTAP	16	48	5
EXHLD	16	336	3	144
EXHLD	16	336	4	144
NMTAP	18	0	2
NMTAP	18	96	2
NMTAP	18	192	3
NMTAP	18	288	3
NMTAP	19	0	4
NMTAP	19	96	4
NMTAP	19	192	4
NMTAP	19	192	5
NMTAP	20	0	5
NMTAP	20	96	5
NMTAP	20	192	4
NMTAP	20	288	4
NMTAP	21	0	3
NMTAP	21	96	3
NMTAP	21	192	2
NMTAP	21	192	3
NMTAP	22	0	1
NMTAP	22	96	1
NMTAP	22	192	2
NMTAP	22	288	2
NMTAP	23	0	3
NMTAP	23	96	3
NMTAP	23	192	4
NMTAP	23	192	5
NMTAP	24	0	6
NMTAP	24	96	6
NMTAP	24	192	5
NMTAP	24	288	5
NMTAP	25	0	4
NMTAP	25	96	4
NMTAP	25	192	2
NMTAP	25	192	3
NMSTR	26	0	1
NMSI_	26	0	1	96	192	4
NMSTR	27	0	5
NMSI_	27	0	5	96	192	0
NMSTR	28	0	1
NMSI_	28	0	1	96	192	6
NMTAP	29	0	5
NMTAP	29	96	5
NMTAP	29	192	5
NMSTR	30	0	6
NMSI_	30	0	6	96	192	3
NMSTR	30	0	7
NMSI_	30	0	7	96	192	2
NMSTR	31	0	0
NMSI_	31	0	0	96	192	5
NMSTR	31	0	1
NMSI_	31	0	1	96	192	4
NMSTR	32	0	6
NMSI_	32	0	6	96	192	3
NMSTR	32	0	7
NMSI_	32	0	7	96	192	2
NMTAP	33	0	1
NMTAP	33	96	1
NMTAP	33	192	0
NMTAP	33	192	7
NMSTR	34	0	6
NMSI_	34	0	6	96	192	3
NMSTR	35	0	2
NMSI_	35	0	2	96	192	7
NMSTR	36	0	6
NMSI_	36	0	6	96	192	1
NMTAP	37	0	2
NMTAP	37	96	2
NMTAP	37	192	2
NMSTR	38	0	0
NMSI_	38	0	0	96	192	5
NMSTR	38	0	1
NMSI_	38	0	1	96	192	4
NMSTR	39	0	6
NMSI_	39	0	6	96	192	3
NMSTR	39	0	7
NMSI_	39	0	7	96	192	2
BXTAP	40	0	0
BXTAP	40	0	1
BXTAP	40	192	6
BXTAP	40	192	7
BRTAP	41	0	0
BRTAP	41	0	7
NMTAP	42	0	0
NMTAP	42	0	1
NMTAP	42	96	0
NMTAP	42	96	1
NMTAP	42	192	2
NMTAP	42	288	2
NMTAP	43	0	3
NMTAP	43	0	4
NMTAP	43	96	3
NMTAP	43	96	4
NMTAP	43	192	5
NMTAP	43	288	5
NMTAP	44	0	6
NMTAP	44	0	7
NMTAP	44	96	6
NMTAP	44	96	7
NMTAP	44	192	5
NMTAP	44	288	5
NMTAP	45	0	4
NMTAP	45	96	4
NMTAP	45	192	2
NMTAP	45	192	3
NMTAP	46	0	1
NMTAP	46	96	1
EXTAP	46	192	0
EXTAP	46	192	1
NMTAP	47	0	6
NMTAP	47	96	6
EXTAP	47	192	6
EXTAP	47	192	7
NMTAP	48	0	5
NMTAP	48	96	5
NMTAP	48	192	5
EXTAP	49	0	3
EXTAP	49	0	4
EXTAP	49	72	3
EXTAP	49	72	4
EXTAP	49	144	3
EXTAP	49	144	4
NMTAP	50	0	4
NMTAP	50	0	5
NMTAP	50	96	4
NMTAP	50	96	5
NMTAP	50	192	6
NMTAP	50	288	6
NMTAP	51	0	0
NMTAP	51	0	7
NMTAP	51	96	0
NMTAP	51	96	7
NMTAP	51	192	1
NMTAP	51	288	1
NMTAP	52	0	2
NMTAP	52	0	3
NMTAP	52	96	2
NMTAP	52	96	3
NMTAP	52	192	4
NMTAP	52	288	4
NMTAP	53	0	3
NMTAP	53	0	4
NMTAP	53	96	3
NMTAP	53	96	4
NMTAP	53	192	3
NMTAP	53	192	4
EXTAP	54	0	2
EXTAP	54	0	4
EXTAP	54	72	2
EXTAP	54	72	4
EXTAP	54	192	3
EXTAP	54	192	5
EXTAP	54	264	3
EXTAP	54	264	5
EXTAP	55	0	2
EXTAP	55	0	4
EXTAP	55	72	2
EXTAP	55	72	4
EXTAP	55	192	3
EXTAP	55	192	4
NMTAP	56	0	5
NMTAP	56	96	5
NMTAP	56	192	6
NMTAP	56	288	6
NMTAP	57	0	7
NMTAP	57	96	7
NMTAP	57	192	0
NMTAP	57	288	0
NMSTR	58	0	0
NMSCL	58	0	0	96	240	5
NMSTR	58	0	1
NMSCR	58	0	1	96	240	4
NMSTR	60	0	6
NMSCL	60	0	6	96	240	3
NMSTR	60	0	7
NMSCR	60	0	7	96	240	2
NMHLD	62	0	1	384
NMHLD	63	0	2	384
NMHLD	64	0	3	384
NMTAP	65	0	4
NMHLD	66	0	6	384
NMHLD	67	0	5	384
NMHLD	68	0	4	384
NMTAP	69	0	3
NMTTP	70	0	1	B	0	L1
NMTTP	70	96	2	B	0	L1
NMTTP	70	192	3	B	0	L1
NMTTP	71	0	6	B	0	L1
NMTTP	71	96	5	B	0	L1
NMTTP	71	192	4	B	0	L1
NMTTP	72	0	0	B	0	L1
NMTTP	72	96	1	B	0	L1
NMTTP	72	192	2	B	0	L1
NMTTP	72	192	3	B	0	L1
NMTTP	73	0	7	B	0	L1
NMTTP	73	96	6	B	0	L1
NMTTP	73	192	4	B	0	L1
NMTTP	73	192	5	B	0	L1
NMTTP	74	0	1	B	0	L1
NMTTP	74	96	2	B	0	L1
NMTTP	74	192	3	B	0	L1
NMTTP	74	288	4	B	0	L1
NMTTP	75	0	5	B	0	L1
NMTTP	75	96	6	B	0	L1
NMTTP	75	192	0	C	0	L1
BXTAP	76	0	6
BXTAP	76	0	7
BXTAP	76	192	4
BXTAP	76	192	5
BXTAP	77	0	2
BXTAP	77	0	3
BXTAP	77	192	0
BXTAP	77	192	1
NMTAP	78	0	1
NMTAP	78	96	1
NMTAP	78	192	1
NMTAP	78	288	0
NMTAP	78	288	1
NMTAP	79	0	2
NMTAP	79	96	2
NMTAP	79	192	2
NMTAP	79	288	2
NMTAP	79	288	3
NMTAP	80	0	4
NMTAP	80	96	4
NMTAP	80	192	4
NMTAP	80	288	4
NMTAP	80	288	5
NMHLD	81	0	6	192
NMHLD	81	0	7	192
NMTAP	82	0	6
NMTAP	82	96	6
NMTAP	82	192	6
NMTAP	82	288	6
NMTAP	82	288	7
NMTAP	83	0	5
NMTAP	83	96	5
NMTAP	83	192	5
NMTAP	83	288	4
NMTAP	83	288	5
NMTAP	84	0	3
NMTAP	84	96	3
NMTAP	84	192	3
NMTAP	84	288	2
NMTAP	84	288	3
BXTAP	85	0	0
BXTAP	85	0	1
NMHLD	86	0	2	192
NMTAP	86	192	3
NMHLD	87	0	5	192
NMTAP	87	192	4
NMHLD	88	0	2	192
NMTAP	88	192	3
NMHLD	89	0	0	144
NMHLD	89	0	1	144
NMTAP	90	0	2
NMTAP	90	96	2
NMTAP	90	192	2
NMTAP	90	192	3
NMTAP	91	0	5
NMTAP	91	96	5
NMTAP	91	192	4
NMTAP	91	192	5
NMTAP	92	0	6
NMTAP	92	96	6
NMTAP	92	192	6
EXTAP	93	0	0
EXTAP	93	0	7
EXTAP	93	72	0
EXTAP	93	72	7
EXTAP	93	144	0
EXTAP	93	144	7
NMTAP	94	0	6
NMTAP	94	0	7
NMTAP	94	96	6
NMTAP	94	96	7
NMTAP	94	192	5
NMTAP	94	288	5
NMTAP	95	0	3
NMTAP	95	0	4
NMTAP	95	96	3
NMTAP	95	96	4
NMTAP	95	192	2
NMTAP	95	288	2
NMTAP	96	0	0
NMTAP	96	0	1
NMTAP	96	96	0
NMTAP	96	96	1
NMTAP	96	192	2
NMTAP	96	288	2
NMTAP	97	0	3
NMTAP	97	0	4
NMTAP	97	96	3
NMTAP	97	96	4
NMTAP	97	192	3
NMTAP	97	192	4
EXTAP	98	0	2
EXTAP	98	0	4
EXTAP	98	72	2
EXTAP	98	72	4
EXTAP	98	192	3
EXTAP	98	192	5
EXTAP	98	264	3
EXTAP	98	264	5
EXTAP	99	0	2
EXTAP	99	0	4
EXTAP	99	72	2
EXTAP	99	72	4
EXTAP	99	192	3
EXTAP	99	192	4
NMTAP	100	0	2
NMTAP	100	96	2
NMTAP	100	192	1
NMTAP	100	288	1
NMTAP	101	0	0
NMTAP	101	96	0
NMTAP	101	192	7
NMTAP	101	288	7
BXTAP	102	0	6
BXTAP	102	0	7
BXTAP	102	192	4
BXTAP	102	192	5
BXTAP	103	0	2
BXTAP	103	0	3
BXTAP	103	192	0
BXTAP	103	192	1
NMSTR	104	0	0
NMSXL	104	0	0	96	480	3
NMSTR	104	0	7
NMSXR	104	0	7	96	480	4
EXTAP	106	0	3
EXTAP	106	0	5
EXTAP	106	72	3
EXTAP	106	72	5
EXTAP	106	192	2
EXTAP	106	192	4
EXTAP	106	264	2
EXTAP	106	264	4
EXTAP	107	0	4
EXTAP	107	0	6
EXTAP	107	72	4
EXTAP	107	72	6
EXTAP	107	192	1
EXTAP	107	192	3
EXTAP	107	264	1
EXTAP	107	264	3
NMTTP	108	0	0	C	1	L1

T_REC_TAP	203
T_REC_BRK	4
T_REC_XTP	68
T_REC_BXX	22
T_REC_HLD	13
T_REC_XHO	8
T_REC_BHO	0
T_REC_BXH	0
T_REC_STR	22
T_REC_BST	0
T_REC_XST	0
T_REC_XBS	0
T_REC_TTP	22
T_REC_THO	0
T_REC_SLD	22
T_REC_BSL	0
T_REC_ALL	384
T_NUM_TAP	315
T_NUM_BRK	26
T_NUM_HLD	21
T_NUM_SLD	22
T_NUM_ALL	384
T_JUDGE_TAP	341
T_JUDGE_HLD	98
T_JUDGE_SLD	22
T_JUDGE_ALL	461
TTM_EACHPAIRS	97
TTM_SCR_TAP	157500
TTM_SCR_BRK	67600
TTM_SCR_HLD	21000
TTM_SCR_SLD	33000
TTM_SCR_ALL	279100
TTM_SCR_S	268250
TTM_SCR_SS	276500
TTM_RAT_ACV	10094

