VERSION	0.00.00	1.04.00
FES_MODE	0
BPM_DEF	120.000	120.000	120.000	120.000
MET_DEF	4	4
RESOLUTION	384
CLK_DEF	384
COMPATIBLE_CODE	MA2

BPM	0	0	120.000
MET	0	0	4	4

NMTAP	1	336	4
NMHLD	2	0	5	672
NMTAP	2	96	4
NMTAP	2	192	4
NMTAP	2	288	6
NMTAP	3	0	6
NMTAP	3	96	7
NMTAP	3	192	7
NMTAP	3	288	4
NMTAP	3	336	3
NMHLD	4	0	2	672
NMTAP	4	96	3
NMTAP	4	192	3
NMTAP	4	288	1
NMTAP	5	0	1
NMTAP	5	96	0
NMTAP	5	192	0
NMTAP	5	288	3
NMHLD	6	0	5	192
NMTAP	6	96	4
NMHLD	6	192	3	192
NMTAP	6	288	4
NMHLD	7	0	6	192
NMTAP	7	96	4
NMHLD	7	192	2	96
NMTAP	7	288	3
NMTAP	7	336	3
NMHLD	8	0	1	192
NMTAP	8	96	3
NMHLD	8	192	4	192
NMTAP	8	288	3
NMTAP	9	0	2
NMSTR	9	96	1
NMSCR	9	96	1	96	48	3
NMSTR	9	96	5
NMSCL	9	96	5	96	48	3
NMHLD	9	288	2	96
NMTAP	9	288	4
NMTAP	10	0	5
NMTAP	10	48	4
NMTAP	10	96	3
NMTAP	10	96	5
NMTAP	10	144	2
NMTAP	10	192	5
NMTAP	10	240	4
NMTAP	10	288	3
NMTAP	10	288	5
NMTAP	10	336	2
NMTAP	11	0	6
NMTAP	11	48	4
NMTAP	11	96	3
NMTAP	11	96	6
NMTAP	11	144	2
NMTAP	11	192	7
NMTAP	11	240	2
NMTAP	11	288	3
NMTAP	11	288	7
NMTAP	11	336	4
NMTAP	12	0	5
NMTAP	12	48	4
NMTAP	12	96	3
NMTAP	12	96	5
NMTAP	12	144	2
NMTAP	12	192	5
NMTAP	12	240	4
NMTAP	12	288	3
NMTAP	12	288	5
NMTAP	12	336	2
NMTAP	13	0	6
NMTAP	13	48	4
NMTAP	13	96	3
NMTAP	13	96	6
NMTAP	13	144	2
NMTAP	13	192	7
NMTAP	13	240	2
NMTAP	13	288	3
NMTAP	13	288	7
NMTAP	13	336	4
NMTAP	14	0	5
NMTAP	14	48	7
NMTAP	14	96	0
NMTAP	14	96	5
NMTAP	14	144	1
NMTAP	14	192	4
NMTAP	14	240	7
NMTAP	14	288	0
NMTAP	14	288	4
NMTAP	14	336	1
NMTAP	15	0	5
NMTAP	15	48	7
NMTAP	15	96	0
NMTAP	15	96	5
NMTAP	15	144	1
NMTAP	15	192	6
NMTAP	15	240	1
NMTAP	15	288	0
NMTAP	15	288	6
NMTAP	15	336	7
NMTAP	16	0	5
NMTAP	16	48	7
NMTAP	16	96	0
NMTAP	16	96	5
NMTAP	16	144	1
NMTAP	16	192	4
NMTAP	16	240	7
NMTAP	16	288	0
NMTAP	16	288	4
NMTAP	16	336	1
NMTAP	17	0	5
NMTAP	17	48	7
NMTAP	17	96	0
NMTAP	17	96	5
NMTAP	17	144	1
NMTAP	17	192	6
NMTAP	17	240	1
NMTAP	17	288	2
NMSTR	17	288	6
NMSXL	17	288	6	96	576	4
NMTAP	17	336	3
NMTAP	18	0	4
NMTAP	18	96	4
NMTAP	18	192	3
NMTAP	18	288	3
NMTAP	19	0	2
NMTAP	19	96	2
NMTAP	19	192	3
NMSTR	19	288	1
NMSXR	19	288	1	96	576	3
NMTAP	20	0	3
NMTAP	20	96	3
NMTAP	20	192	5
NMTAP	20	288	5
BRTAP	21	0	4
BRTAP	21	96	4
BRHLD	21	192	4	96
NMSTR	21	288	3
NMSCL	21	288	3	96	96	7
NMTAP	22	0	5
NMTAP	22	48	4
NMSTR	22	96	3
NMSCR	22	96	3	96	96	7
NMTAP	22	144	3
NMTAP	22	192	1
NMTAP	22	240	2
NMSTR	22	288	3
NMSCL	22	288	3	96	96	7
NMTAP	22	336	3
NMTAP	23	0	5
NMTAP	23	48	4
NMSTR	23	96	3
NMSUR	23	96	3	96	96	7
NMTAP	23	144	3
NMTAP	23	192	2
NMTAP	23	240	1
NMSTR	23	288	0
NMSCR	23	288	0	96	96	4
NMTAP	23	336	0
NMSTR	24	0	4
NMSCR	24	0	4	96	96	0
NMSTR	24	96	0
NMSCR	24	96	0	96	96	4
NMTAP	24	192	4
NMTAP	24	288	0
NMHLD	24	336	0	96
NMTAP	25	48	2
NMSTR	25	96	2
NMSCL	25	96	2	96	96	6
NMTAP	25	192	3
NMSTR	25	288	4
NMSCR	25	288	4	96	96	0
NMTAP	26	0	2
NMTAP	26	48	3
NMSTR	26	96	4
NMSCL	26	96	4	96	96	0
NMTAP	26	144	4
NMTAP	26	192	6
NMTAP	26	240	5
NMSTR	26	288	4
NMSCR	26	288	4	96	96	0
NMTAP	26	336	4
NMTAP	27	0	2
NMTAP	27	48	3
NMSTR	27	96	4
NMSUL	27	96	4	96	96	0
NMTAP	27	144	4
NMTAP	27	192	5
NMTAP	27	240	6
NMSTR	27	288	7
NMSCL	27	288	7	96	96	3
NMTAP	27	336	7
NMSTR	28	0	3
NMSCL	28	0	3	96	96	7
NMSTR	28	96	7
NMSCL	28	96	7	96	96	3
NMTAP	28	192	3
NMTAP	28	288	7
NMHLD	28	336	7	96
NMTAP	29	48	5
NMSTR	29	96	5
NMSCR	29	96	5	96	96	1
NMTAP	29	192	4
NMTAP	29	288	3
NMSTR	30	0	2
NMSCR	30	0	2	96	48	4
NMTAP	30	96	5
NMTAP	30	144	5
NMSTR	30	192	6
NMSCL	30	192	6	96	48	4
NMTAP	30	288	3
NMTAP	30	336	3
NMSTR	31	0	2
NMSCR	31	0	2	96	48	4
NMTAP	31	96	5
NMTAP	31	144	5
NMSTR	31	192	6
NMSCL	31	192	6	96	48	4
NMTAP	31	288	3
NMTAP	31	336	3
NMHLD	32	0	2	192
NMTAP	32	96	3
NMTAP	32	144	4
NMHLD	32	192	5	192
NMTAP	32	288	4
NMTAP	32	336	4
NMHLD	33	0	3	192
NMTTP	33	96	4	E	0	M1
NMHLD	33	192	4	192
NMTTP	33	288	4	E	0	M1
NMTAP	34	0	3
NMTAP	34	48	4
NMTAP	34	96	3
NMTAP	34	96	5
NMTAP	34	144	2
NMTAP	34	192	5
NMTAP	34	240	4
NMTAP	34	288	3
NMTAP	34	288	5
NMTAP	34	336	2
NMTAP	35	0	6
NMTAP	35	48	3
NMTAP	35	96	2
NMTAP	35	96	6
NMTAP	35	144	1
NMTAP	35	192	5
NMTAP	35	240	0
NMTAP	35	288	1
NMTAP	35	288	7
NMTAP	35	336	6
NMTAP	36	0	5
NMTAP	36	48	4
NMTAP	36	96	3
NMTAP	36	96	5
NMTAP	36	144	2
NMTAP	36	192	5
NMTAP	36	240	4
NMTAP	36	288	3
NMTAP	36	288	5
NMTAP	36	336	2
NMTAP	37	0	6
NMTAP	37	48	3
NMTAP	37	96	2
NMTAP	37	96	6
NMTAP	37	144	1
NMHLD	37	192	5	96
BRSTR	37	288	0
NMSCR	37	288	0	96	96	4
NMTAP	38	0	6
NMTAP	38	48	7
NMSTR	38	96	0
NMSCL	38	96	0	96	96	4
NMTAP	38	144	0
NMTAP	38	192	2
NMTAP	38	240	1
NMSTR	38	288	0
NMSCR	38	288	0	96	96	4
NMTAP	38	336	0
NMTAP	39	0	6
NMTAP	39	48	7
NMSTR	39	96	0
NMSI_	39	96	0	96	48	5
NMTAP	39	144	0
NMSTR	39	192	0
NMSI_	39	192	0	96	48	3
NMSTR	39	288	0
NMSI_	39	288	0	96	48	4
NMTAP	40	0	0
NMSTR	40	0	3
NMSCL	40	0	3	96	96	7
NMSTR	40	96	7
NMSCL	40	96	7	96	96	3
NMTAP	40	192	3
NMTAP	40	288	6
NMSTR	40	336	6
NMSCR	40	336	6	96	96	1
NMTAP	41	48	2
NMSTR	41	96	2
NMSUR	41	96	2	96	96	6
NMTAP	41	192	6
NMSTR	41	288	7
NMSCL	41	288	7	96	96	3
NMTAP	42	0	1
NMTAP	42	48	0
NMSTR	42	96	7
NMSCR	42	96	7	96	96	3
NMTAP	42	144	7
NMTAP	42	192	5
NMTAP	42	240	6
NMSTR	42	288	7
NMSCL	42	288	7	96	96	3
NMTAP	42	336	7
NMTAP	43	0	1
NMTAP	43	48	0
NMSTR	43	96	7
NMSI_	43	96	7	96	48	2
NMTAP	43	144	7
NMSTR	43	192	7
NMSI_	43	192	7	96	48	4
NMSTR	43	288	7
NMSI_	43	288	7	96	48	3
NMSTR	44	0	4
NMSCR	44	0	4	96	96	0
NMTAP	44	0	7
NMSTR	44	96	0
NMSCR	44	96	0	96	96	4
NMTAP	44	192	4
NMTAP	44	288	1
NMSTR	44	336	1
NMSCL	44	336	1	96	96	6
NMTAP	45	48	4
NMSTR	45	96	4
NMSI_	45	96	4	96	96	7
NMTAP	45	192	2
NMTAP	45	288	0
NMTAP	45	336	0
BRTAP	46	0	1
NMTAP	46	0	7
NMTAP	46	48	6
NMTAP	46	96	4
NMTAP	46	96	5
NMTAP	46	144	6
BRTAP	46	192	0
NMTAP	46	192	7
NMTAP	46	240	1
NMTAP	46	288	2
NMTAP	46	288	3
NMTAP	46	336	1
BRTAP	47	0	0
NMTAP	47	0	6
NMTAP	47	48	5
NMTAP	47	96	4
NMTAP	47	96	6
NMTAP	47	144	7
BRTAP	47	192	0
NMTAP	47	192	7
NMTAP	47	240	1
BRTAP	47	288	3
NMTAP	47	288	4
NMTAP	47	336	2
BRTAP	48	0	1
NMTAP	48	0	3
NMTAP	48	48	0
NMTAP	48	96	1
NMTAP	48	96	7
NMTAP	48	144	6
NMTAP	48	192	6
BRTAP	48	192	7
NMTAP	48	240	5
NMTAP	48	288	4
NMTAP	48	288	6
NMTAP	48	336	3
BRTAP	49	0	2
NMTAP	49	0	4
NMTAP	49	48	3
BRTAP	49	96	1
NMTAP	49	96	5
NMTAP	49	144	3
BRTAP	49	192	0
NMTAP	49	192	4
NMTAP	49	240	3
BRTAP	49	288	2
NMTAP	49	288	4
NMTAP	49	336	5
BRTAP	50	0	3
NMTAP	50	0	7
NMTAP	50	48	0
NMTAP	50	96	0
NMTAP	50	96	1
NMTAP	50	144	2
BRTAP	50	192	1
NMTAP	50	192	3
NMTAP	50	240	0
NMTAP	50	288	6
NMTAP	50	288	7
NMTAP	50	336	5
BRTAP	51	0	4
NMTAP	51	0	5
NMTAP	51	48	6
NMTAP	51	96	1
NMTAP	51	96	7
NMTAP	51	144	0
BRTAP	51	192	0
NMTAP	51	192	7
NMTAP	51	240	1
BRTAP	51	288	2
NMTAP	51	288	3
NMTAP	51	336	4
BRTAP	52	0	1
NMTAP	52	0	5
NMTAP	52	48	0
NMTAP	52	96	6
NMTAP	52	96	7
NMTAP	52	144	5
BRTAP	52	192	1
NMTAP	52	192	7
NMTAP	52	240	4
BRTAP	52	288	0
NMTAP	52	288	6
NMTAP	52	336	2
BRTAP	53	0	1
NMTAP	53	0	7
NMTAP	53	48	4
BRTAP	53	96	0
NMTAP	53	96	6
NMTAP	53	144	3
NMTAP	53	192	0
BRTAP	53	192	1
NMTAP	53	240	4
NMTAP	53	288	6
BRTAP	53	288	7
NMTAP	53	336	3
BRTAP	54	0	2
NMTAP	54	0	4
NMHLD	54	48	5	96
NMTAP	54	96	4
NMTAP	54	144	3
NMTAP	54	192	2
NMHLD	54	240	2	96
NMTAP	54	288	3
NMTAP	54	336	4
NMTAP	55	0	3
NMHLD	55	0	5	48
NMTAP	55	48	2
NMHLD	55	96	2	48
NMTAP	55	144	4
NMHLD	55	192	6	48
NMTAP	55	240	3
NMTAP	55	288	4
NMTAP	55	336	4
NMTAP	56	0	3
NMHLD	56	0	5	48
NMTAP	56	48	2
NMHLD	56	96	2	48
NMTAP	56	144	4
NMHLD	56	192	5	48
NMTAP	56	240	4
NMTAP	56	288	3
NMTAP	56	336	3
NMTAP	57	0	2
NMTAP	57	0	4
NMTAP	57	48	5
NMTAP	57	96	5
NMTAP	57	144	4
NMTAP	57	192	3
NMTAP	57	288	2
NMTAP	57	288	5
NMTAP	58	0	6
NMTAP	58	48	5
NMTAP	58	96	3
NMTAP	58	96	4
NMTAP	58	144	2
NMTAP	58	192	6
NMTAP	58	240	5
NMTAP	58	288	3
NMTAP	58	288	4
NMTAP	58	336	2
NMTAP	59	0	6
NMTAP	59	48	5
NMTAP	59	96	3
NMTAP	59	96	4
NMTAP	59	144	2
NMTAP	59	192	1
NMTAP	59	192	3
NMTAP	59	240	2
NMTAP	59	288	3
NMTAP	59	288	4
NMTAP	59	336	5
NMTAP	60	0	6
NMTAP	60	48	5
NMTAP	60	96	3
NMTAP	60	96	4
NMTAP	60	144	2
NMTAP	60	192	6
NMTAP	60	240	5
NMTAP	60	288	3
NMTAP	60	288	4
NMTAP	60	336	2
NMTAP	61	0	6
NMTAP	61	48	5
NMTAP	61	96	3
NMTAP	61	96	4
NMTAP	61	144	2
NMTAP	61	192	1
NMTAP	61	192	3
NMTAP	61	240	2
NMTAP	61	288	3
NMTAP	61	288	4
NMTAP	61	336	5
NMSTR	62	0	3
NMSCL	62	0	3	96	48	1
NMTAP	62	0	5
NMTTP	62	96	4	E	0	M1
NMSTR	62	192	4
NMSCR	62	192	4	96	48	6
NMTTP	62	288	4	E	0	M1
NMSTR	63	0	3
NMSCL	63	0	3	96	48	1
NMTTP	63	96	4	E	0	M1
NMTAP	63	192	4
NMTAP	63	288	5
NMHLD	64	0	5	192
NMHLD	64	192	4	192
NMHLD	65	0	3	192
NMTTP	65	192	3	B	0	M1
NMTTP	65	248	2	B	0	M1
NMTTP	65	304	4	B	0	M1
NMTTP	65	360	5	B	0	M1

T_REC_TAP	369
T_REC_BRK	26
T_REC_XTP	0
T_REC_BXX	0
T_REC_HLD	27
T_REC_XHO	0
T_REC_BHO	1
T_REC_BXH	0
T_REC_STR	46
T_REC_BST	1
T_REC_XST	0
T_REC_XBS	0
T_REC_TTP	9
T_REC_THO	0
T_REC_SLD	47
T_REC_BSL	0
T_REC_ALL	526
T_NUM_TAP	424
T_NUM_BRK	28
T_NUM_HLD	27
T_NUM_SLD	47
T_NUM_ALL	526
T_JUDGE_TAP	451
T_JUDGE_HLD	98
T_JUDGE_SLD	47
T_JUDGE_ALL	596
TTM_EACHPAIRS	75
TTM_SCR_TAP	212000
TTM_SCR_BRK	72800
TTM_SCR_HLD	27000
TTM_SCR_SLD	70500
TTM_SCR_ALL	382300
TTM_SCR_S	368150
TTM_SCR_SS	379500
TTM_RAT_ACV	10073

