VERSION	0.00.00	1.04.00
FES_MODE	0
BPM_DEF	120.000	120.000	120.000	120.000
MET_DEF	4	4
RESOLUTION	384
CLK_DEF	384
COMPATIBLE_CODE	MA2

BPM	0	0	120.000
MET	0	0	4	4

NMTAP	2	0	4
NMTAP	2	96	4
NMTAP	2	192	3
NMTAP	2	288	3
NMTAP	3	0	5
NMTAP	3	96	5
NMTAP	3	192	3
NMTAP	3	288	3
NMTAP	4	0	4
NMTAP	4	96	4
NMTAP	4	192	2
NMTAP	4	288	2
NMTAP	5	0	4
NMTAP	5	96	4
NMTAP	5	192	3
NMTAP	5	288	3
NMTAP	6	0	2
NMTAP	6	96	2
NMTAP	6	192	4
NMTAP	6	288	4
NMTAP	7	0	3
NMTAP	7	96	3
NMTAP	7	192	4
NMTAP	7	288	4
NMTAP	8	0	3
NMTAP	8	96	3
NMTAP	8	192	5
NMTAP	8	288	5
NMTAP	9	0	3
NMTAP	9	96	3
NMTAP	9	192	4
NMHLD	9	288	3	96
NMHLD	9	288	4	96
NMTAP	10	48	4
NMTAP	10	96	3
NMTAP	10	144	2
NMTAP	10	240	4
NMTAP	10	288	3
NMTAP	10	336	2
NMTAP	11	48	4
NMTAP	11	96	3
NMTAP	11	144	2
NMTAP	11	240	2
NMTAP	11	288	3
NMTAP	11	336	4
NMTAP	12	48	4
NMTAP	12	96	3
NMTAP	12	144	2
NMTAP	12	240	4
NMTAP	12	288	3
NMTAP	12	336	2
NMTAP	13	48	4
NMTAP	13	96	3
NMTAP	13	144	2
NMTAP	13	240	2
NMTAP	13	288	3
NMTAP	13	336	4
NMTAP	14	48	6
NMTAP	14	96	7
NMTAP	14	144	0
NMTAP	14	240	6
NMTAP	14	288	7
NMTAP	14	336	0
NMTAP	15	48	6
NMTAP	15	96	7
NMTAP	15	144	0
NMTAP	15	240	0
NMTAP	15	288	7
NMTAP	15	336	6
NMTAP	16	48	6
NMTAP	16	96	7
NMTAP	16	144	0
NMTAP	16	240	6
NMTAP	16	288	7
NMTAP	16	336	0
NMTAP	17	48	6
NMTAP	17	96	7
NMTAP	17	144	0
NMTAP	17	240	0
NMHLD	17	288	7	96
NMSTR	18	0	0
NMSI_	18	0	0	96	96	3
NMSTR	18	192	7
NMSI_	18	192	7	96	96	4
NMSTR	19	0	0
NMSI_	19	0	0	96	96	3
NMTAP	19	192	5
NMTAP	19	288	6
NMSTR	20	0	7
NMSI_	20	0	7	96	96	4
NMSTR	20	192	0
NMSI_	20	192	0	96	96	3
NMTAP	21	0	6
EXTAP	21	96	0
EXTAP	21	96	7
BXTAP	21	192	0
BXTAP	21	192	7
NMHLD	22	0	1	384
NMTAP	22	96	7
NMTAP	22	144	7
NMTAP	22	192	0
NMTAP	22	288	3
NMHLD	23	0	5	384
NMTAP	23	96	3
NMTAP	23	144	3
NMTAP	23	192	4
NMTAP	23	288	7
NMSTR	24	0	0
NMSCR	24	0	0	96	96	3
NMSTR	24	192	4
NMSCR	24	192	4	96	96	7
NMSTR	25	0	3
NMSCL	25	0	3	96	96	0
NMTAP	25	192	7
NMTAP	25	288	0
NMTAP	25	288	7
NMHLD	26	0	6	384
NMTAP	26	96	0
NMTAP	26	144	0
NMTAP	26	192	7
NMTAP	26	288	4
NMHLD	27	0	2	384
NMTAP	27	96	4
NMTAP	27	144	4
NMTAP	27	192	3
NMTAP	27	288	0
NMSTR	28	0	7
NMSCL	28	0	7	96	96	4
NMSTR	28	192	3
NMSCL	28	192	3	96	96	0
NMSTR	29	0	4
NMSCR	29	0	4	96	96	7
NMSTR	29	192	0
NMSCR	29	192	0	96	96	3
NMHLD	30	0	5	768
NMTAP	30	96	4
NMTAP	30	192	6
NMTAP	30	288	7
NMTAP	30	336	7
NMTAP	31	0	7
NMTAP	31	96	6
NMTAP	31	192	4
NMTAP	31	288	3
NMHLD	32	0	2	768
NMTAP	32	96	3
NMTAP	32	192	1
NMTAP	32	288	0
NMTAP	32	336	0
NMTAP	33	0	0
NMTAP	33	96	1
NMTAP	33	192	3
NMTAP	33	288	4
NMHLD	34	0	5	192
NMTAP	34	96	4
NMHLD	34	192	4	192
NMTAP	34	288	3
NMHLD	35	0	3	192
NMTAP	35	96	2
NMTAP	35	192	2
NMTAP	35	288	2
NMHLD	36	0	1	192
NMTAP	36	96	3
NMHLD	36	192	3	192
NMTAP	36	288	4
NMHLD	37	0	4	192
NMTAP	37	96	6
NMTAP	37	192	6
NMTAP	37	288	7
NMSTR	38	0	7
NMSCL	38	0	7	96	96	4
NMSTR	38	192	2
NMSCL	38	192	2	96	96	7
NMHLD	39	0	5	384
NMTAP	39	96	7
NMTAP	39	144	7
NMTAP	39	192	7
NMTAP	39	288	4
NMHLD	40	0	1	384
NMTAP	40	96	0
NMTAP	40	192	3
NMTAP	40	240	3
NMTAP	40	288	4
NMSTR	41	0	5
NMSCL	41	0	5	96	192	7
NMSTR	42	0	0
NMSCR	42	0	0	96	96	3
NMSTR	42	192	5
NMSCR	42	192	5	96	96	0
NMHLD	43	0	2	384
NMTAP	43	96	0
NMTAP	43	144	0
NMTAP	43	192	0
NMTAP	43	288	3
NMHLD	44	0	6	384
NMTAP	44	96	7
NMTAP	44	192	4
NMTAP	44	240	4
NMTAP	44	288	3
NMTAP	45	0	2
NMTAP	45	96	3
NMTAP	45	96	5
NMHLD	45	192	3	96
NMHLD	45	192	5	96
EXSTR	46	0	4
NMSCR	46	0	4	96	96	7
EXSTR	46	192	3
NMSCL	46	192	3	96	96	0
NMHLD	47	0	7	384
NMTAP	47	96	6
NMTAP	47	192	4
NMTAP	47	240	3
NMTAP	47	288	2
NMHLD	48	0	0	288
NMTAP	48	96	1
NMTAP	48	192	3
NMTAP	48	240	4
NMTAP	48	288	5
BRTAP	49	0	4
BRTAP	49	0	5
BRTAP	49	96	6
BRTAP	49	96	7
BRTAP	49	192	0
BRTAP	49	192	1
BRTAP	49	288	2
BRTAP	49	288	3
EXSTR	50	0	3
NMSCL	50	0	3	96	96	0
EXTAP	50	0	4
EXSTR	50	192	4
NMSCR	50	192	4	96	96	7
NMHLD	51	0	0	384
NMTAP	51	96	1
NMTAP	51	192	3
NMTAP	51	240	4
NMTAP	51	288	5
NMHLD	52	0	7	288
NMTAP	52	96	6
NMTAP	52	192	4
NMTAP	52	240	3
NMTAP	52	288	2
NMTAP	53	0	1
NMTAP	53	0	6
NMTAP	53	96	0
NMTAP	53	96	5
NMTAP	53	192	1
NMTAP	53	192	6
NMTAP	53	288	2
NMTAP	53	288	7
NMSTR	54	0	6
NMSCL	54	0	6	96	96	3
NMSTR	54	192	2
NMSCL	54	192	2	96	96	7
NMHLD	55	0	5	96
NMHLD	55	96	7	96
NMHLD	55	192	0	96
NMTAP	55	288	2
NMSTR	56	0	1
NMSCR	56	0	1	96	96	4
NMSTR	56	192	5
NMSCR	56	192	5	96	96	0
NMHLD	57	0	2	96
NMHLD	57	96	0	96
NMTAP	57	192	7
NMTAP	57	288	5
NMTAP	58	0	3
NMTAP	58	96	2
NMTAP	58	192	4
NMTAP	58	288	5
NMTAP	59	0	3
NMHLD	59	96	1	96
NMTAP	59	192	3
NMTAP	59	240	4
NMTAP	59	288	5
NMTAP	60	0	3
NMTAP	60	96	2
NMTAP	60	192	4
NMTAP	60	288	5
NMTAP	61	0	3
NMHLD	61	96	1	96
NMTAP	61	192	3
NMTAP	61	240	4
NMTAP	61	288	5
NMHLD	62	0	5	384
NMTTP	62	96	5	E	0	M1
NMTTP	62	192	4	E	0	M1
NMTTP	62	288	3	E	0	M1
NMHLD	63	0	2	384
NMTTP	63	96	3	E	0	M1
NMTTP	63	192	4	E	0	M1
NMTTP	63	288	5	E	0	M1
NMHLD	64	0	5	384
NMTTP	64	96	5	E	0	M1
NMTTP	64	192	4	E	0	M1
NMTTP	64	288	3	E	0	M1
NMTAP	65	0	2
NMTAP	65	96	2
NMTTP	65	192	4	E	0	M1
NMTTP	65	312	0	C	0	M1

T_REC_TAP	189
T_REC_BRK	8
T_REC_XTP	3
T_REC_BXX	2
T_REC_HLD	35
T_REC_XHO	0
T_REC_BHO	0
T_REC_BXH	0
T_REC_STR	21
T_REC_BST	0
T_REC_XST	4
T_REC_XBS	0
T_REC_TTP	11
T_REC_THO	0
T_REC_SLD	25
T_REC_BSL	0
T_REC_ALL	298
T_NUM_TAP	228
T_NUM_BRK	10
T_NUM_HLD	35
T_NUM_SLD	25
T_NUM_ALL	298
T_JUDGE_TAP	238
T_JUDGE_HLD	196
T_JUDGE_SLD	25
T_JUDGE_ALL	459
TTM_EACHPAIRS	15
TTM_SCR_TAP	114000
TTM_SCR_BRK	26000
TTM_SCR_HLD	35000
TTM_SCR_SLD	37500
TTM_SCR_ALL	212500
TTM_SCR_S	205200
TTM_SCR_SS	211500
TTM_RAT_ACV	10047

