VERSION	0.00.00	1.04.00
FES_MODE	0
BPM_DEF	220.000	220.000	220.000	220.000
MET_DEF	4	4
RESOLUTION	384
CLK_DEF	384
COMPATIBLE_CODE	MA2

BPM	0	0	220.000
MET	0	0	4	4

NMTAP	2	0	0
NMTAP	2	48	0
NMTAP	2	96	0
NMTAP	2	144	0
NMTAP	2	192	1
NMTAP	2	192	7
NMTAP	2	240	1
NMTAP	2	240	7
NMTAP	2	288	1
NMTAP	2	288	7
NMTAP	2	336	1
NMTAP	2	336	7
NMTAP	3	0	2
NMTAP	3	24	6
NMTAP	3	48	2
NMTAP	3	72	6
NMTAP	3	96	3
NMTAP	3	120	5
NMTAP	3	144	3
NMTAP	3	168	5
NMTAP	3	192	3
NMTAP	3	288	2
NMTAP	3	288	6
NMSTR	4	0	1
NMSI_	4	0	1	96	48	4
NMSTR	4	96	5
NMSI_	4	96	5	96	48	7
NMSTR	4	192	2
NMSI_	4	192	2	96	48	4
NMSTR	4	288	6
NMSI_	4	288	6	96	48	3
NMSTR	5	0	2
NMSI_	5	0	2	96	48	0
NMSTR	5	96	5
NMSI_	5	96	5	96	48	3
NMSTR	5	192	1
NMSI_	5	192	1	96	48	5
NMTAP	5	288	4
NMSTR	6	0	6
NMSI_	6	0	6	96	48	3
NMSTR	6	96	2
NMSI_	6	96	2	96	48	0
NMSTR	6	192	5
NMSI_	6	192	5	96	48	3
NMSTR	6	288	1
NMSI_	6	288	1	96	48	4
NMSTR	7	0	5
NMSI_	7	0	5	96	48	7
NMSTR	7	96	2
NMSI_	7	96	2	96	48	4
NMSTR	7	192	6
NMSI_	7	192	6	96	48	2
NMTAP	7	288	3
NMSTR	8	0	1
NMSCR	8	0	1	96	48	4
NMSTR	8	96	5
NMSCR	8	96	5	96	48	7
NMSTR	8	192	2
NMSI_	8	192	2	96	48	4
NMSTR	8	288	6
NMSI_	8	288	6	96	48	3
NMSTR	9	0	2
NMSCL	9	0	2	96	48	0
NMSTR	9	96	5
NMSCL	9	96	5	96	48	3
NMSTR	9	192	1
NMSV_	9	192	1	96	48	4
NMTAP	9	288	4
NMSTR	10	0	6
NMSCL	10	0	6	96	48	3
NMSTR	10	96	2
NMSCL	10	96	2	96	48	0
NMSTR	10	192	5
NMSI_	10	192	5	96	48	3
NMSTR	10	288	1
NMSI_	10	288	1	96	48	4
NMSTR	11	0	5
NMSCR	11	0	5	96	48	7
NMSTR	11	96	2
NMSCR	11	96	2	96	48	4
NMTAP	11	192	6
NMTAP	11	288	3
NMTAP	11	288	7
NMHLD	12	0	2	96
NMTAP	12	96	3
NMTAP	12	144	4
NMHLD	12	192	5	96
NMTAP	12	288	4
NMTAP	12	336	4
NMHLD	13	0	7	48
NMHLD	13	48	4	48
NMHLD	13	96	6	48
NMHLD	13	144	3	48
NMHLD	13	192	5	48
NMHLD	13	240	2	48
NMHLD	13	288	3	48
NMHLD	13	336	1	48
NMHLD	14	0	4	48
NMHLD	14	48	2	48
NMHLD	14	96	4	48
NMHLD	14	144	2	48
NMHLD	14	192	3	48
NMHLD	14	240	1	48
NMHLD	14	288	3	48
NMHLD	14	336	1	48
NMHLD	15	0	2	48
NMHLD	15	48	0	48
NMHLD	15	96	2	48
NMTAP	15	144	0
NMTAP	15	240	1
NMTAP	15	240	3
NMTAP	15	288	1
NMTAP	15	288	3
NMTAP	16	0	3
NMHLD	16	0	5	96
NMTAP	16	96	4
NMTAP	16	144	3
NMHLD	16	192	2	96
NMTAP	16	288	3
NMTAP	16	336	3
NMHLD	17	0	2	48
NMHLD	17	48	4	48
NMHLD	17	96	1	48
NMHLD	17	144	3	48
NMTAP	17	192	0
NMTAP	17	288	1
NMTAP	17	288	3
NMHLD	18	0	2	96
NMTAP	18	0	4
NMTAP	18	96	3
NMTAP	18	144	4
NMHLD	18	192	5	96
NMTAP	18	288	4
NMTAP	18	336	4
NMHLD	19	0	5	48
NMHLD	19	48	3	48
NMHLD	19	96	6	48
NMHLD	19	144	4	48
NMTAP	19	192	7
NMTAP	19	288	4
NMTAP	19	288	6
NMSTR	20	0	2
NMSI_	20	0	2	96	48	4
NMTAP	20	96	5
NMSTR	20	192	6
NMSI_	20	192	6	96	48	4
NMTAP	20	288	2
NMSTR	21	0	0
NMSI_	21	0	0	96	48	4
NMTAP	21	96	6
NMHLD	21	144	7	96
NMTAP	21	240	4
NMTAP	21	288	3
NMSTR	22	0	5
NMSI_	22	0	5	96	48	3
NMTAP	22	96	2
NMSTR	22	192	1
NMSI_	22	192	1	96	48	3
NMTAP	22	288	5
NMSTR	23	0	7
NMSV_	23	0	7	96	48	4
NMTAP	23	96	1
NMHLD	23	144	0	96
NMTAP	23	240	4
NMTAP	23	288	5
NMSTR	24	0	6
NMSI_	24	0	6	96	48	4
NMSTR	24	0	7
NMSUL	24	0	7	96	48	3
NMSTR	24	192	0
NMSUR	24	192	0	96	48	4
NMSTR	24	192	1
NMSI_	24	192	1	96	48	3
NMTAP	25	0	6
NMTAP	25	0	7
NMTAP	25	48	5
NMSTR	25	96	0
NMSI_	25	96	0	96	48	3
NMSTR	25	96	4
NMSI_	25	96	4	96	48	7
NMSTR	26	0	0
NMSUR	26	0	0	96	48	4
NMSTR	26	0	1
NMSI_	26	0	1	96	48	3
NMSTR	26	192	6
NMSI_	26	192	6	96	48	4
NMSTR	26	192	7
NMSUL	26	192	7	96	48	3
NMTAP	27	0	0
NMTAP	27	0	1
NMTAP	27	48	2
NMSTR	27	96	3
NMSI_	27	96	3	96	48	0
NMSTR	27	96	7
NMSV_	27	96	7	96	48	4
NMSTR	28	0	5
NMSCR	28	0	5	96	48	7
NMTAP	28	96	0
NMSTR	28	192	1
NMSCR	28	192	1	96	48	3
NMSTR	28	288	6
NMSUL	28	288	6	96	192	3
NMHLD	29	0	2	144
NMTAP	29	240	1
NMTAP	29	288	1
NMSTR	30	0	2
NMSCL	30	0	2	96	48	0
NMTAP	30	96	7
NMSTR	30	192	6
NMSCL	30	192	6	96	48	4
NMTAP	30	288	1
NMHLD	31	0	2	96
NMTAP	31	96	3
NMTAP	31	144	3
NMTAP	31	240	1
NMTAP	31	240	4
NMTAP	31	288	1
NMTAP	31	288	4
NMHLD	32	0	5	96
NMTAP	32	96	4
NMTAP	32	144	3
NMHLD	32	192	2	96
NMTAP	32	288	3
NMTAP	32	336	4
NMHLD	33	0	5	96
NMHLD	33	96	7	96
NMHLD	33	192	0	96
NMTAP	33	288	2
NMHLD	34	0	2	96
NMHLD	34	0	4	96
NMTAP	34	144	2
NMTAP	34	144	4
NMHLD	34	192	3	96
NMHLD	34	192	5	96
NMTAP	34	336	3
NMTAP	34	336	5
NMSTR	35	0	2
NMSXL	35	0	2	96	192	6
NMSTR	35	0	4
NMSXR	35	0	4	96	192	0
NMSTR	36	0	7
NMSCL	36	0	7	96	288	4
NMTAP	36	192	2
NMTAP	36	288	2
NMTAP	37	0	3
CNSCR	37	0	4	0	288	7
NMTAP	37	96	3
NMTAP	37	192	2
NMTAP	37	288	2
NMSTR	38	0	3
NMSCL	38	0	3	96	288	0
NMTAP	38	192	6
NMTAP	38	288	6
CNSCR	39	0	0	0	288	3
NMTAP	39	0	7
NMTAP	39	96	7
NMTAP	39	192	6
NMTAP	39	288	6
NMSTR	40	0	7
NMSXR	40	0	7	96	576	4
NMTAP	40	192	2
NMTAP	40	288	2
NMTAP	41	0	3
NMTAP	41	96	3
NMTAP	41	192	2
NMTAP	41	288	2
NMTAP	42	0	3
NMTAP	42	96	3
NMTAP	42	192	4
NMSTR	42	288	4
NMSXR	42	288	4	96	288	7
EXSTR	43	288	0
BRSF_	43	288	0	96	96	4
NMTAP	44	192	3
NMTAP	44	192	5
NMTAP	44	240	6
NMTAP	44	288	7
NMTAP	44	336	0
NMTAP	45	0	1
NMTAP	45	0	3
NMTAP	45	96	4
NMTAP	45	96	5
NMTAP	45	192	6
NMTAP	45	192	7
NMSTR	45	288	0
BRSCR	45	288	0	96	96	4
NMTAP	46	0	4
NMTAP	46	96	5
NMTAP	46	192	3
NMTAP	46	192	5
NMTAP	46	240	2
NMTAP	46	288	1
NMTAP	46	336	0
NMTAP	47	0	6
NMTAP	47	0	7
NMTAP	47	96	4
NMTAP	47	96	5
NMTAP	47	192	0
NMTAP	47	192	1
NMSTR	47	288	2
NMSI_	47	288	2	96	48	4
NMTAP	47	288	3
NMHLD	48	0	6	96
NMTAP	48	96	5
NMTAP	48	144	5
NMTAP	48	192	7
NMTAP	48	240	7
NMTAP	48	288	3
NMSTR	48	336	2
NMSCR	48	336	2	96	48	5
NMHLD	49	48	6	96
NMTAP	49	144	7
NMTAP	49	240	0
NMTAP	49	240	5
NMTAP	49	288	0
NMTAP	49	288	5
NMHLD	50	0	2	48
NMHLD	50	0	4	48
NMHLD	50	96	3	48
NMHLD	50	96	5	48
NMHLD	50	192	2	48
NMHLD	50	192	4	48
NMSTR	50	288	6
BRSI_	50	288	6	96	48	3
NMSTR	51	0	2
BRSI_	51	0	2	96	48	7
NMSTR	51	96	5
BRSI_	51	96	5	96	48	0
NMSTR	51	192	1
BRSI_	51	192	1	96	48	4
BRTAP	51	288	7
NMSTR	52	0	6
NMSCR	52	0	6	96	48	1
NMTAP	52	96	3
NMTAP	52	144	3
NMSTR	52	192	2
NMSCR	52	192	2	96	48	5
NMTAP	52	288	6
NMTAP	52	336	6
NMSTR	53	0	7
NMSLL	53	0	7	96	96	3
NMSLR	53	0	7	96	96	3
NMTAP	53	288	2
NMTAP	53	288	4
NMSTR	54	0	1
NMSCR	54	0	1	96	48	4
NMTAP	54	96	5
NMTAP	54	144	5
NMSTR	54	192	6
NMSUL	54	192	6	96	48	2
NMTAP	54	288	1
NMTAP	54	336	1
NMSTR	55	0	0
NMSI_	55	0	0	96	48	3
NMTAP	55	96	3
NMHLD	55	144	4	96
NMTAP	55	240	3
NMTAP	55	288	2
NMTAP	55	288	5
NMHLD	56	0	1	96
NMHLD	56	0	6	96
NMTAP	56	144	3
NMHLD	56	144	5	96
NMTAP	56	240	4
NMTAP	56	288	4
NMSTR	57	0	3
BRSI_	57	0	3	96	48	0
NMTAP	57	0	4
NMTAP	57	48	3
NMSTR	57	48	4
NMSI_	57	48	4	96	48	7
NMTAP	57	288	0
NMTAP	57	288	1
NMTAP	58	0	6
NMTAP	58	0	7
NMSTR	58	96	0
NMSSL	58	96	0	96	144	4
NMTAP	58	96	7
NMHLD	59	0	5	192
NMTAP	59	96	4
NMTAP	59	192	4
BRTAP	59	288	0
NMTAP	60	0	5
NMTAP	60	48	4
NMTAP	60	96	3
NMTAP	60	144	2
NMHLD	60	240	4	0
NMHLD	60	241	3	0
NMHLD	60	336	5	0
NMHLD	60	337	4	0
NMHLD	61	48	2	0
NMHLD	61	49	3	0
NMHLD	61	144	3	0
NMHLD	61	145	4	0
NMTAP	61	240	5
NMTAP	61	264	4
NMTAP	61	288	3
NMTAP	61	336	3
NMHLD	62	0	2	0
NMHLD	62	1	4	0
NMHLD	62	96	5	0
NMHLD	62	97	2	0
NMHLD	62	192	5	0
NMHLD	62	193	3	0
NMHLD	62	240	5	0
NMHLD	62	241	3	0
NMHLD	62	336	2	0
NMHLD	62	337	4	0
NMHLD	63	0	2	0
NMHLD	63	1	4	0
NMHLD	63	48	2	0
NMHLD	63	49	4	0
NMTAP	63	144	5
NMTAP	63	168	4
NMHLD	63	192	3	96
NMHLD	64	0	2	0
NMHLD	64	1	3	0
NMHLD	64	48	2	0
NMHLD	64	49	3	0
NMHLD	64	144	1	0
BRHLD	64	145	2	0
NMHLD	64	240	1	0
BRHLD	64	241	0	0
NMHLD	64	336	0	0
BRHLD	64	337	7	0
BRHLD	65	48	6	0
NMHLD	65	49	7	0
NMHLD	65	96	6	0
BRHLD	65	97	7	0
NMHLD	65	192	6	0
BRHLD	65	193	5	0
NMHLD	65	288	5	0
BRHLD	65	289	4	0
BRHLD	65	336	5	0
NMHLD	65	337	4	0
NMHLD	66	48	6	0
NMHLD	66	49	3	0
NMHLD	66	144	1	0
NMHLD	66	145	4	0
NMHLD	66	240	3	0
NMHLD	66	241	5	0
NMHLD	66	288	3	0
NMHLD	66	289	5	0
NMHLD	66	336	5	0
NMHLD	66	337	3	0
NMHLD	67	48	2	0
NMHLD	67	49	4	0
NMHLD	67	144	0	0
NMHLD	67	145	7	0
NMHLD	67	192	0	0
NMHLD	67	193	7	0
NMHLD	68	0	2	0
NMHLD	68	1	4	0
NMHLD	68	48	2	0
NMHLD	68	49	4	0
NMHLD	68	96	5	0
NMHLD	68	97	3	0
NMHLD	68	144	6	0
NMHLD	68	145	4	0
NMHLD	68	240	7	0
NMHLD	68	241	3	0
NMHLD	68	336	6	0
NMHLD	68	337	2	0
NMHLD	69	48	1	0
NMHLD	69	49	5	0
NMHLD	69	144	0	0
NMHLD	69	145	4	0
NMTAP	69	240	5
NMTAP	69	264	4
NMTAP	69	288	3
NMTAP	69	336	3
NMHLD	70	0	2	0
NMHLD	70	1	4	0
NMHLD	70	96	5	0
NMHLD	70	97	3	0
NMHLD	70	192	5	0
NMHLD	70	193	4	0
NMHLD	70	240	5	0
NMHLD	70	241	4	0
NMHLD	70	336	2	0
NMHLD	70	337	3	0
NMHLD	71	0	2	0
NMHLD	71	1	3	0
NMHLD	71	48	2	0
NMHLD	71	49	3	0
NMTAP	71	144	2
NMTAP	71	168	3
NMHLD	71	192	4	96
NMHLD	72	0	6	0
NMHLD	72	1	7	0
NMHLD	72	48	6	0
NMHLD	72	49	7	0
BRHLD	72	144	6	0
NMHLD	72	145	5	0
NMHLD	72	240	5	0
BRHLD	72	241	4	0
BRHLD	72	336	3	0
NMHLD	72	337	4	0
BRHLD	73	48	2	0
NMHLD	73	49	3	0
NMHLD	73	96	2	0
BRHLD	73	97	3	0
NMHLD	73	192	1	0
BRHLD	73	193	2	0
BRHLD	73	288	1	0
NMHLD	73	289	0	0
NMHLD	73	336	1	0
BRHLD	73	337	0	0
NMHLD	74	48	2	0
NMHLD	74	49	7	0
NMHLD	74	144	5	0
NMHLD	74	145	0	0
NMHLD	74	240	3	0
NMHLD	74	241	4	0
NMHLD	74	288	3	0
NMHLD	74	289	4	0
NMHLD	74	336	3	0
NMHLD	74	337	4	0
NMHLD	75	48	5	0
NMHLD	75	49	2	0
NMHLD	75	144	0	0
NMHLD	75	145	7	0
NMHLD	75	192	6	0
NMHLD	75	193	1	0
NMSTR	76	0	5
NMSCR	76	0	5	96	1440	2
NMTTP	77	0	3	D	0	M1
NMTTP	77	96	3	B	0	M1
NMTTP	77	192	2	E	0	M1
NMTTP	77	288	6	B	0	M1
NMTTP	78	0	0	E	0	M1
NMHLD	79	0	4	192
CNSCL	80	0	2	0	1440	5
NMHLD	80	0	3	192
NMHLD	81	0	4	192
NMTAP	82	0	3
NMTAP	82	192	2
NMTAP	83	0	1
NMTAP	83	96	1
NMTAP	83	192	3
NMTAP	83	288	3
NMSTR	84	0	3
NMSCL	84	0	3	96	288	7
NMTAP	84	288	4
NMTAP	85	0	4
CNSCR	85	0	7	0	288	3
NMTAP	85	288	5
NMSTR	86	0	4
NMSCR	86	0	4	96	288	0
NMTAP	86	288	3
CNSCL	87	0	0	0	288	4
NMTAP	87	0	3
NMTAP	87	288	2
NMHLD	88	0	3	96
NMHLD	88	0	5	96
NMHLD	88	144	3	144
NMHLD	88	144	5	144
NMHLD	89	0	2	96
NMHLD	89	0	4	96
NMHLD	89	144	2	144
NMHLD	89	144	4	144
NMHLD	90	0	3	96
NMHLD	90	0	5	96
NMTAP	90	192	4
NMTAP	90	192	5
NMTAP	90	288	3
NMTAP	90	288	4
NMHLD	91	0	2	240
NMHLD	91	0	3	240
NMSTR	92	0	1
NMSV_	92	0	1	96	96	4
NMTAP	92	96	5
NMTAP	92	240	5
NMTAP	92	288	4
NMSTR	93	0	6
NMSV_	93	0	6	96	96	3
NMTAP	93	96	2
NMTAP	93	240	2
NMTAP	93	288	3
NMSTR	94	0	1
NMSV_	94	0	1	96	96	4
NMTAP	94	96	5
NMTAP	94	240	5
NMSTR	94	288	4
NMSUL	94	288	4	96	288	3
NMSUR	94	288	4	96	288	7
NMSTR	96	0	5
NMSV_	96	0	5	96	96	0
NMTAP	96	96	1
NMTAP	96	240	1
NMTAP	96	288	0
NMSTR	97	0	2
NMSV_	97	0	2	96	96	7
NMTAP	97	96	6
NMTAP	97	240	6
NMTAP	97	288	7
NMSTR	98	0	5
NMSV_	98	0	5	96	96	0
NMTAP	98	96	1
NMTAP	98	240	1
NMSTR	98	288	0
NMSUL	98	288	0	96	192	3
NMSUR	98	288	0	96	192	5
NMSTR	99	288	4
NMSCL	99	288	4	96	96	1
NMSCR	99	288	4	96	96	7
EXTAP	100	192	1
EXTAP	100	192	7
EXSTR	100	288	0
BRSF_	100	288	0	96	96	4
NMTAP	101	192	3
NMTAP	101	192	5
NMTAP	101	240	3
NMTAP	101	240	5
NMTAP	101	288	3
NMTAP	101	288	5
BRTAP	102	0	6
BRTAP	102	0	7
BRTAP	102	96	2
BRTAP	102	96	3
BRTAP	102	192	0
BRTAP	102	192	1
BRSTR	102	288	0
BRSCR	102	288	0	96	96	4
BRTAP	102	288	7
NMTAP	103	0	4
NMSTR	103	96	6
NMSI_	103	96	6	96	48	2
NMSTR	103	192	1
NMSI_	103	192	1	96	48	5
NMSTR	103	288	7
NMSI_	103	288	7	96	48	3
NMSTR	104	0	0
NMSI_	104	0	0	96	48	4
NMTAP	104	96	6
NMTAP	104	192	3
NMTAP	104	192	5
NMTAP	104	288	2
NMTAP	104	336	4
NMHLD	105	0	3	96
NMHLD	105	0	5	96
NMTAP	105	144	6
NMTAP	105	192	6
NMTAP	105	240	7
NMTAP	105	288	0
NMSTR	105	336	1
NMSCL	105	336	1	96	48	6
NMHLD	106	48	5	96
NMTAP	106	144	4
NMTAP	106	240	3
NMTAP	106	240	6
NMTAP	106	288	3
NMTAP	106	288	6
NMTTP	107	0	6	A	1	M1
NMTTP	107	12	6	E	0	M1
NMTTP	107	24	5	E	0	M1
NMTTP	107	36	4	A	0	M1
NMTTP	107	96	1	A	1	M1
NMTTP	107	108	2	E	0	M1
NMTTP	107	120	3	E	0	M1
NMTTP	107	132	3	A	0	M1
NMTTP	107	192	6	A	1	M1
NMTTP	107	204	6	E	0	M1
NMTTP	107	216	5	E	0	M1
NMTTP	107	228	4	A	0	M1
NMSTR	107	288	0
BRSI_	107	288	0	96	48	3
NMSTR	108	0	4
BRSI_	108	0	4	96	48	7
NMSTR	108	96	2
BRSI_	108	96	2	96	48	5
NMSTR	108	192	6
BRSI_	108	192	6	96	48	1
NMSTR	108	288	0
NMSCR	108	288	0	96	96	4
NMSTR	109	0	4
NMSCR	109	0	4	96	96	0
NMSTR	109	96	0
NMSCR	109	96	0	96	96	4
NMSTR	109	192	4
NMSCR	109	192	4	96	96	0
NMTAP	109	288	0
NMTAP	110	0	4
NMTAP	110	96	3
NMTAP	110	96	5
NMTAP	110	144	3
NMTAP	110	144	5
NMTAP	110	240	1
NMTAP	110	240	3
NMTAP	110	288	1
NMTAP	110	288	3
NMSTR	111	0	1
NMSI_	111	0	1	96	48	3
NMTAP	111	96	4
NMTAP	111	144	5
NMSTR	111	192	6
NMSI_	111	192	6	96	48	4
NMTAP	111	288	3
NMTAP	111	336	2
NMSTR	112	0	1
NMSI_	112	0	1	96	48	3
NMTAP	112	96	4
NMHLD	112	144	5	96
NMTAP	112	240	4
NMTAP	112	288	4
NMTAP	112	288	5
NMHLD	113	0	3	96
NMHLD	113	0	6	96
NMHLD	113	144	2	96
NMTAP	113	144	5
NMTAP	113	240	3
NMTAP	113	288	3
NMTAP	113	336	2
NMTAP	114	0	1
NMTAP	114	24	3
NMTAP	114	48	1
NMTAP	114	72	3
NMTAP	114	96	1
NMHLD	114	144	0	96
NMHLD	114	144	4	96
NMTAP	114	288	0
NMTAP	114	288	4
NMHLD	115	0	1	96
NMHLD	115	0	5	96
NMSTR	115	192	2
NMSCR	115	192	2	96	48	4
NMSTR	115	192	6
NMSCL	115	192	6	96	48	4
EXTAP	116	0	0
EXTAP	116	0	7
NMTAP	116	48	1
NMTAP	116	72	3
NMTAP	116	96	2
NMTAP	116	144	6
NMTAP	116	168	4
NMTAP	116	192	5
NMTAP	116	240	2
NMTAP	116	264	3
NMTAP	116	288	1
NMTAP	116	336	5
NMSTR	117	0	6
NMSI_	117	0	6	96	48	3
NMTAP	117	0	7
NMTAP	117	96	0
NMTAP	117	96	6
NMTAP	117	192	0
NMSTR	117	192	1
NMSI_	117	192	1	96	48	4
NMTAP	117	288	1
NMTAP	117	288	7
NMTAP	118	0	3
NMTAP	118	0	6
NMTAP	118	48	5
NMTAP	118	72	4
NMTAP	118	96	6
NMTAP	118	144	2
NMTAP	118	168	3
NMTAP	118	192	1
NMTAP	118	240	6
NMTAP	118	264	7
NMTAP	118	288	6
NMTAP	118	336	5
NMSTR	119	0	3
NMSI_	119	0	3	96	48	0
NMTAP	119	0	4
NMTAP	119	96	3
NMTAP	119	96	5
NMTAP	119	192	6
NMSTR	119	192	7
NMSI_	119	192	7	96	48	3
NMTAP	119	288	5
NMTAP	119	288	7
NMTAP	120	0	2
NMTAP	120	0	4
NMTAP	120	48	1
NMTAP	120	72	3
NMTAP	120	96	2
NMTAP	120	144	5
NMTAP	120	168	4
NMTAP	120	192	6
NMTAP	120	240	1
NMTAP	120	264	0
NMTAP	120	288	1
NMTAP	120	336	6
NMTAP	120	360	7
NMTAP	121	0	6
NMTAP	121	48	2
NMTAP	121	72	3
NMTAP	121	96	2
NMTAP	121	144	5
NMTAP	121	168	4
NMTAP	121	192	6
NMTAP	121	240	2
NMSTR	121	288	0
NMSCL	121	288	0	96	48	5
NMSTR	121	288	1
NMSCR	121	288	1	96	48	4
NMTAP	122	0	0
NMTAP	122	0	1
NMSTR	122	96	6
NMSI_	122	96	6	96	48	2
NMSTR	122	96	7
NMSI_	122	96	7	96	48	3
NMTAP	122	192	6
NMTAP	122	192	7
NMTAP	122	288	0
BXSTR	122	288	1
BRSI_	122	288	1	96	48	5
BXSTR	123	0	0
BRSI_	123	0	0	96	48	4
BXSTR	123	96	7
BRSI_	123	96	7	96	48	3
BXSTR	123	192	6
BRSI_	123	192	6	96	48	2
BRTAP	123	288	0
NMTAP	124	0	1
NMSTR	124	0	3
NMSCR	124	0	3	96	96	7
NMTAP	124	96	2
NMSTR	124	192	4
NMSCL	124	192	4	96	96	0
NMTAP	124	288	5
NMSTR	125	0	3
NMSCR	125	0	3	96	96	7
NMTAP	125	96	2
NMSTR	125	192	4
NMSCL	125	192	4	96	96	0
NMTAP	125	288	5
NMTAP	126	0	3
NMSTR	126	96	0
NMSXL	126	96	0	96	96	0
NMSTR	126	192	7
NMSXR	126	192	7	96	96	7
NMSTR	127	0	0
NMSI_	127	0	0	96	48	3
NMTAP	127	96	4
NMHLD	127	144	4	96
NMTAP	127	240	2
NMTAP	127	288	2
NMSTR	128	0	1
NMSI_	128	0	1	96	48	5
NMTAP	128	0	4
NMTAP	128	96	1
NMTAP	128	96	5
NMSTR	128	144	6
NMSI_	128	144	6	96	48	3
NMTAP	128	240	3
NMTAP	128	240	6
NMTAP	128	288	2
NMTAP	128	336	1
NMTAP	129	0	0
NMTAP	129	24	7
NMTAP	129	48	0
NMTAP	129	72	7
NMTAP	129	96	0
NMTAP	129	144	1
NMTAP	129	144	6
NMTAP	129	240	3
NMTAP	129	240	4
NMTAP	129	288	3
NMTAP	129	288	4
NMTAP	130	0	0
NMSTR	130	96	2
NMSXL	130	96	2	96	192	0

T_REC_TAP	358
T_REC_BRK	10
T_REC_XTP	4
T_REC_BXX	0
T_REC_HLD	196
T_REC_XHO	0
T_REC_BHO	16
T_REC_BXH	0
T_REC_STR	120
T_REC_BST	1
T_REC_XST	2
T_REC_XBS	4
T_REC_TTP	17
T_REC_THO	0
T_REC_SLD	114
T_REC_BSL	17
T_REC_ALL	859
T_NUM_TAP	501
T_NUM_BRK	48
T_NUM_HLD	196
T_NUM_SLD	114
T_NUM_ALL	859
T_JUDGE_TAP	516
T_JUDGE_HLD	286
T_JUDGE_SLD	131
T_JUDGE_ALL	933
TTM_EACHPAIRS	104
TTM_SCR_TAP	250500
TTM_SCR_BRK	124800
TTM_SCR_HLD	196000
TTM_SCR_SLD	171000
TTM_SCR_ALL	742300
TTM_SCR_S	715400
TTM_SCR_SS	737500
TTM_RAT_ACV	10065

