VERSION	0.00.00	1.04.00
FES_MODE	0
BPM_DEF	220.000	220.000	220.000	220.000
MET_DEF	4	4
RESOLUTION	384
CLK_DEF	384
COMPATIBLE_CODE	MA2

BPM	0	0	220.000
MET	0	0	4	4

NMTAP	2	0	2
NMTAP	2	48	2
NMTAP	2	96	3
NMTAP	2	192	3
NMTAP	2	192	4
NMTAP	2	288	3
NMTAP	2	288	4
NMTAP	3	0	5
NMTAP	3	48	5
NMTAP	3	96	4
BXTAP	3	192	3
BXTAP	3	192	7
NMTAP	4	0	5
NMTAP	4	96	5
NMTAP	4	192	4
NMTAP	4	288	3
NMTAP	5	0	2
NMTAP	5	0	3
NMTAP	5	96	2
NMTAP	5	96	3
NMTAP	5	192	1
NMTAP	5	192	4
NMTAP	5	288	1
NMTAP	5	288	4
NMTAP	6	0	2
NMTAP	6	96	2
NMTAP	6	192	3
NMTAP	6	288	4
NMTAP	7	0	4
NMTAP	7	0	5
NMHLD	7	96	4	96
NMHLD	7	96	5	96
NMTAP	7	288	3
NMTAP	7	288	6
NMTAP	8	0	5
NMTAP	8	96	5
NMTAP	8	192	2
NMTAP	8	192	4
NMTAP	8	288	2
NMTAP	8	288	4
NMTAP	9	0	1
NMTAP	9	96	2
NMTAP	9	192	3
NMTAP	9	192	5
NMTAP	9	288	3
NMTAP	9	288	5
NMTAP	10	0	6
NMTAP	10	96	7
NMTAP	10	192	1
NMTAP	10	288	2
NMTAP	11	0	3
NMTAP	11	0	5
NMTAP	11	96	3
NMTAP	11	96	5
NMTAP	11	192	2
NMTAP	11	192	6
NMTAP	12	0	1
NMTAP	12	96	1
NMTAP	12	192	2
NMTAP	12	288	3
NMTAP	13	0	4
NMTAP	13	0	5
NMTAP	13	96	4
NMTAP	13	96	5
NMTAP	13	192	3
NMTAP	13	192	6
NMTAP	13	288	3
NMTAP	13	288	6
NMTAP	14	0	6
NMTAP	14	96	6
NMTAP	14	192	5
NMTAP	14	288	4
NMTAP	15	0	2
NMTAP	15	0	3
NMHLD	15	96	2	96
NMHLD	15	96	3	96
NMTAP	15	288	1
NMTAP	15	288	4
NMTAP	16	0	2
NMTAP	16	96	2
NMTAP	16	192	3
NMTAP	16	192	5
NMTAP	16	288	4
NMTAP	16	288	6
NMTAP	17	0	7
NMTAP	17	96	7
NMTAP	17	192	4
NMTAP	17	192	6
NMTAP	17	288	3
NMTAP	17	288	5
NMTAP	18	0	2
NMTAP	18	96	2
NMTAP	18	192	1
NMTAP	18	192	3
NMTAP	18	288	2
NMTAP	18	288	4
NMTAP	19	0	5
NMTAP	19	96	6
EXTAP	19	192	4
EXTAP	19	192	7
NMHLD	20	0	5	96
NMTAP	20	96	4
NMHLD	20	192	2	96
NMSTR	20	288	3
NMSUR	20	288	3	96	144	0
EXTAP	21	288	1
NMHLD	22	0	2	96
NMTAP	22	96	3
NMHLD	22	192	5	96
NMSTR	22	288	4
NMSI_	22	288	4	96	144	7
EXTAP	23	288	6
NMHLD	24	0	4	96
NMHLD	24	0	5	96
NMHLD	24	192	4	96
NMHLD	24	192	5	96
NMHLD	25	0	6	96
NMHLD	25	0	7	96
NMHLD	25	192	6	96
NMHLD	25	192	7	96
NMTAP	26	0	6
NMTAP	26	0	7
NMTAP	26	96	6
NMTAP	26	96	7
NMTAP	26	192	5
NMTAP	26	192	6
NMTAP	26	288	5
NMTAP	26	288	6
NMTAP	27	0	4
NMTAP	27	0	5
NMTAP	27	96	4
NMTAP	27	96	5
NMTAP	27	192	3
NMTAP	27	192	6
NMHLD	28	0	5	96
NMTAP	28	96	4
NMHLD	28	192	2	96
NMSTR	28	288	3
NMSV_	28	288	3	96	144	0
EXTAP	29	288	1
NMHLD	30	0	2	96
NMTAP	30	96	3
NMHLD	30	192	5	96
NMSTR	30	288	4
NMSCR	30	288	4	96	144	7
EXTAP	31	288	6
NMHLD	32	0	6	96
NMHLD	32	0	7	96
NMHLD	32	192	6	96
NMHLD	32	192	7	96
NMHLD	33	0	4	96
NMHLD	33	0	5	96
NMHLD	33	192	4	96
NMHLD	33	192	5	96
NMTAP	34	0	3
NMTAP	34	0	4
NMTAP	34	96	2
NMTAP	34	144	2
NMTAP	34	192	3
NMTAP	34	288	5
NMTAP	34	336	5
NMTAP	35	0	4
EXTAP	35	96	3
EXTAP	35	96	5
EXTAP	35	192	2
EXTAP	35	192	4
NMHLD	36	0	1	672
NMTAP	36	192	3
NMSTR	37	0	5
NMSCL	37	0	5	96	192	2
NMTTP	38	0	1	E	0	M1
NMTTP	38	96	0	C	0	M1
NMTTP	38	192	5	E	0	M1
NMTTP	38	288	6	D	0	M1
NMTTP	39	0	7	E	0	M1
NMTTP	39	96	0	C	0	M1
NMTTP	39	192	3	E	0	M1
NMHLD	40	0	5	672
NMTAP	40	192	3
NMSTR	41	0	1
NMSCL	41	0	1	96	192	6
NMTAP	42	0	4
NMTAP	42	96	4
NMTAP	42	192	3
NMTAP	42	288	3
NMHLD	43	0	3	192
NMHLD	43	0	4	192
BXHLD	44	0	0	96
BXHLD	44	0	7	96
EXTAP	44	192	1
EXTAP	44	240	1
EXTAP	44	288	0
NMTAP	45	0	2
NMTAP	45	0	3
NMTAP	45	96	2
NMTAP	45	96	3
NMTAP	45	192	4
NMTAP	45	192	5
NMTAP	45	288	4
NMTAP	45	288	5
NMHLD	46	0	3	96
NMHLD	46	0	6	96
NMTAP	46	192	6
NMTAP	46	240	6
NMTAP	46	288	7
NMTAP	47	0	4
NMTAP	47	0	5
NMTAP	47	96	4
NMTAP	47	96	5
NMTAP	47	192	2
NMTAP	47	192	3
NMTAP	47	288	2
NMTAP	47	288	3
NMTAP	48	0	1
NMTAP	48	0	4
NMTAP	48	96	5
NMTAP	48	144	5
NMTAP	48	192	4
NMTAP	48	240	4
NMTAP	48	288	6
NMHLD	48	336	6	96
NMTAP	49	48	7
NMTAP	49	144	0
NMTAP	49	144	5
NMTAP	49	240	1
NMHLD	49	288	1	96
NMHLD	50	0	3	96
NMHLD	50	96	4	96
NMHLD	50	192	6	96
NMTAP	50	288	7
BRTAP	51	0	6
BRTAP	51	0	7
BRTAP	51	96	2
BRTAP	51	96	3
BRTAP	51	192	0
BRTAP	51	192	1
BRTAP	51	288	4
BRTAP	51	288	5
NMSTR	52	0	6
NMSI_	52	0	6	96	96	1
NMSTR	52	192	2
NMSI_	52	192	2	96	96	5
NMHLD	53	0	6	96
NMTAP	53	96	7
NMTAP	53	144	7
NMTAP	53	240	0
NMTAP	53	288	0
NMSTR	54	0	1
NMSI_	54	0	1	96	96	4
NMSTR	54	192	6
NMSI_	54	192	6	96	96	3
NMHLD	55	0	2	96
NMTAP	55	96	4
NMTAP	55	144	4
NMTAP	55	240	3
NMTAP	55	240	5
NMTAP	55	288	3
NMTAP	55	288	5
NMHLD	56	0	2	96
NMHLD	56	0	6	96
NMHLD	56	144	2	96
NMHLD	56	144	6	96
EXTAP	56	288	2
EXTAP	56	288	6
NMTAP	57	0	0
NMTAP	57	96	1
NMTAP	57	96	7
NMTAP	57	144	1
NMTAP	57	144	7
NMTAP	57	240	2
NMTAP	57	240	6
NMTAP	57	288	2
NMTAP	57	288	6
NMTAP	58	0	3
NMTAP	58	0	5
NMSTR	58	96	2
NMSUL	58	96	2	96	144	5
NMTAP	58	96	4
EXTAP	59	0	7
EXTAP	59	96	7
EXTAP	59	192	7
BRTAP	59	288	0
BRTAP	59	288	6
NMTAP	60	0	1
NMTAP	60	48	1
NMTAP	60	96	3
NMHLD	60	144	2	96
NMHLD	60	240	3	96
NMHLD	60	336	4	96
NMHLD	61	48	5	96
NMHLD	61	144	4	96
NMHLD	61	240	3	96
NMTAP	61	336	2
NMTAP	62	0	2
NMTAP	62	96	2
NMTAP	62	96	3
NMTAP	62	192	1
NMTAP	62	192	4
NMSTR	62	240	1
NMSCR	62	240	1	96	192	4
NMSTR	62	240	4
NMSV_	62	240	4	96	192	7
NMTAP	64	0	7
NMTAP	64	48	7
NMTAP	64	144	4
NMTAP	64	144	6
NMTAP	64	240	3
NMTAP	64	240	5
NMTAP	64	336	2
NMTAP	64	336	4
NMTAP	65	48	1
NMTAP	65	96	1
NMTAP	65	192	2
NMTAP	65	192	4
NMTAP	65	288	5
NMTAP	65	336	5
NMTAP	66	48	4
NMTAP	66	48	6
NMTAP	66	144	3
NMTAP	66	144	5
NMTAP	66	240	2
NMTAP	66	288	3
NMTAP	66	336	2
NMTAP	67	48	1
NMTAP	67	48	4
NMTAP	67	144	0
NMTAP	67	144	3
BRTAP	67	192	0
BRTAP	67	192	3
NMTAP	68	0	1
NMTAP	68	48	1
NMTAP	68	96	3
NMHLD	68	144	2	96
NMHLD	68	240	3	96
NMHLD	68	336	4	96
NMHLD	69	48	5	96
NMHLD	69	144	4	96
NMHLD	69	240	3	96
NMTAP	69	336	2
NMTAP	70	0	2
NMTAP	70	96	2
NMTAP	70	96	3
NMTAP	70	192	1
NMTAP	70	192	4
NMSTR	70	240	1
NMSCR	70	240	1	96	192	4
NMSTR	70	240	4
NMSV_	70	240	4	96	192	7
NMTAP	72	0	7
NMTAP	72	48	7
NMTAP	72	144	3
NMTAP	72	144	6
NMTAP	72	240	2
NMTAP	72	240	5
NMTAP	72	336	1
NMTAP	72	336	4
NMTAP	73	48	0
NMTAP	73	96	0
NMTAP	73	192	1
NMTAP	73	192	3
NMTAP	73	288	4
NMTAP	73	336	4
NMTAP	74	48	5
NMTAP	74	48	7
NMTAP	74	144	0
NMTAP	74	144	6
NMTAP	74	240	1
NMTAP	74	288	0
NMTAP	74	336	1
NMTAP	75	48	2
NMTAP	75	48	7
NMTAP	75	144	3
NMTAP	75	144	6
BRTAP	75	192	3
BRTAP	75	192	6
NMTAP	76	0	4
NMSTR	76	0	5
BRSCR	76	0	5	96	672	2
BRSUR	76	0	5	96	672	2
NMTAP	79	0	2
NMTAP	79	0	3
NMSTR	80	0	2
BRSV_	80	0	2	96	672	5
BRSLL	80	0	2	96	672	5
NMTAP	80	0	3
NMTAP	83	0	4
NMTAP	83	0	5
NMTAP	83	96	4
NMTAP	83	96	5
NMTAP	83	192	3
NMTAP	83	192	4
NMTAP	83	288	2
NMTAP	83	288	3
NMHLD	84	0	1	192
NMTAP	84	192	3
NMHLD	85	0	2	96
NMHLD	85	0	3	168
NMHLD	86	0	5	192
NMTAP	86	192	4
NMHLD	87	0	4	168
NMHLD	87	0	6	96
NMHLD	88	0	5	144
NMHLD	89	0	2	144
NMHLD	89	0	3	144
NMSTR	90	0	4
NMSSL	90	0	4	96	336	0
NMHLD	92	0	0	192
NMSTR	92	0	1
NMSCR	92	0	1	96	144	4
NMSTR	93	0	2
NMSCR	93	0	2	96	144	5
NMHLD	93	0	7	192
NMTAP	94	0	6
NMTAP	94	96	5
NMTAP	94	192	4
NMSTR	94	288	5
NMSLL	94	288	5	96	240	7
NMSTR	96	0	6
NMSCL	96	0	6	96	144	3
NMHLD	96	0	7	192
NMHLD	97	0	0	192
NMSTR	97	0	5
NMSCL	97	0	5	96	144	2
NMTAP	98	0	1
NMTAP	98	96	2
NMTAP	98	192	3
NMSTR	98	288	2
NMSUL	98	288	2	96	192	5
NMHLD	100	0	4	192
NMTAP	100	192	3
BRHLD	101	0	0	96
BRHLD	101	0	7	96
NMTAP	101	192	1
NMTAP	101	192	6
NMTAP	101	240	1
NMTAP	101	240	6
NMTAP	101	288	1
NMTAP	101	288	6
BRTAP	102	0	2
BRTAP	102	0	3
BRTAP	102	96	4
BRTAP	102	96	5
BRTAP	102	192	6
BRTAP	102	192	7
BRTAP	102	288	0
BRTAP	102	288	1
NMHLD	103	0	2	96
NMHLD	103	0	7	96
NMTAP	103	192	3
NMTAP	103	192	6
NMTAP	103	240	3
NMTAP	103	240	6
NMTAP	103	288	3
NMTAP	103	288	6
NMTAP	104	0	4
NMTAP	104	0	5
NMTAP	104	96	2
NMTAP	104	96	3
NMTAP	104	192	0
NMTAP	104	192	1
NMTAP	104	288	6
NMTAP	104	288	7
NMTAP	105	0	0
NMTAP	105	0	5
NMTAP	105	96	1
NMTAP	105	144	1
NMTAP	105	192	0
NMTAP	105	240	0
NMTAP	105	288	2
NMHLD	105	336	2	96
NMTAP	106	48	3
NMTAP	106	144	1
NMTAP	106	144	4
NMTAP	106	240	5
NMHLD	106	288	5	96
NMHLD	107	0	7	96
NMHLD	107	96	0	96
NMHLD	107	192	2	96
NMTAP	107	288	3
BRTAP	108	0	2
BRTAP	108	0	3
BRTAP	108	96	6
BRTAP	108	96	7
BRTAP	108	192	4
BRTAP	108	192	5
BRTAP	108	288	0
BRTAP	108	288	1
NMSTR	109	0	2
NMSI_	109	0	2	96	96	5
NMSTR	109	192	6
NMSI_	109	192	6	96	96	1
NMHLD	110	0	2	96
NMTAP	110	96	3
NMTAP	110	144	3
NMTAP	110	240	2
NMTAP	110	240	4
NMTAP	110	288	2
NMTAP	110	288	4
NMTAP	111	0	1
NMSTR	111	0	5
NMSI_	111	0	5	96	96	0
NMSTR	111	192	2
NMSI_	111	192	2	96	96	7
NMHLD	112	0	6	96
NMTAP	112	96	0
NMTAP	112	144	0
NMTAP	112	240	1
NMTAP	112	240	7
NMTAP	112	288	1
NMTAP	112	288	7
NMHLD	113	0	2	96
NMHLD	113	0	6	96
NMHLD	113	144	3	96
NMHLD	113	144	5	96
EXTAP	113	288	3
EXTAP	113	288	5
NMTAP	114	0	2
NMTAP	114	48	2
NMTAP	114	144	1
NMTAP	114	144	3
NMTAP	114	240	0
NMTAP	114	240	4
NMTAP	114	288	0
NMTAP	114	288	4
NMTAP	115	0	5
NMSTR	115	96	6
NMSUL	115	96	6	96	120	2
NMTAP	115	96	7
BXTAP	116	0	0
BXTAP	116	0	1
NMTAP	116	96	0
NMTAP	116	96	1
NMTAP	116	192	6
NMTAP	116	192	7
NMTAP	116	288	6
NMTAP	116	288	7
NMTAP	117	0	0
NMTAP	117	0	1
NMTAP	117	96	2
NMTAP	117	96	7
NMTAP	117	192	6
NMTAP	117	192	7
NMTAP	117	288	0
NMTAP	117	288	5
NMTAP	118	0	2
NMTAP	118	0	3
NMTAP	118	96	2
NMTAP	118	96	3
NMTAP	118	192	4
NMTAP	118	192	5
NMTAP	118	288	4
NMTAP	118	288	5
NMTAP	119	0	0
NMTAP	119	0	5
NMTAP	119	96	2
NMTAP	119	96	3
NMTAP	119	192	2
NMTAP	119	192	7
NMTAP	119	288	4
NMTAP	119	288	5
NMTAP	120	0	4
NMTAP	120	0	6
NMTAP	120	96	0
NMTAP	120	96	7
NMTAP	120	192	1
NMTAP	120	192	3
NMTAP	120	288	3
NMTAP	120	288	4
NMTAP	121	0	4
NMTAP	121	0	6
NMTAP	121	96	0
NMTAP	121	96	7
NMTAP	121	192	1
NMTAP	121	192	3
NMTAP	121	288	4
NMTAP	121	288	6
NMTAP	122	0	0
NMTAP	122	0	7
NMTAP	122	96	0
NMTAP	122	96	1
NMTAP	122	192	0
NMTAP	122	192	7
NMTAP	122	288	6
NMTAP	122	288	7
BRTAP	123	0	4
BRTAP	123	0	5
BRTAP	123	96	1
BRTAP	123	96	2
BRTAP	123	192	6
BRTAP	123	192	7
BRTAP	123	288	0
BRTAP	123	288	1
NMHLD	124	0	2	96
NMHLD	124	96	3	96
NMHLD	124	192	4	96
NMHLD	124	288	5	96
NMHLD	125	0	1	96
NMHLD	125	96	3	96
NMHLD	125	192	4	96
NMHLD	125	288	6	96
NMHLD	126	0	0	96
NMHLD	126	96	2	96
NMHLD	126	192	4	96
NMHLD	126	288	6	96
NMHLD	127	0	1	96
NMHLD	127	96	3	96
NMHLD	127	192	5	96
NMHLD	127	288	7	96
NMTAP	128	0	1
NMTAP	128	96	2
NMTAP	128	96	6
NMTAP	128	144	2
NMTAP	128	144	6
NMTAP	128	240	4
NMTAP	128	288	4
NMTAP	129	0	0
NMTAP	129	0	6
NMTAP	129	96	1
NMTAP	129	96	5
NMTAP	129	144	1
NMTAP	129	144	5
NMTAP	129	240	3
NMTAP	129	288	3
NMTAP	130	0	4
NMTAP	130	96	3
NMTAP	130	96	5
NMTAP	130	192	4
NMTAP	130	192	6
NMTAP	130	288	5
NMHLD	130	288	7	96

T_REC_TAP	396
T_REC_BRK	38
T_REC_XTP	20
T_REC_BXX	4
T_REC_HLD	101
T_REC_XHO	0
T_REC_BHO	2
T_REC_BXH	2
T_REC_STR	29
T_REC_BST	0
T_REC_XST	0
T_REC_XBS	0
T_REC_TTP	7
T_REC_THO	0
T_REC_SLD	27
T_REC_BSL	4
T_REC_ALL	630
T_NUM_TAP	452
T_NUM_BRK	50
T_NUM_HLD	101
T_NUM_SLD	27
T_NUM_ALL	630
T_JUDGE_TAP	494
T_JUDGE_HLD	259
T_JUDGE_SLD	31
T_JUDGE_ALL	784
TTM_EACHPAIRS	190
TTM_SCR_TAP	226000
TTM_SCR_BRK	130000
TTM_SCR_HLD	101000
TTM_SCR_SLD	40500
TTM_SCR_ALL	497500
TTM_SCR_S	477750
TTM_SCR_SS	492500
TTM_RAT_ACV	10101

