VERSION	0.00.00	1.04.00
FES_MODE	0
BPM_DEF	104.000	104.000	104.000	104.000
MET_DEF	4	4
RESOLUTION	384
CLK_DEF	384
COMPATIBLE_CODE	MA2

BPM	0	0	104.000
MET	0	0	4	4

EXTAP	1	368	3
EXTAP	2	0	4
EXTAP	2	32	3
EXTAP	2	32	4
EXTAP	2	80	1
EXTAP	2	80	6
EXTAP	2	128	7
EXTAP	2	144	6
EXTAP	2	160	5
EXTAP	2	176	4
EXTAP	2	192	3
EXTAP	2	208	2
EXTAP	2	224	1
EXTAP	2	240	0
EXTAP	2	256	7
EXTAP	2	272	6
EXTAP	2	288	5
EXTAP	2	304	4
EXTAP	2	320	3
EXTAP	2	336	2
EXTAP	2	352	1
EXTAP	2	368	0
EXHLD	3	0	7	288
NMTTP	3	288	1	B	0	M1
NMTTP	3	300	1	E	0	M1
BXTAP	4	0	0
BXTAP	4	0	6
NMTAP	4	48	7
NMTAP	4	96	0
NMSTR	4	96	6
NMSCL	4	96	6	96	48	5
NMTAP	4	144	0
NMTAP	4	192	1
NMTAP	4	240	1
CNSV_	4	240	5	0	48	4
NMTAP	4	288	2
CNSCL	4	288	4	0	48	3
NMTAP	4	336	2
NMTAP	5	0	1
NMTAP	5	0	7
NMTAP	5	48	0
NMSTR	5	96	1
NMSCR	5	96	1	96	48	2
NMTAP	5	96	7
NMTAP	5	144	7
NMTAP	5	192	6
CNSV_	5	240	2	0	48	3
NMTAP	5	240	6
CNSCR	5	288	3	0	48	4
NMTAP	5	288	5
NMTAP	5	336	5
NMTAP	6	0	0
NMTAP	6	0	6
NMTAP	6	48	7
NMTAP	6	96	0
NMSTR	6	96	6
NMSCL	6	96	6	96	48	5
NMTAP	6	144	0
NMTAP	6	192	1
NMTAP	6	240	1
CNSV_	6	240	5	0	48	4
NMTAP	6	288	2
CNSCL	6	288	4	0	48	3
NMTAP	6	336	2
NMTAP	7	0	1
NMTAP	7	0	7
NMTAP	7	48	0
NMHLD	7	96	1	96
NMTAP	7	96	7
NMTAP	7	144	7
NMTAP	7	192	3
NMTAP	7	224	3
NMTAP	7	240	1
NMTAP	7	272	1
BXTAP	7	288	0
EXTAP	7	288	2
NMSTR	8	0	3
NMSI_	8	0	3	96	48	1
NMTAP	8	48	3
NMTAP	8	96	3
NMHLD	8	96	5	96
NMSTR	8	192	4
NMSI_	8	192	4	96	48	2
NMTAP	8	240	4
NMTAP	8	288	4
NMHLD	8	288	6	96
NMSTR	9	0	5
NMSI_	9	0	5	96	48	3
NMTAP	9	48	5
NMTAP	9	96	5
NMHLD	9	96	7	96
NMSTR	9	192	0
NMSF_	9	192	0	96	48	4
NMTAP	9	240	0
NMTAP	9	288	0
NMTAP	10	0	5
NMTAP	10	32	5
NMTAP	10	48	4
NMTAP	10	80	4
NMTAP	10	96	3
NMTAP	10	128	3
NMTAP	10	144	2
NMTAP	10	176	2
NMSTR	10	192	1
NMSI_	10	192	1	96	48	3
NMSI_	10	192	1	96	48	4
NMTAP	10	240	0
NMTAP	10	288	1
NMTAP	11	0	2
NMTAP	11	32	2
NMTAP	11	48	3
NMTAP	11	80	3
NMTAP	11	96	4
NMTAP	11	128	4
NMTAP	11	144	5
NMTAP	11	176	5
NMSTR	11	192	6
NMSCL	11	192	6	96	48	1
NMSUL	11	192	6	96	48	1
NMTAP	11	240	7
NMTAP	11	288	6
NMSTR	12	0	0
NMSI_	12	0	0	96	48	2
NMTAP	12	0	7
NMTAP	12	48	7
NMTAP	12	96	0
NMTAP	12	96	7
NMTAP	12	144	7
NMSTR	12	192	1
NMSI_	12	192	1	96	48	3
NMTAP	12	192	7
NMTAP	12	240	7
NMTAP	12	288	1
NMTAP	12	288	7
NMTAP	12	336	7
NMSTR	13	0	2
NMSI_	13	0	2	96	48	4
NMTAP	13	0	7
NMTAP	13	48	7
NMSTR	13	96	2
NMSI_	13	96	2	96	48	7
NMSTR	13	96	7
NMSI_	13	96	7	96	48	2
NMTAP	13	144	7
NMTAP	13	192	2
NMTAP	13	192	7
NMTAP	13	288	0
NMTAP	13	336	1
NMHLD	14	0	2	192
NMTAP	14	0	3
NMTAP	14	96	1
NMTAP	14	144	0
NMTAP	14	192	7
NMTAP	14	240	2
NMTAP	14	240	6
NMTAP	14	288	1
NMTAP	14	288	5
NMTAP	14	336	0
NMTAP	14	336	4
NMTAP	15	0	3
NMSTR	15	0	7
NMSI_	15	0	7	96	48	3
NMSTR	15	96	5
NMSI_	15	96	5	96	48	1
NMTAP	15	96	7
NMTAP	15	192	0
NMTAP	15	192	5
NMTAP	15	288	7
NMTAP	15	336	6
NMTAP	16	0	4
NMHLD	16	0	5	192
NMTAP	16	96	6
NMTAP	16	144	7
NMTAP	16	192	0
NMTAP	16	240	1
NMTAP	16	240	5
NMTAP	16	288	2
NMTAP	16	288	6
NMTAP	16	336	3
NMTAP	16	336	7
NMSTR	17	0	0
NMSI_	17	0	0	96	48	4
NMTAP	17	0	4
NMTAP	17	96	0
NMSTR	17	96	2
NMSI_	17	96	2	96	48	6
NMTAP	17	192	2
NMSTR	17	192	4
BRSI_	17	192	4	96	48	7
BXTAP	17	288	0
BXTAP	17	288	4
NMHLD	18	0	1	96
NMTAP	18	0	3
NMTTP	18	96	6	E	0	M1
NMHLD	18	192	2	96
NMTAP	18	192	4
NMTTP	18	288	6	E	0	M1
NMTAP	18	336	2
NMHLD	19	0	3	96
NMTAP	19	0	5
NMTTP	19	96	6	E	0	M1
NMTAP	19	144	3
NMHLD	19	192	4	96
NMTAP	19	192	6
NMTTP	19	288	6	E	0	M1
NMHLD	20	0	6	96
NMTAP	20	48	5
NMHLD	20	96	3	96
NMTAP	20	144	4
NMHLD	20	192	5	96
NMTAP	20	240	4
NMHLD	20	288	2	96
NMTAP	20	336	1
NMHLD	21	0	4	96
NMTAP	21	48	6
NMSTR	21	96	2
NMSI_	21	96	2	96	48	4
NMTAP	21	144	1
NMTAP	21	144	3
NMHLD	21	192	5	96
CNSI_	21	240	4	0	48	0
NMTAP	22	0	3
NMHLD	22	0	5	96
NMTTP	22	96	2	E	0	M1
NMTAP	22	192	2
NMHLD	22	192	4	96
NMTTP	22	288	2	E	0	M1
NMTAP	22	336	4
NMTAP	23	0	1
NMHLD	23	0	3	96
NMTTP	23	96	2	E	0	M1
NMTAP	23	144	3
NMSTR	23	192	2
NMSI_	23	192	2	96	48	4
NMSI_	23	192	2	96	48	6
NMTAP	23	288	2
NMHLD	24	0	7	48
NMHLD	24	48	6	48
NMHLD	24	96	5	48
NMHLD	24	144	4	48
NMHLD	24	192	0	48
NMHLD	24	240	1	48
NMHLD	24	288	2	48
NMHLD	24	336	3	48
EXSTR	25	0	4
BRSI_	25	0	4	96	48	6
EXSTR	25	48	4
BRSI_	25	48	4	96	48	2
EXSTR	25	96	4
BRSF_	25	96	4	96	48	0
EXTAP	25	144	4
EXTAP	25	192	4
NMTAP	25	288	3
NMTAP	25	288	5
EXTAP	26	0	0
NMTAP	26	32	0
NMTAP	26	48	7
NMTAP	26	80	0
NMTAP	26	80	6
NMTAP	26	128	5
NMTAP	26	144	4
NMTAP	26	176	4
NMTAP	26	192	3
NMTAP	26	224	3
NMTAP	26	240	2
NMTAP	26	272	0
NMTAP	26	272	4
NMTAP	26	320	1
NMTAP	26	336	1
NMTAP	26	368	7
NMHLD	27	0	7	96
NMTAP	27	48	5
NMHLD	27	96	1	96
NMSTR	27	144	2
NMSCR	27	144	2	96	96	0
NMTTP	27	192	0	C	0	M1
BXTAP	27	240	2
NMHLD	27	240	6	96
NMHLD	28	0	2	48
NMTAP	28	0	4
NMTAP	28	48	0
NMTAP	28	96	3
NMHLD	28	96	5	48
NMTAP	28	144	7
NMHLD	28	192	2	48
NMTAP	28	192	3
NMTAP	28	240	1
NMTAP	28	288	4
NMHLD	28	288	5	48
NMTAP	28	336	6
NMTAP	29	0	2
NMTAP	29	0	3
NMTAP	29	32	2
NMTAP	29	48	0
NMTAP	29	80	0
NMTAP	29	96	6
NMTAP	29	128	6
NMTAP	29	144	4
NMTAP	29	176	4
NMTAP	29	192	3
NMTAP	29	224	3
NMTAP	29	240	2
BRTAP	29	288	0
BRTAP	29	288	5
EXTAP	30	0	7
NMTAP	30	32	7
NMTAP	30	48	0
NMTAP	30	80	1
NMTAP	30	80	7
NMTAP	30	128	2
NMTAP	30	144	3
NMTAP	30	176	3
NMTAP	30	192	4
NMTAP	30	224	4
NMTAP	30	240	5
NMTAP	30	272	3
NMTAP	30	272	7
NMTAP	30	320	6
NMTAP	30	336	6
NMTAP	30	368	0
NMHLD	31	0	0	48
NMHLD	31	48	3	48
NMSTR	31	96	4
NMSCR	31	96	4	96	96	2
NMTAP	31	144	7
NMHLD	31	176	7	112
NMTAP	31	336	4
NMTAP	31	336	5
NMTAP	32	0	3
NMHLD	32	0	5	48
NMTAP	32	48	7
NMHLD	32	96	2	48
NMTAP	32	96	4
NMTAP	32	144	0
NMTAP	32	192	4
NMHLD	32	192	5	48
NMTAP	32	240	6
NMHLD	32	288	2	48
NMTAP	32	288	3
NMTAP	32	336	1
NMTAP	33	0	3
NMTAP	33	0	4
NMTAP	33	32	4
NMTAP	33	48	6
NMTAP	33	80	6
NMSTR	33	96	7
NMSI_	33	96	7	96	32	2
NMSI_	33	96	7	96	32	4
NMTAP	33	144	1
NMTAP	33	144	5
NMTAP	33	192	7
CNSCL	33	224	2	0	16	1
CNSCR	33	224	4	0	16	5
BRTAP	33	288	0
BRTAP	33	288	6
NMHLD	34	0	2	48
NMTAP	34	0	4
NMTAP	34	48	0
NMTAP	34	96	3
NMHLD	34	96	5	48
NMTAP	34	144	7
NMHLD	34	192	2	48
NMTAP	34	192	3
NMTAP	34	240	1
NMTAP	34	288	4
NMHLD	34	288	5	48
NMTAP	34	336	6
NMTAP	35	0	3
NMTAP	35	0	4
NMTAP	35	32	3
NMTAP	35	48	1
NMTAP	35	80	1
NMSTR	35	96	0
NMSI_	35	96	0	96	32	3
NMSI_	35	96	0	96	32	5
NMTAP	35	144	2
NMTAP	35	144	6
NMTAP	35	192	0
CNSCL	35	224	3	0	16	2
CNSCR	35	224	5	0	16	6
NMTTP	35	288	0	C	0	M1
NMTTP	35	296	4	B	0	M1
NMTTP	35	304	4	A	0	M1
NMTAP	36	0	2
NMTAP	36	48	2
NMTAP	36	96	2
NMTTP	36	96	6	B	0	M1
NMTTP	36	96	7	B	0	M1
NMTTP	36	96	7	E	0	M1
NMTAP	36	144	2
NMTAP	36	176	4
NMTAP	36	192	2
NMTAP	36	240	2
NMTAP	36	288	2
NMTTP	36	288	6	B	0	M1
NMTTP	36	288	7	B	0	M1
NMTTP	36	288	7	E	0	M1
NMTAP	36	336	2
NMTAP	36	368	3
NMTAP	37	0	2
NMTAP	37	48	2
NMTAP	37	96	2
NMTTP	37	96	6	B	0	M1
NMTTP	37	96	7	B	0	M1
NMTTP	37	96	7	E	0	M1
NMTAP	37	144	2
NMTAP	37	176	1
NMTAP	37	192	2
NMTAP	37	240	2
NMTAP	37	288	2
NMTTP	37	288	6	B	0	M1
NMTTP	37	288	7	B	0	M1
NMTTP	37	288	7	E	0	M1
NMTAP	37	336	2
NMTAP	37	368	0
NMTAP	38	0	2
NMTAP	38	48	2
NMTAP	38	96	2
NMTTP	38	96	6	B	0	M1
NMTTP	38	96	7	B	0	M1
NMTTP	38	96	7	E	0	M1
NMTAP	38	144	2
NMTAP	38	176	1
NMTAP	38	192	2
NMTAP	38	240	2
NMTAP	38	288	2
NMTTP	38	288	6	B	0	M1
NMTTP	38	288	7	B	0	M1
NMTTP	38	288	7	E	0	M1
NMTAP	38	336	2
NMTAP	38	368	3
NMTAP	39	0	2
NMTAP	39	48	2
NMTAP	39	96	2
NMTTP	39	96	6	B	0	M1
NMTTP	39	96	7	B	0	M1
NMTTP	39	96	7	E	0	M1
NMTAP	39	144	2
NMTAP	39	176	4
NMTAP	39	192	2
NMTAP	39	240	2
NMTAP	39	288	2
NMTTP	39	288	6	B	0	M1
NMTTP	39	288	7	B	0	M1
NMTTP	39	288	7	E	0	M1
NMTAP	39	336	2
NMTAP	39	368	3
NMTAP	40	0	1
NMTAP	40	48	0
NMTAP	40	48	1
NMTAP	40	96	1
NMTTP	40	96	6	B	0	M1
NMTTP	40	96	7	B	0	M1
NMTTP	40	96	7	E	0	M1
NMTAP	40	144	1
NMTAP	40	176	3
NMTAP	40	192	1
NMTAP	40	240	0
NMTAP	40	240	1
NMTAP	40	288	1
NMTTP	40	288	6	B	0	M1
NMTTP	40	288	7	B	0	M1
NMTTP	40	288	7	E	0	M1
NMTAP	40	336	1
NMTAP	40	368	3
NMTAP	41	0	1
NMTAP	41	48	0
NMTAP	41	48	1
NMTAP	41	96	1
NMTTP	41	96	6	B	0	M1
NMTTP	41	96	7	B	0	M1
NMTTP	41	96	7	E	0	M1
NMTAP	41	144	1
NMTAP	41	176	3
NMTAP	41	192	1
NMTAP	41	240	0
NMTAP	41	240	1
NMTAP	41	288	1
NMTTP	41	288	6	B	0	M1
NMTTP	41	288	7	B	0	M1
NMTTP	41	288	7	E	0	M1
NMTAP	41	336	1
NMTAP	41	368	3
NMTAP	42	0	1
NMTAP	42	48	1
NMTAP	42	48	2
NMTAP	42	96	1
NMTTP	42	96	6	B	0	M1
NMTTP	42	96	7	B	0	M1
NMTTP	42	96	7	E	0	M1
NMTAP	42	144	1
NMTAP	42	176	3
NMTAP	42	192	1
NMTAP	42	240	1
NMTAP	42	240	2
NMTAP	42	288	1
NMTTP	42	288	6	B	0	M1
NMTTP	42	288	7	B	0	M1
NMTTP	42	288	7	E	0	M1
NMTAP	42	336	1
NMTAP	42	368	3
NMTAP	43	0	1
NMTAP	43	48	1
NMTAP	43	48	2
NMTAP	43	96	1
NMTTP	43	96	6	B	0	M1
NMTTP	43	96	7	B	0	M1
NMTTP	43	96	7	E	0	M1
NMTAP	43	144	1
NMTAP	43	176	3
NMHLD	43	192	1	96
EXTAP	43	240	2
EXTAP	43	248	3
EXTAP	43	256	4
EXTAP	43	264	5
EXTAP	43	272	6
EXTAP	43	280	7
EXTAP	43	288	0
NMTAP	43	336	2
NMTAP	43	336	3
BRTAP	44	0	0
BRTAP	44	0	4
NMTAP	44	48	5
NMTAP	44	48	6
BRTAP	44	96	3
BRTAP	44	96	7
NMTAP	44	144	1
NMTAP	44	144	2
BRTAP	44	192	0
BRTAP	44	192	4
BRTAP	44	240	2
BRTAP	44	240	6
BRTAP	44	288	0
BRTAP	44	288	4
NMTAP	44	368	7
NMHLD	45	0	7	48
NMTAP	45	32	6
NMHLD	45	48	6	48
NMTAP	45	80	5
NMHLD	45	96	5	48
NMTAP	45	128	4
NMHLD	45	144	4	48
NMTAP	45	176	3
NMSTR	45	192	3
NMSF_	45	192	3	96	48	7
NMTAP	45	240	1
NMTAP	45	240	5
BXTAP	45	288	3
EXTAP	46	0	3
EXTAP	46	0	7
NMTAP	46	32	4
NMTAP	46	32	6
NMTAP	46	64	5
NMTAP	46	96	0
NMTAP	46	96	4
NMTAP	46	128	1
NMTAP	46	128	3
NMTAP	46	160	2
EXTAP	46	192	1
EXTAP	46	192	3
NMTAP	46	224	2
NMTAP	46	224	7
NMTAP	46	256	4
NMTAP	46	256	5
NMTAP	46	288	6
NMTAP	46	288	7
NMTAP	46	320	1
NMSTR	46	320	4
NMSCL	46	320	4	96	112	6
NMTAP	46	352	3
NMTAP	46	352	5
EXHLD	47	0	0	288
EXTAP	47	0	4
CNSXL	47	144	6	0	96	6
NMTAP	47	288	5
NMTAP	47	336	4
NMHLD	48	0	2	96
NMTAP	48	0	3
NMTAP	48	48	1
NMTAP	48	96	0
NMTAP	48	192	4
NMHLD	48	192	5	192
NMTAP	48	240	6
NMTAP	48	288	7
EXSTR	49	0	4
BRSI_	49	0	4	96	48	6
EXSTR	49	48	4
BRSI_	49	48	4	96	48	2
EXSTR	49	96	4
BRSF_	49	96	4	96	48	0
EXTAP	49	144	4
EXTAP	49	192	4
NMTAP	49	288	0
NMTAP	49	288	5
NMTAP	49	336	6
NMHLD	49	336	7	712
NMTTP	50	0	5	B	0	M1
NMTTP	50	0	5	E	0	M1
NMTTP	50	48	2	B	0	M1
NMTTP	50	48	3	E	0	M1
NMTTP	50	96	1	B	0	M1
NMTTP	50	96	1	E	0	M1
NMTTP	50	144	6	B	0	M1
NMTTP	50	144	7	E	0	M1
NMTTP	50	192	5	B	0	M1
NMTTP	50	192	5	E	0	M1
NMHLD	50	288	3	376
BXTAP	51	288	0
BXTAP	51	288	4
BXTAP	51	296	1
BXTAP	51	296	5
BXTAP	51	304	2
BXTAP	51	304	6
EXTAP	52	0	0
NMTAP	52	32	0
NMTAP	52	48	1
NMTAP	52	80	2
NMTAP	52	80	7
NMTAP	52	128	3
NMTAP	52	144	4
NMTAP	52	176	4
NMTAP	52	192	5
NMTAP	52	224	5
NMTAP	52	240	6
NMTAP	52	272	3
NMTAP	52	272	7
NMTAP	52	320	6
NMTAP	52	336	6
NMTAP	52	368	0
NMHLD	53	0	0	96
NMTAP	53	48	2
NMHLD	53	96	6	96
NMSTR	53	144	5
NMSCL	53	144	5	96	96	7
NMTTP	53	192	0	C	0	M1
NMHLD	53	240	1	96
BXTAP	53	240	5
NMSTR	54	0	3
NMSLR	54	0	3	96	48	1
NMHLD	54	0	5	96
NMTAP	54	48	4
NMTAP	54	96	3
NMHLD	54	192	2	96
NMSTR	54	192	4
NMSLL	54	192	4	96	48	6
NMTAP	54	240	3
NMTAP	54	288	4
NMTAP	55	0	4
NMTAP	55	0	5
NMTAP	55	32	5
NMTAP	55	48	7
NMTAP	55	80	7
NMTAP	55	96	0
NMTAP	55	128	0
NMTAP	55	144	2
NMTAP	55	176	2
NMSTR	55	192	3
BRSI_	55	192	3	96	48	7
NMTAP	55	224	3
NMTAP	55	240	4
BRTAP	55	288	3
BRTAP	55	288	7
EXTAP	56	0	7
NMTAP	56	32	7
NMTAP	56	48	6
NMTAP	56	80	0
NMTAP	56	80	5
NMTAP	56	128	4
NMTAP	56	144	3
NMTAP	56	176	3
NMTAP	56	192	2
NMTAP	56	224	2
NMTAP	56	240	1
NMTAP	56	272	0
NMTAP	56	272	4
NMTAP	56	320	1
NMTAP	56	336	1
NMTAP	56	368	7
NMHLD	57	0	7	48
NMHLD	57	48	5	48
NMHLD	57	96	3	48
NMTAP	57	144	1
NMTAP	57	176	1
NMTAP	57	192	3
NMTAP	57	224	3
NMTAP	57	240	0
NMTAP	57	288	2
NMTAP	57	288	7
NMTAP	57	336	3
NMTAP	57	336	4
NMSTR	58	0	2
NMSI_	58	0	2	96	48	7
NMSTR	58	48	7
NMSI_	58	48	7	96	48	2
NMTAP	58	96	2
NMTAP	58	96	5
NMTAP	58	144	3
NMSTR	58	192	5
NMSI_	58	192	5	96	48	0
NMSTR	58	240	0
NMSI_	58	240	0	96	48	5
NMTAP	58	288	2
NMTAP	58	288	5
NMTAP	58	336	4
NMSTR	59	0	2
NMSCL	59	0	2	96	48	7
NMTAP	59	48	6
NMSTR	59	96	2
NMSXL	59	96	2	96	96	7
NMTAP	59	96	5
NMTAP	59	144	5
NMTAP	59	192	2
NMTAP	59	192	6
BRTAP	59	288	4
NMSTR	60	0	5
NMSI_	60	0	5	96	48	0
NMTAP	60	48	4
NMSTR	60	96	2
NMSI_	60	96	2	96	48	7
NMTAP	60	96	5
NMTAP	60	144	3
NMTAP	60	192	2
NMSTR	60	192	5
NMSCL	60	192	5	96	48	2
NMTAP	60	240	6
NMTAP	60	288	2
NMTAP	60	288	5
NMTAP	60	336	1
NMSTR	61	0	0
NMSCR	61	0	0	96	48	3
NMTAP	61	0	7
NMTAP	61	48	6
NMTAP	61	96	0
NMSTR	61	96	5
NMSUL	61	96	5	96	96	3
NMTAP	61	144	6
NMTAP	61	192	1
NMTAP	61	192	5
BRTAP	61	288	7
NMTAP	62	0	5
NMTAP	62	96	2
NMTAP	62	192	3
NMTAP	62	192	4
NMTTP	62	288	1	B	0	M1
NMTTP	62	300	1	E	0	M1
EXTAP	63	0	0
EXTAP	63	0	7

T_REC_TAP	422
T_REC_BRK	18
T_REC_XTP	45
T_REC_BXX	14
T_REC_HLD	62
T_REC_XHO	2
T_REC_BHO	0
T_REC_BXH	0
T_REC_STR	42
T_REC_BST	0
T_REC_XST	6
T_REC_XBS	0
T_REC_TTP	71
T_REC_THO	0
T_REC_SLD	45
T_REC_BSL	8
T_REC_ALL	735
T_NUM_TAP	586
T_NUM_BRK	40
T_NUM_HLD	64
T_NUM_SLD	45
T_NUM_ALL	735
T_JUDGE_TAP	618
T_JUDGE_HLD	265
T_JUDGE_SLD	53
T_JUDGE_ALL	936
TTM_EACHPAIRS	127
TTM_SCR_TAP	293000
TTM_SCR_BRK	104000
TTM_SCR_HLD	64000
TTM_SCR_SLD	67500
TTM_SCR_ALL	528500
TTM_SCR_S	508800
TTM_SCR_SS	524500
TTM_RAT_ACV	10076

