VERSION	0.00.00	1.04.00
FES_MODE	0
BPM_DEF	104.000	104.000	104.000	104.000
MET_DEF	4	4
RESOLUTION	384
CLK_DEF	384
COMPATIBLE_CODE	MA2

BPM	0	0	104.000
MET	0	0	4	4

NMHLD	3	0	4	288
NMTAP	4	0	2
NMTAP	4	0	3
NMTTP	4	96	4	E	0	M1
NMTTP	4	288	1	B	0	M1
NMTTP	4	288	2	B	0	M1
NMTAP	5	0	4
NMTAP	5	0	5
NMTTP	5	96	4	E	0	M1
NMTTP	5	288	5	B	0	M1
NMTTP	5	288	6	B	0	M1
NMTAP	6	0	2
NMTAP	6	0	4
NMTTP	6	96	3	B	0	M1
NMTTP	6	288	2	B	0	M1
NMTTP	6	288	3	E	0	M1
NMTAP	7	0	3
NMTAP	7	0	5
NMTTP	7	96	4	B	0	M1
NMTTP	7	288	5	B	0	M1
NMTTP	7	288	5	E	0	M1
NMTAP	8	0	3
NMTAP	8	48	3
NMTAP	8	96	2
NMTAP	8	96	4
NMTAP	8	192	1
NMTAP	8	192	3
NMTAP	8	288	0
NMTAP	8	288	2
NMTAP	9	0	4
NMTAP	9	48	4
NMTAP	9	96	3
NMTAP	9	96	5
NMTAP	9	192	4
NMTAP	9	192	6
NMTAP	9	288	5
NMTAP	9	288	7
NMTAP	10	0	0
NMTAP	10	48	1
NMTAP	10	96	2
NMTAP	10	96	3
NMTAP	10	192	2
NMTAP	10	240	3
NMTAP	10	288	4
NMTAP	10	288	5
NMTAP	11	0	4
NMTAP	11	48	5
NMTAP	11	96	6
NMTAP	11	96	7
EXTAP	11	192	0
EXTAP	11	192	7
EXTAP	11	240	0
EXTAP	11	240	7
EXTAP	11	288	1
EXTAP	11	288	6
NMTAP	12	0	6
NMTAP	12	48	6
NMSTR	12	96	6
NMSI_	12	96	6	96	96	2
NMTAP	13	0	1
NMTAP	13	48	1
NMSTR	13	96	1
NMSI_	13	96	1	96	96	5
NMTAP	13	288	6
NMHLD	14	0	6	96
NMHLD	14	96	5	96
NMTAP	14	192	4
NMTAP	14	288	3
NMTAP	14	288	4
NMSTR	15	0	2
NMSI_	15	0	2	96	96	6
NMSTR	15	0	5
NMSI_	15	0	5	96	96	1
EXTAP	15	288	1
EXTAP	15	336	1
NMHLD	16	0	0	96
NMTAP	16	96	7
NMTAP	16	144	7
NMTAP	16	192	6
NMTAP	16	240	6
NMTAP	16	288	5
NMTAP	16	336	5
NMTAP	17	0	6
NMHLD	17	0	7	96
NMHLD	17	96	0	96
NMHLD	17	192	1	96
BRTAP	17	288	0
NMHLD	18	0	2	96
NMTAP	18	96	3
NMHLD	18	192	3	96
NMTAP	18	288	4
NMHLD	19	0	4	96
NMTAP	19	96	5
NMHLD	19	192	5	96
NMTAP	19	288	4
NMHLD	20	0	2	96
NMHLD	20	96	7	96
NMHLD	20	192	0	96
NMHLD	20	288	5	96
NMTAP	21	0	4
NMSTR	21	96	3
NMSI_	21	96	3	96	96	0
NMHLD	22	0	7	96
NMTAP	22	96	0
NMHLD	22	192	0	96
NMTAP	22	288	1
NMHLD	23	0	1	96
NMTAP	23	96	2
NMTAP	23	192	2
NMTAP	23	192	3
NMSTR	23	288	2
NMSI_	23	288	2	96	48	4
CNSI_	24	48	4	0	72	1
CNSI_	24	120	1	0	96	5
CNSI_	24	216	5	0	72	0
NMHLD	25	0	6	48
NMHLD	25	96	0	48
BRTAP	25	192	7
NMTAP	25	288	4
NMTAP	25	288	5
BXTAP	26	0	2
BXTAP	26	0	3
NMTAP	26	48	4
NMTAP	26	96	5
NMTAP	26	96	6
NMTAP	26	144	5
NMTAP	26	144	6
EXTAP	26	192	4
EXTAP	26	192	7
EXHLD	26	240	4	48
EXHLD	26	240	7	48
NMTAP	26	336	2
NMHLD	27	0	2	48
NMTAP	27	48	3
NMTAP	27	96	4
NMTAP	27	96	5
NMTAP	27	144	6
NMTAP	27	144	7
NMTAP	27	192	0
BRTAP	27	240	0
EXTAP	27	336	1
EXTAP	28	0	1
NMTAP	28	48	0
NMTAP	28	48	1
NMTAP	28	96	7
NMTAP	28	144	7
NMSTR	28	192	7
NMSF_	28	192	7	96	48	3
EXTAP	29	48	4
EXTAP	29	48	5
NMTAP	29	96	3
NMTAP	29	144	2
NMHLD	29	192	1	48
NMTAP	29	240	0
BXTAP	29	288	1
NMTAP	30	0	0
NMTAP	30	0	1
NMTAP	30	48	7
NMTAP	30	96	5
NMTAP	30	96	6
NMTAP	30	144	5
NMTAP	30	144	6
EXTAP	30	192	4
EXTAP	30	192	7
EXHLD	30	240	4	48
EXHLD	30	240	7	48
NMTAP	30	336	1
NMHLD	31	0	1	48
NMTAP	31	48	0
EXTAP	31	96	0
EXTAP	31	96	7
BXHLD	31	144	7	96
NMTAP	31	288	7
NMHLD	31	336	1	48
NMTAP	32	0	0
NMTAP	32	48	1
NMTAP	32	96	3
NMTAP	32	144	3
NMTAP	32	192	4
NMTAP	32	192	5
NMTAP	32	240	5
NMTAP	32	240	6
NMTAP	32	288	6
NMTAP	32	288	7
NMTAP	33	0	4
NMTAP	33	0	5
NMTAP	33	48	5
NMTAP	33	96	2
NMTAP	33	96	3
NMTAP	33	144	2
NMHLD	33	192	5	96
BRTAP	33	288	4
NMHLD	33	336	6	48
NMTAP	34	0	7
NMTAP	34	48	6
NMTAP	34	96	4
NMTAP	34	144	4
NMTAP	34	192	2
NMTAP	34	192	3
NMTAP	34	240	1
NMTAP	34	240	2
NMTAP	34	288	0
NMTAP	34	288	1
NMTAP	35	0	2
NMTAP	35	0	3
NMTAP	35	48	2
NMTAP	35	96	4
NMTAP	35	96	5
NMTAP	35	144	5
NMTAP	35	192	3
NMHLD	35	288	3	192
NMTTP	36	288	1	B	0	M1
NMTTP	36	288	2	B	0	M1
NMTTP	36	288	2	E	0	M1
NMTAP	37	0	3
NMTTP	37	96	1	B	0	M1
NMTTP	37	96	2	B	0	M1
NMTTP	37	96	2	E	0	M1
NMTAP	37	192	3
NMTTP	37	288	1	B	0	M1
NMTTP	37	288	2	B	0	M1
NMTTP	37	288	2	E	0	M1
NMTAP	38	0	3
EXTAP	38	0	4
NMTTP	38	96	1	B	0	M1
NMTTP	38	96	2	B	0	M1
NMTTP	38	96	2	E	0	M1
EXTAP	38	96	5
NMTAP	38	192	3
EXTAP	38	192	6
NMTTP	38	288	1	B	0	M1
NMTTP	38	288	2	B	0	M1
NMTTP	38	288	2	E	0	M1
NMTAP	39	0	3
EXTAP	39	0	4
NMTTP	39	96	1	B	0	M1
NMTTP	39	96	2	B	0	M1
NMTTP	39	96	2	E	0	M1
EXTAP	39	96	5
NMTAP	39	192	3
EXTAP	39	192	6
NMTTP	39	288	1	B	0	M1
NMTTP	39	288	2	B	0	M1
NMTTP	39	288	2	E	0	M1
EXTAP	39	288	7
NMTAP	40	0	4
NMTAP	40	0	5
NMTAP	40	96	2
NMTAP	40	144	2
NMTAP	40	192	2
NMTAP	40	192	3
NMSTR	40	288	0
NMSCR	40	288	0	96	96	4
NMTAP	41	96	5
NMTAP	41	192	3
NMTAP	41	240	4
NMTAP	41	288	3
NMTAP	42	0	2
NMTAP	42	0	3
NMTAP	42	96	5
NMTAP	42	144	5
NMTAP	42	192	4
NMTAP	42	192	5
NMSTR	42	288	7
NMSCL	42	288	7	96	96	3
NMTAP	43	96	2
NMTAP	43	192	3
NMTAP	43	192	4
EXTAP	43	240	5
BRTAP	43	288	6
BRTAP	43	288	7
NMTAP	44	0	0
NMTAP	44	0	6
NMTAP	44	48	7
NMTAP	44	96	0
NMTAP	44	96	6
NMTAP	44	144	7
NMTAP	44	192	4
NMTAP	44	192	5
NMTAP	44	240	4
NMTAP	44	240	5
NMTAP	44	288	6
NMTAP	44	288	7
NMTAP	45	0	1
NMTAP	45	0	7
NMTAP	45	48	0
NMTAP	45	96	1
NMTAP	45	96	7
NMTAP	45	144	0
NMTAP	45	192	2
NMTAP	45	192	3
NMTAP	45	240	2
NMTAP	45	240	3
NMTAP	45	288	0
NMTAP	45	288	1
NMTAP	46	0	6
NMTAP	46	0	7
NMTAP	46	48	0
NMTAP	46	96	1
NMTAP	46	144	2
NMTAP	46	192	3
NMTAP	46	192	4
NMTAP	46	240	5
NMTAP	46	288	6
NMTAP	46	336	7
NMHLD	47	0	0	192
NMSTR	47	288	5
NMSI_	47	288	5	96	48	3
CNSI_	48	48	3	0	72	6
CNSI_	48	120	6	0	96	2
CNSI_	48	216	2	0	72	7
NMHLD	49	0	1	48
NMHLD	49	96	0	48
NMHLD	49	96	7	48
BRTAP	49	192	1
BRTAP	49	192	6
NMHLD	49	288	3	48
NMTAP	50	0	2
NMTAP	50	0	4
NMTAP	50	48	2
NMTAP	50	48	4
NMTAP	50	96	3
NMTAP	50	96	5
NMTAP	50	144	3
NMTAP	50	144	5
NMTAP	50	192	1
NMTAP	50	192	7
NMTHO	50	288	0	336	C	1	M1
EXTAP	52	0	0
EXTAP	52	0	1
NMTAP	52	48	7
NMTAP	52	96	5
NMTAP	52	96	6
NMTAP	52	144	5
NMTAP	52	144	6
NMTAP	52	192	4
NMTAP	52	192	7
NMHLD	52	240	4	48
NMHLD	52	240	7	48
NMTAP	52	336	5
NMHLD	53	0	5	48
NMTAP	53	48	4
NMTAP	53	96	2
NMTAP	53	96	3
NMTAP	53	144	0
NMTAP	53	144	1
NMTAP	53	192	7
BRTAP	53	240	7
EXTAP	53	336	6
EXTAP	54	0	6
NMTAP	54	48	6
NMTAP	54	48	7
NMTAP	54	96	0
NMTAP	54	144	0
NMSTR	54	192	0
NMSF_	54	192	0	96	48	4
EXTAP	55	48	2
EXTAP	55	48	3
NMTAP	55	96	4
NMTAP	55	144	5
NMHLD	55	192	6	48
NMTAP	55	240	7
BRTAP	55	288	6
NMTAP	56	0	2
NMTAP	56	0	3
NMTAP	56	48	4
NMTAP	56	96	5
NMTAP	56	96	6
NMTAP	56	144	5
NMTAP	56	144	6
NMTAP	56	192	4
NMTAP	56	192	7
NMHLD	56	240	4	48
NMHLD	56	240	7	48
NMTAP	56	336	6
NMHLD	57	0	6	48
NMTAP	57	48	7
EXTAP	57	96	0
EXTAP	57	96	7
BXHLD	57	144	0	96
NMTAP	57	288	0
NMHLD	57	336	6	48
NMTAP	58	0	7
NMTAP	58	48	6
NMTAP	58	96	4
NMTAP	58	144	4
NMTAP	58	192	2
NMTAP	58	192	3
NMTAP	58	240	1
NMTAP	58	240	2
NMTAP	58	288	0
NMTAP	58	288	1
NMTAP	59	0	2
NMTAP	59	0	3
NMTAP	59	48	2
NMTAP	59	96	4
NMTAP	59	96	5
NMTAP	59	144	5
NMHLD	59	192	2	96
BRTAP	59	288	3
NMHLD	59	336	1	48
NMTAP	60	0	0
NMTAP	60	48	1
NMTAP	60	96	3
NMTAP	60	144	3
NMTAP	60	192	4
NMTAP	60	192	5
NMTAP	60	240	5
NMTAP	60	240	6
NMTAP	60	288	6
NMTAP	60	288	7
NMTAP	61	0	4
NMTAP	61	0	5
NMTAP	61	48	5
NMTAP	61	96	2
NMTAP	61	96	3
NMTAP	61	144	2
NMTAP	61	192	1
NMHLD	61	288	0	48
NMHLD	61	288	1	48
NMTAP	62	0	0
NMTAP	62	0	1
NMTAP	62	96	6
NMTAP	62	96	7
NMSTR	62	192	0
NMSI_	62	192	0	96	96	3
NMHLD	62	192	5	192

T_REC_TAP	264
T_REC_BRK	11
T_REC_XTP	34
T_REC_BXX	3
T_REC_HLD	45
T_REC_XHO	4
T_REC_BHO	0
T_REC_BXH	2
T_REC_STR	12
T_REC_BST	0
T_REC_XST	0
T_REC_XBS	0
T_REC_TTP	33
T_REC_THO	1
T_REC_SLD	12
T_REC_BSL	0
T_REC_ALL	421
T_NUM_TAP	343
T_NUM_BRK	16
T_NUM_HLD	50
T_NUM_SLD	12
T_NUM_ALL	421
T_JUDGE_TAP	357
T_JUDGE_HLD	186
T_JUDGE_SLD	12
T_JUDGE_ALL	555
TTM_EACHPAIRS	104
TTM_SCR_TAP	171500
TTM_SCR_BRK	41600
TTM_SCR_HLD	50000
TTM_SCR_SLD	18000
TTM_SCR_ALL	281100
TTM_SCR_S	271150
TTM_SCR_SS	279500
TTM_RAT_ACV	10057

