VERSION	0.00.00	1.04.00
FES_MODE	0
BPM_DEF	160.000	160.000	160.000	160.000
MET_DEF	4	4
RESOLUTION	384
CLK_DEF	384
COMPATIBLE_CODE	MA2

BPM	0	0	160.000
MET	0	0	4	4

NMHLD	1	288	6	96
NMTAP	2	0	5
NMHLD	2	24	5	72
NMTAP	2	96	4
NMTAP	2	120	4
NMTAP	2	192	3
NMTAP	2	192	6
NMHLD	2	288	1	96
NMTAP	3	0	2
NMHLD	3	24	2	72
NMTAP	3	96	3
NMTAP	3	120	3
NMTAP	3	192	1
NMTAP	3	192	4
NMHLD	3	288	6	96
NMTAP	4	0	4
NMHLD	4	24	4	72
NMTAP	4	96	3
NMHLD	4	120	3	72
NMTAP	4	192	1
NMHLD	4	216	1	72
NMTAP	4	288	0
NMHLD	4	312	0	72
NMSTR	5	0	7
NMSI_	5	0	7	96	48	3
NMSI_	5	0	7	96	48	4
NMTAP	5	24	7
EXTAP	5	192	2
EXTAP	5	192	5
NMHLD	5	288	0	96
NMTAP	6	0	2
NMHLD	6	24	2	72
NMTAP	6	96	3
NMHLD	6	120	3	72
NMTAP	6	192	4
NMTAP	6	288	5
NMTAP	6	312	5
NMSTR	7	0	2
BRSUL	7	0	2	96	48	6
NMSTR	7	0	6
BRSUL	7	0	6	96	48	2
EXTAP	7	192	3
EXTAP	7	192	7
NMTAP	7	288	6
NMTAP	7	336	7
NMTAP	8	0	0
NMTAP	8	48	1
NMTAP	8	96	2
NMTAP	8	144	3
NMTAP	8	192	4
NMTAP	8	240	5
NMTAP	8	288	6
NMSTR	8	336	7
NMSI_	8	336	7	96	48	3
NMSTR	9	48	2
NMSLR	9	48	2	96	96	6
NMHLD	9	144	5	336
NMTAP	10	0	4
NMTAP	10	48	4
NMTAP	10	96	4
NMTAP	10	144	4
NMTAP	10	192	4
NMTAP	10	192	5
NMTAP	10	240	4
NMTAP	10	240	5
NMTAP	10	288	4
NMSTR	10	288	5
NMSCR	10	288	5	96	192	4
NMTAP	10	336	4
NMTAP	10	336	5
BRTAP	11	0	4
BRTAP	11	0	5
BXSTR	11	288	1
NMSI_	11	288	1	96	48	3
NMTAP	12	0	0
CNSV_	12	48	3	0	48	4
CNSI_	12	96	4	0	48	6
NMTAP	12	96	7
NMHLD	12	144	7	96
NMTAP	12	240	3
NMSTR	12	288	3
NMSCR	12	288	3	96	96	0
NMTAP	13	0	6
NMTAP	13	96	4
NMTAP	13	144	4
NMTAP	13	192	1
NMTAP	13	192	5
NMTAP	13	240	2
NMTAP	13	240	6
NMSTR	13	288	3
NMSCL	13	288	3	96	48	0
NMSTR	13	288	7
NMSCL	13	288	7	96	48	4
NMSTR	14	96	0
NMSCR	14	96	0	96	48	3
NMSTR	14	96	4
NMSCR	14	96	4	96	48	7
NMSTR	14	288	7
NMSCL	14	288	7	96	48	4
NMSTR	15	0	2
NMSCL	15	0	2	96	48	7
NMSTR	15	96	5
NMSCL	15	96	5	96	48	2
NMTAP	15	192	1
BRTAP	15	240	0
BRTAP	15	288	0
NMHLD	16	0	2	48
NMHLD	16	0	4	48
NMHLD	16	96	3	48
NMHLD	16	96	5	48
NMHLD	16	192	1	48
NMHLD	16	192	4	48
NMHLD	16	288	3	48
NMHLD	16	288	6	48
NMSTR	17	0	2
NMSV_	17	0	2	96	48	7
NMSTR	17	0	4
NMSV_	17	0	4	96	48	7
NMSTR	17	192	6
NMSI_	17	192	6	96	48	3
NMSTR	17	192	7
NMSI_	17	192	7	96	48	2
BRTAP	17	288	6
BRTAP	17	288	7
EXSTR	18	0	2
NMSI_	18	0	2	96	48	0
EXTAP	18	0	3
NMTAP	18	96	4
NMSTR	18	144	4
NMSI_	18	144	4	96	48	6
NMTAP	18	240	0
NMTAP	18	288	0
NMTAP	18	336	1
NMTAP	18	336	7
NMTAP	19	0	1
NMSTR	19	0	7
NMSUL	19	0	7	96	48	3
NMSTR	19	96	0
NMSUR	19	96	0	96	48	4
NMTAP	19	192	6
BRTAP	19	240	7
BRTAP	19	288	7
NMTAP	20	0	5
NMTAP	20	96	6
NMTAP	20	144	4
NMSTR	20	192	3
NMSXL	20	192	3	96	144	3
NMSXR	20	192	3	96	144	3
EXTAP	21	96	1
EXTAP	21	96	5
NMTAP	21	192	0
NMTAP	21	192	6
EXTAP	21	240	7
EXTAP	21	288	7
NMSTR	22	0	3
BRSXL	22	0	3	96	144	3
BRSXR	22	0	3	96	144	3
EXTAP	22	288	2
EXTAP	22	288	4
EXTAP	22	336	1
EXTAP	22	336	5
NMTTP	23	48	5	E	0	M1
NMTTP	23	96	4	E	0	M1
NMTTP	23	144	3	E	0	M1
NMTTP	23	192	0	C	0	M1
EXTAP	23	288	7
EXTAP	24	0	2
EXSTR	24	0	6
NMSXR	24	0	6	96	288	3
EXTAP	24	64	2
EXTAP	24	64	6
NMTAP	24	128	1
NMTAP	24	192	0
NMTAP	24	256	7
NMTAP	24	320	0
NMSTR	25	0	1
NMSXL	25	0	1	96	288	4
NMTAP	25	64	1
NMTAP	25	128	6
NMTAP	25	192	7
NMTAP	25	256	0
NMTAP	25	320	7
NMSTR	26	0	6
NMSXR	26	0	6	96	288	3
NMTAP	26	64	6
NMTAP	26	128	1
NMTAP	26	192	0
NMTAP	26	256	7
NMTAP	26	320	0
EXSTR	27	0	1
NMSI_	27	0	1	96	48	4
EXTAP	27	24	1
EXSTR	27	96	5
NMSI_	27	96	5	96	48	0
EXTAP	27	120	5
BRTAP	27	192	1
NMSTR	27	288	2
NMSXL	27	288	2	96	144	3
NMSLL	27	288	2	96	144	3
NMTAP	28	192	2
NMTAP	28	256	1
NMTAP	28	320	0
NMSTR	29	0	1
NMSV_	29	0	1	96	48	4
NMSTR	29	0	7
NMSV_	29	0	7	96	48	4
NMSTR	29	192	3
NMSI_	29	192	3	96	48	5
NMSTR	29	192	6
NMSI_	29	192	6	96	48	2
EXTAP	30	0	0
NMTAP	30	64	1
NMTAP	30	64	7
NMTAP	30	128	2
NMTAP	30	128	6
EXTAP	30	192	4
NMTAP	30	256	3
NMTAP	30	256	5
NMTAP	30	320	2
NMTAP	30	320	6
EXSTR	31	0	1
NMSI_	31	0	1	96	48	4
EXTAP	31	24	1
EXTAP	31	96	5
EXTAP	31	120	5
BRTAP	31	192	2
BRTAP	31	192	6
NMTAP	31	288	2
NMTAP	31	312	4
NMTAP	31	336	2
NMTAP	31	360	4
NMTAP	32	0	2
NMTAP	32	48	1
NMTAP	32	96	0
NMTAP	32	144	5
NMTAP	32	144	7
NMTAP	32	192	6
NMTAP	32	240	7
NMTAP	32	288	0
NMTAP	32	288	2
NMTAP	32	336	1
NMTAP	33	0	0
NMTAP	33	48	5
NMTAP	33	48	7
NMTAP	33	96	6
NMTAP	33	144	7
NMTAP	33	192	0
NMTAP	33	192	2
NMSTR	33	240	3
NMSI_	33	240	3	96	48	7
NMTAP	33	288	4
NMTAP	33	336	4
NMTAP	34	48	5
NMTAP	34	96	5
NMTAP	34	144	6
NMTAP	34	192	7
NMTAP	34	240	7
NMTAP	34	288	0
NMTAP	34	288	6
NMTAP	34	336	0
NMTAP	34	336	6
NMSTR	35	48	1
NMSI_	35	48	1	96	48	3
NMSTR	35	48	5
NMSI_	35	48	5	96	48	7
NMTAP	35	96	1
NMTAP	35	96	5
EXTAP	35	240	0
EXTAP	35	240	4
EXTAP	35	288	0
EXTAP	35	288	4
NMHLD	36	0	2	48
NMHLD	36	0	3	48
NMHLD	36	96	1	48
NMHLD	36	96	2	48
NMHLD	36	192	0	96
NMHLD	36	192	1	96
NMTAP	36	336	0
NMTAP	36	336	7
NMHLD	37	0	0	48
NMHLD	37	0	7	48
NMTTP	37	96	2	B	0	M1
NMTTP	37	96	2	E	0	M1
NMTTP	37	96	3	B	0	M1
NMTTP	37	96	4	B	0	M1
NMTTP	37	96	5	B	0	M1
NMTTP	37	96	6	E	0	M1
NMTTP	37	144	0	C	1	M1
EXTAP	37	240	0
EXTAP	37	240	7
EXTAP	37	288	0
EXTAP	37	288	7
EXTAP	37	336	0
EXTAP	37	336	7
NMSTR	38	0	1
NMSCR	38	0	1	96	48	3
NMSTR	38	0	6
NMSCL	38	0	6	96	48	4
NMSTR	38	96	1
NMSI_	38	96	1	96	48	4
NMSTR	38	96	6
NMSI_	38	96	6	96	48	3
EXTAP	38	192	1
EXTAP	38	192	6
NMTAP	38	288	3
NMSTR	38	288	5
NMSCR	38	288	5	96	96	2
NMSTR	39	0	2
NMSCL	39	0	2	96	144	3
BRTAP	39	288	0
NMTAP	40	0	1
NMSTR	40	0	4
NMSCR	40	0	4	96	96	1
NMTAP	40	96	3
NMHLD	40	144	3	96
NMTAP	40	240	0
NMSTR	40	288	0
NMSCL	40	288	0	96	96	3
NMTAP	41	0	2
NMTAP	41	96	0
NMTAP	41	144	0
NMSTR	41	192	7
NMSI_	41	192	7	96	48	3
NMSI_	41	192	7	96	48	4
NMTAP	41	240	7
NMSTR	42	0	2
NMSCL	42	0	2	96	48	7
NMTAP	42	96	3
NMTAP	42	144	3
NMSTR	42	192	4
NMSCR	42	192	4	96	48	7
NMTAP	42	288	3
NMTAP	42	336	3
NMSTR	43	0	2
NMSI_	43	0	2	96	48	5
NMSTR	43	96	6
NMSI_	43	96	6	96	48	1
NMTAP	43	192	3
BRTAP	43	240	2
BRTAP	43	288	2
NMTAP	43	336	0
NMSTR	44	0	7
NMSI_	44	0	7	96	48	5
NMSTR	44	96	7
NMSI_	44	96	7	96	48	1
NMSTR	44	192	7
NMSI_	44	192	7	96	48	4
NMSTR	44	288	0
NMSXL	44	288	0	96	96	0
NMTAP	44	288	7
NMTAP	45	0	4
NMTAP	45	96	5
NMTAP	45	144	5
NMTAP	45	192	0
NMTAP	45	192	6
NMTAP	45	240	0
NMTAP	45	240	6
EXTAP	45	288	1
EXTAP	45	288	5
NMSTR	46	0	4
NMSCR	46	0	4	96	48	7
NMTAP	46	96	3
NMTAP	46	144	3
NMSTR	46	192	4
NMSCL	46	192	4	96	48	1
NMTAP	46	288	6
NMSTR	46	336	7
NMSI_	46	336	7	96	48	3
NMTAP	47	48	1
NMSTR	47	96	0
NMSCR	47	96	0	96	96	5
NMTAP	47	192	6
BRTAP	47	240	7
BRTAP	47	288	7
NMTAP	48	0	6
NMTAP	48	96	4
NMTAP	48	96	5
NMTAP	48	144	3
NMTAP	48	144	4
NMSTR	48	192	2
NMSXR	48	192	2	96	144	3
NMSTR	48	192	3
NMSXL	48	192	3	96	144	3
EXTAP	49	96	2
EXTAP	49	96	4
NMTAP	49	192	1
NMTAP	49	192	7
EXTAP	49	240	0
EXTAP	49	288	0
NMSTR	50	0	2
BRSXR	50	0	2	96	144	3
NMSTR	50	0	3
BRSXL	50	0	3	96	144	3
EXTAP	50	288	2
EXTAP	50	288	4
EXTAP	50	336	5
NMSTR	51	0	5
NMSCL	51	0	5	96	48	2
NMTAP	51	96	2
NMSTR	51	144	1
NMSCL	51	144	1	96	48	6
NMTAP	51	240	4
NMTAP	51	288	4
NMTAP	51	336	5
NMSTR	52	0	5
NMSCL	52	0	5	96	48	2
NMTAP	52	96	1
NMTAP	52	144	0
NMTAP	52	192	7
NMTAP	52	240	4
NMTAP	52	288	0
NMTAP	52	288	3
NMSTR	53	0	2
NMSCR	53	0	2	96	48	5
NMTAP	53	96	5
NMSTR	53	144	6
NMSCR	53	144	6	96	48	1
NMTAP	53	240	3
NMTAP	53	288	2
NMSTR	53	336	2
NMSCR	53	336	2	96	48	5
NMTAP	54	48	6
NMTAP	54	96	6
NMTAP	54	144	7
NMTAP	54	192	7
EXTAP	54	240	0
EXTAP	54	240	6
EXTAP	54	288	0
EXTAP	54	288	6
NMTAP	54	336	1
NMSTR	55	0	2
NMSCR	55	0	2	96	24	3
NMTAP	55	96	5
CNSI_	55	120	3	0	24	5
NMSTR	55	144	6
NMSCR	55	144	6	96	24	7
NMTAP	55	240	3
CNSI_	55	264	7	0	24	1
NMTAP	55	288	3
NMTAP	55	336	2
NMSTR	56	0	2
NMSCR	56	0	2	96	24	3
NMTAP	56	96	6
CNSI_	56	120	3	0	24	5
NMTAP	56	144	7
NMTAP	56	192	0
NMTAP	56	240	3
NMTAP	56	288	4
NMTAP	56	288	7
NMSTR	57	0	5
NMSCL	57	0	5	96	24	4
NMTAP	57	96	2
CNSI_	57	120	4	0	24	2
NMSTR	57	144	1
NMSCL	57	144	1	96	24	0
NMTAP	57	240	4
CNSI_	57	264	0	0	24	6
NMTAP	57	288	5
NMSTR	57	336	5
NMSCL	57	336	5	96	24	4
NMTAP	58	48	0
CNSI_	58	72	4	0	24	2
NMSTR	58	96	1
NMSUR	58	96	1	96	240	3
NMTAP	58	192	6
EXTAP	58	240	7
EXTAP	58	288	7
NMHLD	59	0	4	672
NMTAP	59	336	3
NMHLD	60	0	2	672
NMTAP	60	336	4
NMHLD	61	0	5	624
NMTAP	61	336	2
NMHLD	62	0	3	240
EXTAP	62	288	3
EXTAP	62	288	5
NMHLD	63	0	2	48
NMTAP	63	0	4
NMHLD	63	96	1	48
NMTAP	63	96	3
NMHLD	63	192	2	48
NMTAP	63	192	3
NMTAP	63	288	2
NMTAP	63	288	3
NMTAP	63	336	4
NMTAP	64	0	3
NMHLD	64	0	5	48
NMTAP	64	96	4
NMHLD	64	96	6	48
NMTAP	64	192	4
NMHLD	64	192	5	48
NMTAP	64	288	4
NMTAP	64	288	5
NMTAP	64	336	3
NMTAP	65	0	2
NMTAP	65	48	2
NMTAP	65	96	4
NMTAP	65	144	4
NMTAP	65	192	3
NMTAP	65	240	3
NMSTR	65	288	5
NMSXL	65	288	5	96	120	4
NMTAP	65	336	5
CNSXR	66	120	4	0	120	3
BXSTR	66	288	1
BRSCR	66	288	1	96	48	3
NMTAP	67	0	0
CNSV_	67	48	3	0	48	4
CNSCR	67	96	4	0	48	6
NMTAP	67	96	7
NMHLD	67	144	7	96
NMTAP	67	240	3
NMSTR	67	288	3
BRSLR	67	288	3	96	72	7
NMTAP	67	336	2
NMTAP	68	0	6
CNSI_	68	72	7	0	48	1
NMTAP	68	96	4
NMTAP	68	144	4
NMTAP	68	192	1
NMTAP	68	192	5
NMTAP	68	240	2
NMTAP	68	240	6
NMTAP	68	288	3
NMSTR	68	288	7
NMSI_	68	288	7	96	24	5
NMSTR	69	0	7
NMSI_	69	0	7	96	24	1
CNSCL	69	24	5	0	24	4
NMTAP	69	96	4
CNSCR	69	120	1	0	24	2
NMHLD	69	144	3	96
NMTAP	69	240	2
NMTAP	69	288	3
NMTAP	69	336	4
NMSTR	70	0	1
NMSI_	70	0	1	96	48	4
NMSTR	70	0	5
NMSV_	70	0	5	96	48	0
NMTAP	70	96	1
NMTAP	70	96	5
NMTAP	70	192	2
NMTAP	70	192	6
BRTAP	70	240	7
BRTAP	70	288	7
NMTAP	70	336	0
NMHLD	71	0	0	48
NMHLD	71	0	6	48
BRHLD	71	96	1	48
BRHLD	71	96	7	48
NMHLD	71	192	0	48
NMHLD	71	192	5	48
BRHLD	71	288	2	48
BRHLD	71	288	7	48
NMSTR	72	0	3
NMSI_	72	0	3	96	48	0
NMSTR	72	0	5
NMSV_	72	0	5	96	48	0
EXTAP	72	96	3
EXTAP	72	96	5
NMSTR	72	192	0
BRSI_	72	192	0	96	48	4
NMSTR	72	192	1
BRSI_	72	192	1	96	48	5
BRTAP	72	288	0
BRTAP	72	288	1
EXSTR	73	0	4
NMSCL	73	0	4	96	96	0
EXTAP	73	0	5
NMSTR	73	96	0
NMSCL	73	96	0	96	96	4
NMTAP	73	192	4
NMTAP	73	288	0
NMTAP	73	336	0
NMSTR	74	0	7
NMSUL	74	0	7	96	48	3
NMTAP	74	48	7
NMSTR	74	96	0
NMSI_	74	96	0	96	48	4
NMTAP	74	144	0
NMSTR	74	192	6
NMSI_	74	192	6	96	48	1
BXTAP	74	240	6
BXTAP	74	288	3
NMTAP	74	336	3
EXSTR	75	0	2
NMSCR	75	0	2	96	48	5
NMTAP	75	48	2
EXTAP	75	96	6
NMTAP	75	144	6
EXSTR	75	192	7
NMSUL	75	192	7	96	48	3
NMTAP	75	240	7
EXTAP	75	288	2
NMTAP	75	336	2
EXSTR	76	0	0
NMSCR	76	0	0	96	24	1
NMTAP	76	48	0
EXTAP	76	96	4
CNSI_	76	120	1	0	24	3
NMTAP	76	144	4
EXTAP	76	192	3
EXTAP	76	192	5
NMTAP	76	240	2
NMTAP	76	240	6
EXTAP	76	288	1
EXTAP	76	288	7
EXSTR	77	0	5
NMSV_	77	0	5	96	24	3
NMTAP	77	48	5
EXTAP	77	96	0
CNSCL	77	120	3	0	24	2
NMTAP	77	144	0
EXSTR	77	192	1
NMSV_	77	192	1	96	24	7
NMTAP	77	240	1
EXTAP	77	288	4
CNSCL	77	312	7	0	24	6
NMTAP	77	336	4
EXSTR	78	0	5
NMSCL	78	0	5	96	48	2
NMTAP	78	48	5
NMSTR	78	96	0
NMSI_	78	96	0	96	48	4
NMTAP	78	144	0
BXTAP	78	192	5
BXTAP	78	240	6
BXTAP	78	288	6
NMTAP	78	336	4
NMSTR	79	0	3
NMSI_	79	0	3	96	48	1
NMTAP	79	48	3
NMSTR	79	96	4
NMSI_	79	96	4	96	48	6
NMTAP	79	144	4
NMSTR	79	192	3
NMSV_	79	192	3	96	48	0
NMTAP	79	240	3
NMSTR	79	288	7
NMSXR	79	288	7	96	96	7
NMTAP	79	336	7
NMTAP	80	0	0
NMTAP	80	48	0
NMTAP	80	96	1
NMTAP	80	144	1
NMTAP	80	192	0
NMTAP	80	192	6
NMTAP	80	240	0
NMTAP	80	240	6
EXTAP	80	288	1
EXTAP	80	288	5
NMSTR	81	0	3
NMSI_	81	0	3	96	24	1
NMTAP	81	96	4
CNSCL	81	120	1	0	24	0
NMSTR	81	144	4
NMSI_	81	144	4	96	24	6
NMTAP	81	240	2
CNSCR	81	264	6	0	24	7
NMTAP	81	288	1
NMSTR	81	336	0
NMSV_	81	336	0	96	48	3
NMTAP	82	48	6
NMSTR	82	96	7
NMSCL	82	96	7	96	96	2
NMTAP	82	192	1
BRTAP	82	240	0
BRTAP	82	288	0
NMSTR	83	0	2
NMSXR	83	0	2	96	144	2
NMSTR	83	0	3
NMSXL	83	0	3	96	144	2
EXTAP	83	288	2
EXTAP	83	288	4
EXTAP	83	336	2
EXTAP	83	336	4
NMTAP	84	0	1
NMTAP	84	48	0
NMTAP	84	96	7
NMTAP	84	144	6
NMTAP	84	192	5
EXTAP	84	240	2
EXTAP	84	240	4
EXTAP	84	288	2
EXTAP	84	288	4
EXTAP	84	336	2
EXTAP	84	336	4
NMSTR	85	0	0
BRSXR	85	0	0	96	144	0
NMSTR	85	0	1
BRSXL	85	0	1	96	144	0
EXTAP	85	288	6
EXTAP	85	288	7
EXTAP	85	336	6
EXTAP	85	336	7
BRTAP	86	48	0
BRSTR	86	96	2
NMSUR	86	96	2	96	48	6
BRHLD	86	144	4	48

T_REC_TAP	277
T_REC_BRK	23
T_REC_XTP	81
T_REC_BXX	5
T_REC_HLD	47
T_REC_XHO	0
T_REC_BHO	5
T_REC_BXH	0
T_REC_STR	98
T_REC_BST	1
T_REC_XST	12
T_REC_XBS	2
T_REC_TTP	11
T_REC_THO	0
T_REC_SLD	106
T_REC_BSL	12
T_REC_ALL	680
T_NUM_TAP	479
T_NUM_BRK	48
T_NUM_HLD	47
T_NUM_SLD	106
T_NUM_ALL	680
T_JUDGE_TAP	510
T_JUDGE_HLD	118
T_JUDGE_SLD	118
T_JUDGE_ALL	746
TTM_EACHPAIRS	114
TTM_SCR_TAP	239500
TTM_SCR_BRK	124800
TTM_SCR_HLD	47000
TTM_SCR_SLD	159000
TTM_SCR_ALL	570300
TTM_SCR_S	548550
TTM_SCR_SS	565500
TTM_RAT_ACV	10084

