VERSION	0.00.00	1.04.00
FES_MODE	0
BPM_DEF	160.000	160.000	160.000	160.000
MET_DEF	4	4
RESOLUTION	384
CLK_DEF	384
COMPATIBLE_CODE	MA2

BPM	0	0	160.000
MET	0	0	4	4

NMTAP	1	288	3
NMTAP	1	288	4
NMHLD	2	0	5	384
NMTAP	2	96	4
NMTAP	2	192	4
NMTAP	2	288	4
NMHLD	3	0	2	384
NMTAP	3	96	3
NMTAP	3	192	3
NMTAP	3	288	3
NMHLD	4	0	5	288
NMTAP	4	96	4
NMTAP	4	192	4
NMTAP	4	288	4
NMTAP	5	0	4
NMTAP	5	0	5
NMTAP	5	96	4
NMTAP	5	96	5
NMTAP	5	192	3
NMTAP	5	192	6
NMHLD	6	0	2	192
NMTAP	6	96	3
NMTAP	6	192	3
NMTAP	6	288	2
NMTAP	6	288	3
NMHLD	7	0	5	192
NMTAP	7	96	4
NMTAP	7	192	4
NMTAP	7	288	4
NMTAP	7	288	5
NMTAP	8	0	3
NMTAP	8	0	4
NMTAP	8	96	2
NMTAP	8	192	1
NMTAP	8	288	0
NMSTR	9	0	0
NMSI_	9	0	0	96	96	4
NMSTR	9	0	6
NMSI_	9	0	6	96	96	2
NMTAP	10	0	2
NMTAP	10	48	2
NMTAP	10	96	4
NMTAP	10	144	4
NMTAP	10	192	3
NMTAP	10	240	3
NMSTR	10	288	5
NMSCL	10	288	5	96	144	2
BXTAP	11	288	0
NMTAP	12	0	1
NMTAP	12	0	3
NMTAP	12	96	0
NMTAP	12	96	1
NMTAP	12	192	6
NMTAP	12	240	6
NMTAP	12	288	7
NMTAP	13	0	4
NMTAP	13	0	6
NMTAP	13	96	6
NMTAP	13	96	7
NMTAP	13	192	1
NMTAP	13	240	1
NMTAP	13	288	0
NMHLD	14	0	2	96
NMTAP	14	0	7
NMTAP	14	96	3
NMTAP	14	192	0
NMHLD	14	192	5	96
NMTAP	14	288	4
NMTAP	15	0	2
NMTAP	15	0	3
NMTAP	15	96	0
NMTAP	15	96	1
NMTAP	15	192	6
EXTAP	15	240	6
EXTAP	15	240	7
EXTAP	15	288	6
EXTAP	15	288	7
NMTAP	16	0	0
NMSTR	16	0	5
NMSI_	16	0	5	96	96	2
NMTAP	16	192	1
NMTAP	16	288	1
NMSTR	17	0	1
NMSI_	17	0	1	96	96	5
NMTAP	17	0	6
NMTAP	17	192	7
NMTAP	17	240	7
NMTAP	17	288	7
NMHLD	18	0	6	96
NMHLD	18	96	4	96
NMHLD	18	192	3	96
NMTAP	18	288	1
NMTAP	19	0	0
NMTAP	19	0	1
NMTAP	19	96	0
NMTAP	19	96	1
BRTAP	19	192	2
BRTAP	19	192	6
NMSTR	20	0	3
NMSXL	20	0	3	96	192	3
NMSXR	20	0	3	96	192	3
NMTAP	20	0	4
EXTAP	21	0	2
EXTAP	21	0	4
EXTAP	21	96	3
EXTAP	21	96	5
NMTAP	21	192	6
NMTAP	21	288	4
NMTAP	21	288	6
NMSTR	22	0	3
NMSXL	22	0	3	96	192	3
NMSXR	22	0	3	96	192	3
NMTAP	22	0	5
EXTAP	23	48	4
EXTAP	23	96	4
EXTAP	23	144	4
EXHLD	23	192	4	960
NMTTP	24	0	4	E	0	M1
NMTTP	24	64	3	E	0	M1
NMTTP	24	128	2	E	0	M1
NMTTP	24	192	1	E	0	M1
NMTTP	25	0	7	E	0	M1
NMTTP	25	64	6	E	0	M1
NMTTP	25	128	5	E	0	M1
NMTTP	25	192	4	E	0	M1
NMHLD	26	0	1	384
NMTTP	26	192	0	C	0	M1
NMTAP	27	0	0
NMTAP	27	96	1
NMHLD	27	192	2	960
NMTAP	27	192	3
NMTTP	28	0	4	E	0	M1
NMTTP	28	64	5	E	0	M1
NMTTP	28	128	6	E	0	M1
NMTTP	28	192	7	E	0	M1
NMTTP	29	0	1	E	0	M1
NMTTP	29	64	2	E	0	M1
NMTTP	29	128	3	E	0	M1
NMTTP	29	192	4	E	0	M1
NMHLD	30	0	6	384
NMTTP	30	192	4	E	0	M1
NMTAP	31	0	7
NMTAP	31	96	6
NMTAP	31	192	4
NMTAP	31	192	5
BRTAP	31	288	3
NMTAP	32	0	2
NMTAP	32	0	4
NMTAP	32	96	1
NMTAP	32	192	0
NMTAP	32	192	3
NMTAP	32	288	1
NMTAP	33	0	2
NMTAP	33	0	4
NMTAP	33	96	5
NMTAP	33	192	4
NMTAP	33	192	6
NMTAP	33	288	7
NMTAP	34	0	4
NMTAP	34	0	6
NMTAP	34	96	3
NMTAP	34	192	2
NMTAP	34	192	4
NMTAP	34	288	1
NMTAP	34	288	5
NMTAP	35	0	0
NMTAP	35	0	4
NMTAP	35	96	0
NMTAP	35	96	4
EXTAP	35	192	2
EXTAP	35	240	2
EXTAP	35	288	2
NMTAP	36	0	1
NMTAP	36	0	3
NMTAP	36	96	2
NMTAP	36	96	4
NMTAP	36	192	3
NMTAP	36	192	5
NMTAP	36	288	7
NMTAP	37	0	4
NMTAP	37	0	6
EXTAP	37	96	3
EXTAP	37	96	5
EXTAP	37	144	3
EXTAP	37	144	5
NMTAP	37	240	0
NMTAP	37	240	7
NMTAP	37	288	0
NMTAP	37	288	7
NMTAP	38	0	5
NMTAP	38	48	5
NMTAP	38	96	1
NMTAP	38	144	1
NMTAP	38	192	4
NMTAP	38	240	4
NMSTR	38	288	2
NMSCR	38	288	2	96	144	5
BXTAP	39	288	7
NMTAP	40	0	3
NMTAP	40	0	5
NMTAP	40	96	6
NMTAP	40	96	7
NMTAP	40	192	1
NMTAP	40	240	1
NMTAP	40	288	0
NMHLD	41	0	2	96
NMTAP	41	0	7
NMTAP	41	96	3
NMTAP	41	192	4
NMHLD	41	192	5	96
NMTAP	41	288	7
NMTAP	42	0	1
NMTAP	42	0	7
NMTAP	42	96	2
NMTAP	42	144	2
NMTAP	42	192	3
NMTAP	42	288	0
NMTAP	42	288	1
NMTAP	43	0	6
NMTAP	43	0	7
NMTAP	43	96	4
NMTAP	43	96	5
NMTAP	43	192	2
EXTAP	43	240	2
EXTAP	43	240	3
EXTAP	43	288	2
EXTAP	43	288	3
NMSTR	44	0	0
NMSI_	44	0	0	96	96	4
NMSTR	44	192	7
NMSI_	44	192	7	96	96	3
BRTAP	45	0	0
NMTAP	45	96	0
NMTAP	45	192	1
NMTAP	45	192	4
NMTAP	45	288	1
NMTAP	45	288	4
NMTAP	46	0	2
NMTAP	46	0	3
NMTAP	46	96	5
NMTAP	46	144	5
NMTAP	46	192	4
NMSTR	46	288	2
NMSCR	46	288	2	96	96	5
NMTAP	46	288	6
BRTAP	47	192	6
BRTAP	47	192	7
NMSTR	48	0	4
NMSXR	48	0	4	96	192	4
NMSTR	48	0	5
NMSXL	48	0	5	96	192	5
EXTAP	49	0	4
EXTAP	49	0	5
NMTAP	49	96	4
NMTAP	49	96	5
NMTAP	49	192	3
NMTAP	49	192	4
NMTAP	49	288	2
NMTAP	49	288	3
NMHLD	50	0	1	96
NMHLD	50	96	0	96
NMTAP	50	192	7
EXTAP	50	288	7
BRTAP	51	0	1
BRSTR	51	0	6
NMSI_	51	0	6	96	96	3
NMTAP	51	192	0
NMTAP	51	288	0
NMSTR	52	0	1
NMSI_	52	0	1	96	96	5
NMTAP	52	0	4
NMTAP	52	192	6
NMTAP	52	288	6
NMTTP	53	0	0	E	0	M1
NMTTP	53	96	1	E	0	M1
NMTTP	53	192	2	E	0	M1
NMTTP	53	288	3	E	0	M1
NMTTP	54	0	4	E	0	M1
NMTTP	54	96	0	C	0	M1
NMTTP	54	192	1	E	0	M1
NMTTP	54	192	7	E	0	M1
NMSTR	55	0	2
NMSI_	55	0	2	96	96	7
NMTAP	55	0	5
NMTAP	55	192	4
NMTAP	55	288	4
NMTAP	56	0	2
NMSTR	56	0	5
NMSI_	56	0	5	96	96	0
NMTAP	56	192	3
NMTAP	56	288	3
NMTAP	57	0	7
NMTAP	57	96	6
NMTAP	57	192	3
NMTAP	57	192	5
NMTAP	57	288	4
NMHLD	57	336	4	96
NMTAP	58	48	3
NMTAP	58	96	3
NMTAP	58	96	4
NMTAP	58	192	2
NMTAP	58	192	5
NMHLD	59	0	4	384
NMHLD	60	0	2	384
NMHLD	61	0	3	576
NMHLD	62	0	4	192
NMTAP	63	0	5
NMTAP	63	96	5
NMTAP	63	192	3
NMTAP	63	192	4
NMTAP	63	288	3
NMTAP	63	288	4
NMTAP	64	0	2
NMTAP	64	96	2
NMTAP	64	192	0
NMTAP	64	192	1
NMTAP	64	288	0
NMTAP	64	288	1
NMTAP	65	0	7
NMTAP	65	96	0
NMTAP	65	96	6
NMTAP	65	192	1
NMTAP	65	192	5
NMSTR	65	288	2
NMSUL	65	288	2	96	192	5
NMTAP	65	288	4
BRTAP	66	288	7
NMTAP	67	0	2
NMTAP	67	0	4
NMTAP	67	96	0
NMTAP	67	96	1
NMTAP	67	192	6
NMTAP	67	240	6
NMTAP	67	288	7
NMTAP	68	0	3
NMTAP	68	0	5
NMTAP	68	96	6
NMTAP	68	96	7
NMTAP	68	192	1
NMTAP	68	240	1
NMTAP	68	288	0
NMHLD	69	0	2	96
NMTAP	69	0	7
NMTAP	69	96	3
NMTAP	69	192	0
NMHLD	69	192	5	96
NMTAP	69	288	4
NMTAP	70	0	2
NMTAP	70	0	3
NMTAP	70	96	0
NMTAP	70	96	1
NMTAP	70	192	6
EXTAP	70	240	5
EXTAP	70	240	7
EXTAP	70	288	5
EXTAP	70	288	7
NMSTR	71	0	0
NMSV_	71	0	0	96	96	5
NMTAP	71	192	6
NMTAP	71	288	6
NMTAP	72	0	1
NMSTR	72	0	7
NMSV_	72	0	7	96	96	2
NMTAP	72	192	0
NMTAP	72	240	0
NMTAP	72	288	0
NMHLD	73	0	1	96
NMHLD	73	96	3	96
NMHLD	73	192	4	96
NMTAP	73	288	6
NMTAP	74	0	6
NMTAP	74	0	7
NMTAP	74	96	6
NMTAP	74	96	7
BRTAP	74	192	1
BRTAP	74	192	5
NMTAP	75	0	2
NMTAP	75	0	4
NMTAP	75	96	5
NMTAP	75	144	5
NMTAP	75	192	4
NMTAP	75	192	6
NMTAP	75	288	6
NMTAP	75	288	7
NMTAP	76	0	0
NMTAP	76	0	1
NMTAP	76	96	2
NMTAP	76	144	2
NMTAP	76	192	1
NMTAP	76	192	3
NMTAP	76	288	0
NMTAP	76	288	1
NMHLD	77	0	7	96
NMHLD	77	96	6	96
NMHLD	77	192	5	96
NMTAP	77	288	4
NMTAP	78	0	4
NMTAP	78	0	5
NMTAP	78	96	2
NMTAP	78	96	3
NMTAP	78	192	1
EXTAP	78	240	0
EXTAP	78	240	1
EXTAP	78	288	0
EXTAP	78	288	1
NMSTR	79	0	2
NMSV_	79	0	2	96	96	4
NMTAP	79	0	7
NMTAP	79	192	6
NMTAP	79	288	6
NMTAP	79	288	7
NMTAP	80	0	1
NMSTR	80	0	5
NMSV_	80	0	5	96	96	2
NMTAP	80	192	0
NMTAP	80	240	0
NMTAP	80	288	0
NMHLD	81	0	1	96
NMHLD	81	96	3	96
NMHLD	81	192	4	96
NMSTR	81	288	5
NMSLR	81	288	5	96	192	2
EXTAP	82	288	3
EXTAP	82	288	4
NMSTR	83	0	4
NMSXR	83	0	4	96	192	4
NMSTR	83	0	5
NMSXL	83	0	5	96	192	4
EXTAP	84	0	3
EXTAP	84	0	5
NMTAP	84	96	3
NMTAP	84	96	5
NMTAP	84	192	2
NMTAP	84	192	4
NMTAP	84	288	0
NMTAP	84	288	6
NMTAP	85	0	7
NMTAP	85	48	7
NMTAP	85	96	0
EXTAP	85	192	1
EXTAP	85	192	7
BXTAP	85	288	2
BXTAP	85	288	6
BXTAP	85	336	2
BXSTR	85	336	6
BRSSL	85	336	6	96	144	2

T_REC_TAP	278
T_REC_BRK	10
T_REC_XTP	39
T_REC_BXX	5
T_REC_HLD	33
T_REC_XHO	1
T_REC_BHO	0
T_REC_BXH	0
T_REC_STR	24
T_REC_BST	1
T_REC_XST	0
T_REC_XBS	1
T_REC_TTP	26
T_REC_THO	0
T_REC_SLD	27
T_REC_BSL	1
T_REC_ALL	446
T_NUM_TAP	367
T_NUM_BRK	18
T_NUM_HLD	34
T_NUM_SLD	27
T_NUM_ALL	446
T_JUDGE_TAP	384
T_JUDGE_HLD	160
T_JUDGE_SLD	28
T_JUDGE_ALL	572
TTM_EACHPAIRS	117
TTM_SCR_TAP	183500
TTM_SCR_BRK	46800
TTM_SCR_HLD	34000
TTM_SCR_SLD	40500
TTM_SCR_ALL	304800
TTM_SCR_S	293950
TTM_SCR_SS	303000
TTM_RAT_ACV	10059

