VERSION	0.00.00	1.04.00
FES_MODE	0
BPM_DEF	151.000	151.000	151.000	151.000
MET_DEF	4	4
RESOLUTION	384
CLK_DEF	384
COMPATIBLE_CODE	MA2

BPM	0	0	151.000
MET	0	0	4	4

NMHLD	2	0	4	72
NMTAP	2	72	3
NMTAP	2	168	5
NMHLD	2	240	5	72
NMTAP	2	312	4
NMHLD	3	0	3	72
NMTAP	3	72	4
NMTAP	3	168	2
NMHLD	3	240	2	72
NMTAP	3	312	3
NMHLD	4	0	5	72
NMTAP	4	72	4
NMTAP	4	168	5
NMHLD	4	240	6	72
NMTAP	4	312	4
NMHLD	5	0	2	72
NMTAP	5	72	3
NMTAP	5	168	2
NMHLD	5	240	1	72
NMTAP	5	312	3
NMHLD	6	0	5	72
NMTAP	6	72	4
NMTAP	6	96	5
NMTAP	6	144	3
NMTAP	6	144	4
NMHLD	6	192	2	72
NMTAP	6	264	3
NMTAP	6	288	2
NMTAP	6	336	3
NMTAP	6	336	4
NMHLD	7	0	6	72
NMTAP	7	72	4
NMTAP	7	96	6
NMTAP	7	144	3
NMTAP	7	144	5
NMHLD	7	192	1	72
NMTAP	7	264	3
NMTAP	7	288	1
NMTAP	7	336	2
NMTAP	7	336	4
NMHLD	8	0	6	72
NMTAP	8	72	4
NMTAP	8	96	6
NMTAP	8	144	3
NMTAP	8	144	5
NMHLD	8	192	1	72
NMTAP	8	264	3
NMSTR	8	288	2
NMSCR	8	288	2	96	36	5
NMTAP	8	336	1
NMTAP	8	336	4
NMHLD	9	0	6	288
BRTAP	9	288	0
NMTAP	10	0	3
NMTTP	10	48	7	A	0	M1
NMTTP	10	72	7	B	0	M1
NMTAP	10	96	3
NMTTP	10	144	0	A	0	M1
NMTTP	10	168	0	B	0	M1
NMTAP	10	192	3
NMTTP	10	240	6	A	0	M1
NMTTP	10	264	6	B	0	M1
NMTAP	10	288	3
NMTTP	10	336	1	A	0	M1
NMTTP	10	360	1	B	0	M1
NMTAP	11	0	3
NMTTP	11	48	4	A	0	M1
NMTTP	11	72	4	B	0	M1
NMTAP	11	96	3
NMTTP	11	144	2	A	0	M1
NMTTP	11	168	2	B	0	M1
NMTAP	11	192	3
NMTTP	11	240	5	A	0	M1
NMTTP	11	264	5	B	0	M1
NMTAP	11	288	3
NMTTP	11	336	2	B	0	M1
NMTTP	11	336	2	E	0	M1
NMTAP	12	0	4
NMTTP	12	48	0	A	0	M1
NMTTP	12	72	0	B	0	M1
NMTAP	12	96	4
NMTTP	12	144	7	A	0	M1
NMTTP	12	168	7	B	0	M1
NMTAP	12	192	4
NMTTP	12	240	1	A	0	M1
NMTTP	12	264	1	B	0	M1
NMTAP	12	288	4
NMTTP	12	336	6	A	0	M1
NMTTP	12	360	6	B	0	M1
NMTAP	13	0	4
NMTTP	13	48	3	A	0	M1
NMTTP	13	72	3	B	0	M1
NMTAP	13	96	4
NMTTP	13	144	5	A	0	M1
NMTTP	13	168	5	B	0	M1
NMTAP	13	192	4
NMTTP	13	240	2	A	0	M1
NMTTP	13	264	2	B	0	M1
NMTAP	13	288	4
EXTAP	14	0	3
EXTAP	14	0	6
NMHLD	14	48	6	96
NMTAP	14	96	2
NMHLD	14	144	2	96
NMTAP	14	192	5
NMHLD	14	240	5	96
NMTAP	14	288	1
NMHLD	14	336	1	96
NMTAP	15	0	4
NMHLD	15	48	4	96
NMTAP	15	96	0
NMHLD	15	144	0	96
NMTAP	15	192	3
NMHLD	15	240	3	48
NMTAP	15	288	7
NMTAP	15	336	7
NMTAP	16	0	7
NMTAP	16	24	3
NMTAP	16	48	7
NMTAP	16	72	3
NMTAP	16	96	0
NMTAP	16	120	4
NMTAP	16	144	1
NMTAP	16	168	5
NMTAP	16	192	2
NMTAP	16	216	6
NMTAP	16	240	3
NMTAP	16	264	7
NMTTP	16	288	3	D	0	M1
NMTTP	16	304	2	D	0	M1
NMTTP	16	320	1	D	0	M1
NMTTP	16	336	7	D	0	M1
NMTTP	16	352	6	D	0	M1
NMTTP	16	368	5	D	0	M1
NMTAP	17	24	0
NMTAP	17	48	7
NMTAP	17	72	0
NMTAP	17	96	7
NMTAP	17	120	0
NMTAP	17	168	2
NMTAP	17	168	4
NMTAP	17	216	3
NMTAP	17	216	5
NMTAP	17	264	2
NMSTR	17	288	4
NMSF_	17	288	4	96	36	0
NMTAP	17	312	3
NMTAP	17	336	5
NMTAP	17	360	4
BRTAP	18	96	2
BRTAP	18	96	6
NMTAP	18	192	1
NMTAP	18	192	7
NMTAP	18	240	6
NMTAP	18	264	6
NMTAP	18	312	3
NMTAP	18	336	3
NMTAP	19	0	5
NMTAP	19	24	4
NMTAP	19	48	5
NMTAP	19	72	4
NMTAP	19	96	5
NMTAP	19	120	3
NMTAP	19	144	5
NMTAP	19	168	2
NMTAP	19	192	6
NMTAP	19	216	6
NMTAP	19	264	2
NMTAP	19	264	4
NMTAP	19	312	1
NMTAP	19	336	1
NMTAP	20	0	3
NMHLD	20	48	2	48
NMHLD	20	48	4	48
NMTAP	20	144	5
NMTAP	20	168	5
NMTAP	20	192	3
NMTAP	20	216	6
NMTAP	20	240	2
NMTAP	20	264	7
NMSTR	20	288	1
NMSI_	20	288	1	96	36	3
NMTAP	20	336	0
NMTAP	21	0	1
NMSTR	21	0	6
NMSI_	21	0	6	96	36	4
NMTAP	21	48	7
NMSTR	21	96	1
NMSI_	21	96	1	96	36	5
NMTAP	21	96	6
NMTAP	21	144	0
NMTAP	21	192	1
NMTAP	21	192	3
NMTAP	21	240	4
NMTAP	21	288	3
NMTAP	21	288	7
NMTAP	22	0	2
NMTAP	22	0	4
BRTAP	22	48	2
NMTAP	22	96	3
NMTAP	22	144	4
NMTAP	22	192	5
NMTAP	22	216	3
NMTAP	22	240	5
NMTAP	22	264	3
NMTAP	22	288	4
NMTAP	22	312	4
NMTAP	22	360	1
NMHLD	23	0	1	96
NMTAP	23	48	3
NMTAP	23	96	4
NMTAP	23	144	5
NMTAP	23	192	6
NMTAP	23	216	4
NMTAP	23	240	6
NMTAP	23	264	4
NMTAP	23	312	3
NMTAP	23	312	5
NMTAP	23	360	2
NMTAP	23	360	4
NMTAP	24	48	2
NMTAP	24	72	3
NMTAP	24	96	2
NMTAP	24	120	3
NMTAP	24	168	1
NMTAP	24	168	4
NMTAP	24	216	2
NMTAP	24	216	5
NMTAP	24	264	3
NMTAP	24	264	6
NMTAP	24	312	7
NMTAP	24	336	7
NMTAP	25	0	1
NMTAP	25	0	6
NMTAP	25	48	3
NMTAP	25	48	4
NMTAP	25	96	0
NMSTR	25	96	7
NMSSR	25	96	7	96	96	3
NMSTR	25	192	3
BRSF_	25	192	3	96	36	7
BRTAP	26	0	1
BRTAP	26	0	5
NMTAP	26	96	0
NMTAP	26	96	1
NMTAP	26	144	2
NMTAP	26	192	3
NMTAP	26	192	7
NMTAP	26	216	3
NMTAP	26	216	7
NMTAP	26	264	6
NMTAP	26	312	1
NMTAP	26	312	5
NMTAP	26	336	1
NMTAP	26	336	5
NMTAP	27	0	2
NMTAP	27	24	3
NMTAP	27	48	2
NMTAP	27	72	3
NMTAP	27	96	2
NMTAP	27	120	4
NMTAP	27	144	2
NMTAP	27	168	5
NMTAP	27	192	1
NMTAP	27	216	1
NMTAP	27	264	2
NMTAP	27	264	4
NMTAP	27	312	3
NMTAP	27	336	3
NMTAP	28	0	4
NMTAP	28	0	5
NMTAP	28	48	5
NMTAP	28	72	4
NMTAP	28	96	6
NMTAP	28	144	2
NMTAP	28	168	4
NMTAP	28	192	2
NMTAP	28	216	4
NMTAP	28	264	6
NMSTR	28	288	6
NMSI_	28	288	6	96	36	4
NMTAP	28	336	7
NMSTR	29	0	1
NMSI_	29	0	1	96	36	3
NMTAP	29	0	6
NMTAP	29	48	0
NMTAP	29	96	1
NMSTR	29	96	6
NMSI_	29	96	6	96	36	2
NMTAP	29	144	7
NMTAP	29	192	4
NMTAP	29	192	6
NMTAP	29	240	3
NMTAP	29	288	1
NMTAP	29	288	4
NMTAP	30	0	2
NMTAP	30	0	6
BRTAP	30	48	7
NMTAP	30	96	3
NMTAP	30	96	4
NMTAP	30	144	2
NMTAP	30	168	3
NMTAP	30	192	2
NMTAP	30	216	3
NMTAP	30	240	2
NMTAP	30	264	4
NMTAP	30	288	2
NMTAP	30	312	4
NMTAP	30	336	2
NMTAP	30	360	5
NMTAP	31	0	1
NMTAP	31	24	1
NMTAP	31	72	2
NMTAP	31	72	4
NMTAP	31	120	1
NMTAP	31	120	5
NMTAP	31	168	0
NMTAP	31	168	6
NMTAP	31	216	6
NMTAP	31	240	5
NMTAP	31	264	4
NMTAP	31	288	0
NMTAP	31	312	1
NMTAP	31	336	2
NMTAP	31	360	3
NMTAP	32	0	4
NMTAP	32	0	5
NMTAP	32	48	4
NMTAP	32	48	5
NMTAP	32	96	6
NMTAP	32	120	4
NMTAP	32	144	6
NMTAP	32	168	4
NMTAP	32	216	0
NMTAP	32	216	7
NMTAP	32	264	1
NMTAP	32	264	3
NMTAP	32	288	1
NMTAP	32	288	3
NMTAP	32	336	4
NMTAP	32	336	6
NMSTR	33	0	0
NMSI_	33	0	0	96	36	4
NMTAP	33	48	1
NMTAP	33	48	7
NMTAP	33	96	0
BXTAP	33	192	4
BXTAP	33	192	5
NMTAP	33	216	3
NMTAP	33	240	2
NMTAP	33	264	1
BXTAP	33	288	0
BXTAP	33	288	7
NMTAP	33	312	6
NMTAP	33	336	5
NMTAP	33	360	4
NMHLD	34	0	3	288
NMTAP	34	96	2
NMSTR	34	288	2
NMSCL	34	288	2	96	288	4
NMTTP	34	360	3	E	0	M1
NMTTP	34	368	3	B	0	M1
NMTTP	34	376	4	B	0	M1
NMTTP	35	0	5	E	0	M1
NMHLD	36	0	2	288
NMTTP	36	96	4	B	0	M1
NMTTP	36	108	4	E	0	M1
NMTTP	36	288	4	B	0	M1
NMTTP	36	300	4	E	0	M1
NMHLD	37	0	5	288
NMTTP	37	96	3	B	0	M1
NMTTP	37	108	4	E	0	M1
NMTTP	37	288	3	B	0	M1
NMTTP	37	300	4	E	0	M1
NMTAP	38	0	5
NMTAP	38	48	2
NMTAP	38	48	4
NMTAP	38	96	2
NMTAP	38	96	4
NMSTR	38	144	1
NMSI_	38	144	1	96	36	4
NMTAP	38	192	2
NMSTR	38	216	7
NMSI_	38	216	7	96	36	3
BXTAP	38	240	1
BXTAP	38	312	7
NMTAP	39	0	2
NMTAP	39	48	3
NMTAP	39	48	5
NMTAP	39	96	3
NMTAP	39	96	5
NMSTR	39	144	6
NMSI_	39	144	6	96	36	3
NMTAP	39	192	5
NMSTR	39	216	0
NMSI_	39	216	0	96	36	4
BXTAP	39	240	6
BXTAP	39	312	0
NMTAP	40	0	6
NMTAP	40	24	7
NMTAP	40	48	5
NMTAP	40	72	0
NMTAP	40	96	4
NMTAP	40	120	1
NMTAP	40	144	3
NMTAP	40	168	2
NMTAP	40	192	0
NMTAP	40	216	1
NMTAP	40	240	7
NMTAP	40	264	2
NMTAP	40	288	6
NMTAP	40	312	3
NMTAP	40	336	5
NMTTP	41	0	5	E	0	M1
NMTTP	41	8	4	B	0	M1
NMTTP	41	16	3	B	0	M1
NMTTP	41	24	3	E	0	M1
NMTTP	41	72	2	E	0	M1
NMTTP	41	84	0	C	0	M1
NMTTP	41	96	6	E	0	M1
NMTTP	41	144	1	A	0	M1
NMTTP	41	144	6	A	0	M1
NMTTP	41	152	2	A	0	M1
NMTTP	41	152	5	A	0	M1
NMTTP	41	160	3	A	0	M1
NMTTP	41	160	4	A	0	M1
NMTTP	41	168	4	D	1	M1
NMHLD	42	0	2	144
NMTAP	42	0	5
NMTAP	42	144	4
NMTAP	42	192	4
NMTAP	42	204	3
NMTAP	42	264	5
NMTAP	42	336	2
NMHLD	43	0	3	96
NMTAP	43	144	5
NMTAP	43	192	5
NMTAP	43	240	4
NMTAP	43	288	3
NMTAP	43	336	3
NMTAP	44	0	3
NMHLD	44	12	4	84
NMTAP	44	192	3
NMTAP	44	204	4
NMTAP	44	264	3
NMTAP	44	264	5
NMTAP	44	336	4
NMTAP	45	0	4
NMHLD	45	12	3	84
NMTAP	45	144	5
NMTAP	45	168	4
NMTAP	45	192	3
NMTAP	45	240	3
NMTAP	45	288	4
NMTAP	45	336	4
NMHLD	46	0	2	144
NMTAP	46	0	5
NMTAP	46	144	4
NMTAP	46	192	4
NMTAP	46	204	3
NMTAP	46	264	5
NMTAP	46	336	4
NMTAP	47	0	4
NMTAP	47	12	3
NMTAP	47	72	3
NMTAP	47	144	2
NMTAP	47	192	3
NMTAP	47	240	4
NMTAP	47	288	5
NMTAP	47	336	6
NMTAP	48	0	0
NMHLD	48	12	7	84
NMTAP	48	144	0
NMTAP	48	192	0
NMTAP	48	204	7
NMTAP	48	264	5
NMTAP	48	336	4
EXTAP	49	0	3
EXTAP	49	0	5
EXHLD	49	12	2	84
EXHLD	49	12	6	84
NMTTP	49	168	3	A	0	M1
NMTTP	49	168	5	A	0	M1
NMTTP	49	180	4	D	0	M1
NMTTP	49	180	5	D	0	M1
EXHLD	49	192	4	96
BRTAP	49	288	0
NMSTR	50	0	5
NMSCR	50	0	5	96	192	1
NMTTP	50	96	0	B	0	M1
NMSTR	50	192	1
NMSCR	50	192	1	96	192	5
NMTTP	50	288	4	B	0	M1
NMSTR	51	0	5
NMSCR	51	0	5	96	192	1
NMTTP	51	96	0	B	0	M1
NMTAP	51	192	1
NMTAP	51	288	3
NMSTR	52	0	1
NMSCR	52	0	1	96	192	5
NMTTP	52	96	4	B	0	M1
NMSTR	52	192	5
NMSCR	52	192	5	96	192	1
NMTTP	52	288	0	B	0	M1
NMSTR	53	0	1
NMSCR	53	0	1	96	192	5
NMTTP	53	96	4	B	0	M1
NMTAP	53	192	5
NMTAP	53	288	7
BRTAP	54	0	0
NMTAP	54	96	3
NMTAP	54	96	6
NMSTR	54	144	1
NMSI_	54	144	1	96	36	5
NMTAP	54	192	3
NMSTR	54	216	7
NMSI_	54	216	7	96	36	3
BXTAP	54	240	1
BXTAP	54	312	7
BRTAP	55	0	0
NMTAP	55	96	1
NMTAP	55	96	4
NMSTR	55	144	6
NMSI_	55	144	6	96	36	2
NMTAP	55	192	4
NMSTR	55	216	0
NMSI_	55	216	0	96	36	4
BXTAP	55	240	6
BXTAP	55	312	0
NMTAP	56	0	6
NMTAP	56	24	3
NMTAP	56	48	6
NMTAP	56	72	3
NMTAP	56	96	5
NMTAP	56	120	2
NMTAP	56	144	5
NMTAP	56	168	2
NMTAP	56	192	4
NMTAP	56	216	1
NMTAP	56	240	4
NMTAP	56	264	1
EXTAP	56	288	3
NMTAP	56	300	4
NMTAP	56	312	5
NMTAP	56	324	6
NMTAP	56	336	7
NMTAP	56	348	0
NMTAP	56	360	1
NMTAP	56	372	2
BXTAP	57	0	3
BXSTR	57	72	4
NMSI_	57	72	4	96	36	0
BXSTR	57	72	5
NMSI_	57	72	5	96	36	2
BXTAP	57	144	4
BXTAP	57	144	5
BRTAP	57	288	0
BRTAP	57	288	7
NMTAP	58	0	0
NMTAP	58	0	7
NMTAP	58	48	1
NMTAP	58	48	3
NMTAP	58	96	6
NMTAP	58	120	4
NMTTP	58	168	3	E	0	M1
EXTAP	58	168	7
NMTTP	58	180	3	A	0	M1
NMTAP	58	216	0
NMTAP	58	240	7
NMHLD	58	264	6	48
NMTAP	58	312	4
NMTAP	58	336	5
NMTAP	58	360	2
NMTAP	59	0	3
EXTAP	59	48	0
NMTTP	59	48	5	E	0	M1
NMTTP	59	60	4	A	0	M1
NMTAP	59	96	1
NMTAP	59	120	1
NMHLD	59	168	3	48
NMTAP	59	168	4
NMTAP	59	216	2
NMTAP	59	240	1
NMTAP	59	264	0
NMTAP	59	288	7
NMTAP	59	312	6
NMTAP	59	336	5
NMTAP	59	360	4
NMTAP	60	0	2
NMTAP	60	0	3
NMTAP	60	48	2
NMTAP	60	48	3
NMTAP	60	96	1
NMTAP	60	120	0
NMTAP	60	168	3
NMTAP	60	168	6
NMTAP	60	216	5
NMTAP	60	240	4
NMTAP	60	240	6
NMTAP	60	288	0
NMTAP	60	288	7
NMTAP	60	336	2
NMTAP	60	336	4
NMHLD	61	0	3	48
NMHLD	61	48	2	48
NMTAP	61	96	1
NMTAP	61	120	1
EXTAP	61	168	0
NMTTP	61	168	5	E	0	M1
NMTTP	61	180	4	A	0	M1
NMSTR	61	216	0
NMSI_	61	216	0	96	36	4
NMTAP	61	240	1
NMTAP	61	264	2
BRTAP	61	312	0
NMTAP	62	0	5
NMTAP	62	48	4
NMTAP	62	48	6
NMTAP	62	96	1
NMTAP	62	120	3
EXTAP	62	168	0
NMTTP	62	168	5	E	0	M1
NMTTP	62	180	4	A	0	M1
NMTAP	62	216	7
NMTAP	62	240	0
NMHLD	62	264	1	48
NMTAP	62	312	3
NMTAP	62	336	2
NMTAP	62	360	5
NMTAP	63	0	4
NMTTP	63	48	3	E	0	M1
EXTAP	63	48	7
NMTTP	63	60	3	A	0	M1
NMTAP	63	96	6
NMTAP	63	120	6
NMTAP	63	168	3
NMHLD	63	168	4	48
NMTAP	63	216	5
NMTAP	63	240	6
NMTAP	63	264	7
NMTAP	63	288	0
NMTAP	63	312	1
NMTAP	63	336	2
NMTAP	63	360	3
NMTAP	64	0	4
NMTAP	64	0	5
NMTAP	64	48	4
NMTAP	64	48	5
NMTAP	64	96	1
NMTAP	64	120	3
EXTAP	64	168	0
NMTTP	64	168	5	E	0	M1
NMTTP	64	180	4	A	0	M1
NMTAP	64	216	1
NMTAP	64	240	1
BRSTR	64	288	0
NMSI_	64	288	0	96	36	2
BRSTR	64	288	7
NMSI_	64	288	7	96	36	3
NMTAP	64	336	1
NMTAP	64	336	6
BRSTR	65	0	0
NMSI_	65	0	0	96	36	4
BRSTR	65	0	7
NMSI_	65	0	7	96	36	5
BRSTR	65	96	0
NMSI_	65	96	0	96	36	2
BRSTR	65	96	7
NMSI_	65	96	7	96	36	3
BRTAP	65	192	0
BRTAP	65	192	7
BRTAP	65	288	1
BRSTR	65	288	5
NMSI_	65	288	5	96	36	0
NMSTR	66	0	2
NMSI_	66	0	2	96	36	6
NMTAP	66	0	5
NMTAP	66	48	3
NMTAP	66	96	2
NMSTR	66	96	7
NMSI_	66	96	7	96	36	3
NMTAP	66	144	0
NMSTR	66	192	1
NMSI_	66	192	1	96	36	4
NMTAP	66	192	7
NMTAP	66	240	2
NMTAP	66	288	1
NMSTR	66	288	5
NMSI_	66	288	5	96	36	2
NMTAP	66	336	6
NMSTR	67	0	3
NMSCL	67	0	3	96	36	0
NMTAP	67	0	5
NMTAP	67	48	4
NMTAP	67	96	3
NMSTR	67	96	7
NMSCL	67	96	7	96	36	4
NMTAP	67	144	6
NMTAP	67	192	0
NMTAP	67	192	7
NMTAP	67	240	1
NMSTR	67	288	2
NMSI_	67	288	2	96	36	7
NMTAP	67	288	6
NMTAP	68	0	2
NMSTR	68	0	5
NMSI_	68	0	5	96	36	1
NMTAP	68	48	4
NMSTR	68	96	0
NMSI_	68	96	0	96	36	4
NMTAP	68	96	5
NMTAP	68	144	7
NMTAP	68	192	0
NMSTR	68	192	6
NMSI_	68	192	6	96	36	3
NMTAP	68	240	5
NMSTR	68	288	2
NMSI_	68	288	2	96	36	5
NMTAP	68	288	6
NMTAP	68	336	1
NMTAP	69	0	2
NMSTR	69	0	4
NMSCR	69	0	4	96	36	7
NMTAP	69	48	3
NMSTR	69	96	0
NMSCR	69	96	0	96	36	3
NMTAP	69	96	4
NMTAP	69	144	1
NMTAP	69	192	0
NMTAP	69	192	7
NMTAP	69	240	6
NMSTR	69	288	1
NMSI_	69	288	1	96	36	4
NMSTR	69	288	5
NMSI_	69	288	5	96	36	0
BRTAP	70	0	1
BRTAP	70	0	5
BRTAP	70	96	2
BRTAP	70	96	6
NMTAP	70	192	1
NMTAP	70	216	1
NMTAP	70	264	2
NMTAP	70	264	3
NMTAP	70	312	3
NMTAP	70	312	4
NMTAP	70	360	5
BRHLD	71	0	5	96
NMTAP	71	48	7
NMTAP	71	96	7
NMTAP	71	120	6
NMTAP	71	144	1
NMTAP	71	168	0
BRHLD	71	192	2	96
NMTAP	71	240	0
NMTAP	71	288	0
NMTAP	71	312	1
NMTAP	71	336	6
NMTAP	71	360	7
BRHLD	72	0	5	96
NMTAP	72	48	7
EXTAP	72	96	7
EXTAP	72	120	6
EXTAP	72	144	1
EXTAP	72	168	0
BXHLD	72	192	2	96
EXTAP	72	240	0
NMSTR	72	288	0
NMSI_	72	288	0	96	36	4
NMTAP	73	0	0
BRSTR	73	0	1
NMSI_	73	0	1	96	36	5
NMTAP	73	96	1
BRSTR	73	96	7
NMSI_	73	96	7	96	36	3
BRSTR	73	192	0
NMSI_	73	192	0	96	36	4
NMTAP	73	192	7
NMTAP	73	288	0
BRTAP	73	288	6
NMTAP	73	336	5
NMTAP	74	0	2
NMTAP	74	24	3
NMTAP	74	48	0
NMTAP	74	72	7
NMTAP	74	96	4
NMTAP	74	120	5
EXTAP	74	144	7
NMTAP	74	156	0
NMTAP	74	168	1
NMTAP	74	180	2
NMTAP	74	192	3
EXTAP	74	240	0
NMTAP	74	252	7
NMTAP	74	264	6
NMTAP	74	276	5
NMTAP	74	288	4
NMTAP	74	336	2
NMTAP	74	336	3
BXTAP	75	0	1
BXTAP	75	0	5
NMTAP	75	8	2
NMTAP	75	8	4
NMTAP	75	16	3
BXTAP	75	72	2
BXTAP	75	72	6
NMTAP	75	80	3
NMTAP	75	80	5
NMTAP	75	88	4
BXSTR	75	144	0
BRSXL	75	144	0	96	96	3
BXSTR	75	144	7
BRSXR	75	144	7	96	96	4
NMTTP	76	0	4	E	0	M1
NMTTP	76	4	3	E	0	M1
NMTTP	76	4	5	E	0	M1
NMTTP	76	8	2	B	0	M1
NMTTP	76	8	5	B	0	M1
NMTTP	76	12	0	C	1	M1
NMTTP	76	16	1	B	0	M1
NMTTP	76	16	6	B	0	M1
NMTTP	76	20	1	E	0	M1
NMTTP	76	20	7	E	0	M1
NMTTP	76	24	0	E	0	M1

T_REC_TAP	509
T_REC_BRK	21
T_REC_XTP	18
T_REC_BXX	19
T_REC_HLD	40
T_REC_XHO	3
T_REC_BHO	3
T_REC_BXH	1
T_REC_STR	43
T_REC_BST	10
T_REC_XST	0
T_REC_XBS	4
T_REC_TTP	95
T_REC_THO	0
T_REC_SLD	54
T_REC_BSL	3
T_REC_ALL	823
T_NUM_TAP	665
T_NUM_BRK	61
T_NUM_HLD	43
T_NUM_SLD	54
T_NUM_ALL	823
T_JUDGE_TAP	719
T_JUDGE_HLD	103
T_JUDGE_SLD	57
T_JUDGE_ALL	879
TTM_EACHPAIRS	115
TTM_SCR_TAP	332500
TTM_SCR_BRK	158600
TTM_SCR_HLD	43000
TTM_SCR_SLD	81000
TTM_SCR_ALL	615100
TTM_SCR_S	590750
TTM_SCR_SS	609000
TTM_RAT_ACV	10100

