VERSION	0.00.00	1.04.00
FES_MODE	0
BPM_DEF	151.000	151.000	151.000	151.000
MET_DEF	4	4
RESOLUTION	384
CLK_DEF	384
COMPATIBLE_CODE	MA2

BPM	0	0	151.000
MET	0	0	4	4

NMHLD	2	0	2	72
NMHLD	2	0	3	1392
NMHLD	2	168	2	72
EXTAP	2	312	1
NMHLD	3	0	2	72
NMHLD	3	168	2	72
EXTAP	3	312	4
NMHLD	4	0	2	72
NMHLD	4	168	2	72
EXTAP	4	312	1
NMHLD	5	0	2	72
NMHLD	5	168	1	72
EXTAP	5	312	0
EXTAP	5	312	4
NMTAP	6	0	5
NMTAP	6	96	4
NMTAP	6	96	5
NMTAP	6	192	3
NMTAP	6	192	5
NMTAP	6	288	3
NMTAP	6	288	5
NMTAP	7	0	2
NMTAP	7	96	2
NMTAP	7	96	3
NMTAP	7	192	2
NMTAP	7	192	4
NMTAP	7	288	2
NMTAP	7	288	4
NMTAP	8	0	5
NMTAP	8	96	4
NMTAP	8	96	5
NMTAP	8	192	3
NMTAP	8	192	4
NMTAP	8	288	2
NMTAP	8	288	3
NMTHO	9	0	0	168	C	0	M1
BXTAP	9	288	0
BXTAP	9	288	7
NMTAP	10	0	1
NMTAP	10	48	1
NMTAP	10	96	3
NMTAP	10	144	3
NMTAP	10	192	2
NMTAP	10	288	3
NMTAP	10	288	5
NMTAP	11	0	6
NMTAP	11	48	6
NMTAP	11	96	4
NMTAP	11	144	4
NMTAP	11	192	5
NMTAP	11	288	2
NMTAP	11	288	4
NMTAP	12	0	1
NMTAP	12	48	1
NMTAP	12	96	3
NMTAP	12	144	3
NMTAP	12	192	2
NMTAP	12	288	4
NMTAP	12	288	6
NMTAP	13	0	7
NMTAP	13	48	7
NMTAP	13	96	1
NMTAP	13	144	1
NMTAP	13	192	2
NMTAP	13	192	3
NMTAP	13	288	0
NMTAP	13	288	4
NMTAP	14	0	5
NMTAP	14	48	5
NMTAP	14	96	4
NMTAP	14	144	4
NMTAP	14	192	3
NMTAP	14	240	3
NMTAP	14	288	2
NMTAP	14	288	3
NMTAP	15	0	2
NMTAP	15	48	2
NMTAP	15	96	3
NMTAP	15	144	3
NMTAP	15	192	4
NMTAP	15	240	4
NMTAP	15	288	4
NMTAP	15	288	5
NMTAP	16	0	6
NMTAP	16	48	7
NMTAP	16	96	0
NMTAP	16	144	1
NMTAP	16	192	2
NMTAP	16	240	3
NMTAP	16	288	4
NMTAP	16	336	5
BRSTR	17	0	1
NMSI_	17	0	1	96	96	5
BRSTR	17	0	6
NMSI_	17	0	6	96	96	2
EXTAP	17	288	3
EXTAP	17	288	4
NMTTP	18	0	0	C	0	M1
NMTTP	18	0	2	B	0	M1
NMTTP	18	0	3	B	0	M1
NMTTP	18	0	4	B	0	M1
NMTTP	18	0	5	B	0	M1
BXTAP	18	96	0
BXTAP	18	96	7
NMHLD	18	192	1	96
NMTAP	18	240	3
NMHLD	18	288	4	96
NMTAP	18	336	2
NMTAP	19	0	3
NMTAP	19	48	3
NMTAP	19	96	4
NMTAP	19	96	5
NMTAP	19	144	6
NMSTR	19	192	1
NMSI_	19	192	1	96	48	4
NMTAP	19	192	7
NMTAP	19	240	1
NMTAP	20	0	5
NMTAP	20	48	6
NMTAP	20	96	3
NMTAP	20	144	2
NMHLD	20	192	7	96
NMTAP	20	240	4
NMHLD	20	288	3	96
NMTAP	20	336	4
NMTAP	21	0	5
NMTAP	21	48	5
NMTAP	21	96	2
NMTAP	21	144	2
NMTAP	21	192	3
NMSTR	21	192	6
NMSI_	21	192	6	96	48	3
NMTAP	21	240	6
NMTAP	22	0	2
NMTAP	22	48	2
NMTAP	22	96	4
NMTAP	22	144	5
NMHLD	22	192	1	96
NMTAP	22	240	3
NMHLD	22	288	4	96
NMTAP	22	336	2
NMTAP	23	0	3
NMTAP	23	48	3
NMTAP	23	96	4
NMTAP	23	96	5
NMTAP	23	144	6
NMSTR	23	192	0
NMSI_	23	192	0	96	48	4
NMTAP	23	192	7
NMTAP	23	240	0
NMTAP	24	0	5
NMTAP	24	48	6
NMTAP	24	96	3
NMTAP	24	144	2
NMHLD	24	192	7	96
NMTAP	24	240	4
NMHLD	24	288	3	48
NMTAP	24	336	4
NMTAP	25	0	3
NMTAP	25	0	4
NMTAP	25	48	5
NMTAP	25	96	3
NMTAP	25	96	4
NMTAP	25	144	2
EXSTR	25	192	3
NMSI_	25	192	3	96	48	0
EXSTR	25	192	4
NMSI_	25	192	4	96	48	7
EXTAP	25	240	3
EXTAP	25	240	4
BRTAP	26	0	1
BRTAP	26	0	6
NMTAP	26	96	1
NMTAP	26	96	4
NMTAP	26	192	2
NMTAP	26	216	3
EXHLD	26	264	2	72
EXHLD	26	264	3	72
NMTAP	27	0	1
NMTAP	27	48	0
NMTAP	27	96	7
NMTAP	27	144	6
EXSTR	27	192	1
NMSI_	27	192	1	96	48	5
EXTAP	27	192	5
EXTAP	27	216	1
EXTAP	27	216	5
NMTAP	28	0	6
NMTAP	28	48	6
NMTAP	28	96	3
NMTAP	28	144	3
NMTAP	28	192	5
NMTAP	28	216	4
EXHLD	28	264	4	72
EXHLD	28	264	5	72
NMTAP	29	0	1
NMTAP	29	0	3
NMTAP	29	96	0
NMTAP	29	96	7
NMSTR	29	192	5
NMSCL	29	192	5	96	96	2
NMSTR	29	192	6
NMSUL	29	192	6	96	96	1
EXTAP	30	96	2
EXTAP	30	96	7
NMTAP	30	192	1
NMTAP	30	216	0
EXHLD	30	264	0	72
EXHLD	30	264	1	72
NMTAP	31	0	2
NMTAP	31	48	3
NMTAP	31	96	4
NMTAP	31	144	5
EXTAP	31	192	2
EXSTR	31	192	6
NMSI_	31	192	6	96	48	2
EXTAP	31	216	2
EXTAP	31	216	6
NMSTR	32	0	1
NMSI_	32	0	1	96	48	4
NMTAP	32	48	1
NMTAP	32	96	5
NMSTR	32	192	6
NMSI_	32	192	6	96	48	3
NMTAP	32	240	6
NMTAP	32	288	2
EXTAP	33	0	1
EXTAP	33	0	3
EXTAP	33	96	4
EXTAP	33	96	6
NMTAP	33	192	0
NMTAP	33	216	7
NMTAP	33	240	0
NMTAP	33	264	7
BRTAP	33	288	0
BXSTR	34	0	1
NMSCL	34	0	1	96	480	2
BXHLD	34	0	5	576
NMHLD	36	0	2	72
NMHLD	36	0	3	624
NMHLD	36	168	2	72
EXTAP	36	312	4
NMHLD	37	0	2	72
NMHLD	37	168	1	72
EXTAP	37	312	0
EXTAP	37	312	4
EXTAP	38	0	6
NMTAP	38	48	6
NMTAP	38	96	3
NMTAP	38	144	3
NMTAP	38	192	5
EXTAP	38	240	3
EXTAP	38	240	5
EXTAP	38	312	2
EXTAP	38	312	4
EXTAP	39	0	1
EXTAP	39	0	3
NMTAP	39	48	1
NMTAP	39	96	4
NMTAP	39	144	4
NMTAP	39	192	2
EXTAP	39	240	2
EXTAP	39	240	4
EXTAP	39	312	3
EXTAP	39	312	5
EXTAP	40	0	4
EXTAP	40	0	6
NMTAP	40	48	7
NMTAP	40	96	0
NMTAP	40	144	1
EXTAP	40	192	2
EXTAP	40	192	3
NMTAP	40	240	4
NMTAP	40	288	5
NMTAP	40	336	6
EXTAP	41	0	0
EXTAP	41	0	7
EXTAP	41	72	3
EXTAP	41	72	4
BXTAP	41	144	1
BXTAP	41	144	6
NMSTR	42	0	2
NMSUR	42	0	2	96	384	3
NMTAP	43	192	4
NMSTR	44	0	5
NMSUL	44	0	5	96	384	4
NMTAP	45	192	3
NMHLD	46	0	2	192
NMTTP	46	192	2	B	0	M1
NMTTP	46	192	3	E	0	M1
NMHLD	47	0	5	192
NMTTP	47	192	5	B	0	M1
NMTTP	47	192	5	E	0	M1
NMHLD	48	0	1	192
NMTTP	48	192	2	B	0	M1
NMTTP	48	192	3	E	0	M1
NMSTR	49	0	3
NMSXR	49	0	3	96	192	3
NMSTR	49	0	4
NMSXL	49	0	4	96	192	4
NMHLD	50	0	1	96
NMHLD	50	96	2	96
NMTAP	50	192	3
NMTAP	50	240	3
NMTAP	50	288	4
NMHLD	51	0	5	96
NMHLD	51	96	4	96
NMTAP	51	192	3
NMTAP	51	240	3
NMTAP	51	288	2
NMHLD	52	0	1	96
NMHLD	52	96	2	96
NMTAP	52	192	3
NMTAP	52	240	3
NMTAP	52	288	4
NMTAP	52	336	4
NMTAP	53	0	2
NMTAP	53	48	4
NMTAP	53	96	3
NMTAP	53	96	4
NMTAP	53	192	5
NMTAP	53	240	3
NMTAP	53	288	3
NMTAP	53	288	4
EXTAP	54	0	1
NMTAP	54	48	1
NMTAP	54	96	4
NMTAP	54	144	4
NMTAP	54	192	2
EXTAP	54	240	2
EXTAP	54	240	4
EXTAP	54	312	3
EXTAP	54	312	5
EXTAP	55	0	4
EXTAP	55	0	6
NMTAP	55	48	6
NMTAP	55	96	3
NMTAP	55	144	3
NMTAP	55	192	5
EXTAP	55	240	3
EXTAP	55	240	5
EXTAP	55	312	2
EXTAP	55	312	4
EXTAP	56	0	1
EXTAP	56	0	3
NMTAP	56	48	0
NMTAP	56	96	7
NMTAP	56	144	6
EXTAP	56	192	4
EXTAP	56	192	5
NMTAP	56	240	3
NMTAP	56	288	2
NMTAP	56	336	1
EXTAP	57	0	0
EXTAP	57	0	7
EXTAP	57	72	3
EXTAP	57	72	4
BXSTR	57	144	1
BRSI_	57	144	1	96	48	4
BXSTR	57	144	6
BRSI_	57	144	6	96	48	3
NMSTR	58	0	2
NMSI_	58	0	2	96	48	7
NMTAP	58	48	2
NMSTR	58	96	6
NMSI_	58	96	6	96	48	3
NMTAP	58	144	6
NMTAP	58	192	0
NMTAP	58	240	1
NMTAP	58	288	2
NMTAP	58	288	4
NMTAP	59	0	0
NMTAP	59	0	5
NMTAP	59	48	0
NMTAP	59	48	5
NMTAP	59	96	6
NMTAP	59	120	7
EXHLD	59	168	6	120
EXTAP	59	168	7
NMTAP	59	240	4
NMTAP	59	288	4
NMSTR	60	0	5
NMSI_	60	0	5	96	48	0
NMTAP	60	48	5
NMSTR	60	96	1
NMSI_	60	96	1	96	48	4
NMTAP	60	144	1
NMTAP	60	192	7
NMTAP	60	240	6
NMTAP	60	288	3
NMTAP	60	288	5
NMTAP	61	0	2
NMTAP	61	0	7
NMTAP	61	48	2
NMTAP	61	48	7
NMTAP	61	96	1
NMTAP	61	120	0
EXSTR	61	168	0
NMSI_	61	168	0	96	48	4
EXSTR	61	168	1
NMSI_	61	168	1	96	48	5
NMSTR	62	0	2
NMSI_	62	0	2	96	48	7
NMTAP	62	48	2
NMSTR	62	96	6
NMSI_	62	96	6	96	48	3
NMTAP	62	144	6
NMTAP	62	192	0
NMTAP	62	240	1
NMTAP	62	288	2
NMTAP	62	288	4
NMTAP	63	0	0
NMTAP	63	0	5
NMTAP	63	48	0
NMTAP	63	48	5
NMTAP	63	96	6
NMTAP	63	120	7
EXHLD	63	168	6	120
EXTAP	63	168	7
NMTAP	63	240	4
NMTAP	63	288	4
NMTAP	64	0	2
NMTAP	64	0	5
NMTAP	64	48	2
NMTAP	64	48	5
NMTAP	64	96	3
NMTAP	64	120	4
EXTAP	64	168	3
EXHLD	64	168	4	120
NMTAP	64	240	5
NMTAP	64	288	5
BRTAP	65	0	3
BRTAP	65	0	4
BRTAP	65	96	5
BRTAP	65	96	6
BRSTR	65	192	0
NMSCR	65	192	0	96	48	3
BRSTR	65	192	7
NMSUR	65	192	7	96	48	4
EXSTR	66	0	7
NMSI_	66	0	7	96	48	3
NMTAP	66	48	7
NMSTR	66	96	0
NMSI_	66	96	0	96	48	4
NMTAP	66	144	0
NMSTR	66	192	6
NMSI_	66	192	6	96	48	3
NMTAP	66	240	6
NMTAP	66	288	1
NMTAP	67	0	2
NMTAP	67	24	3
NMTAP	67	72	3
NMTAP	67	120	3
NMTAP	67	144	2
NMSTR	67	192	1
NMSI_	67	192	1	96	48	3
NMSTR	67	192	4
NMSI_	67	192	4	96	48	6
NMTAP	67	240	1
NMTAP	67	240	4
EXSTR	68	0	0
NMSI_	68	0	0	96	48	4
NMTAP	68	48	0
NMSTR	68	96	7
NMSI_	68	96	7	96	48	3
NMTAP	68	144	7
NMSTR	68	192	1
NMSI_	68	192	1	96	48	4
NMTAP	68	240	1
NMTAP	68	288	6
NMTAP	69	0	5
NMTAP	69	24	4
NMTAP	69	72	4
NMTAP	69	120	4
NMTAP	69	144	5
NMSTR	69	192	3
NMSI_	69	192	3	96	48	1
NMSTR	69	192	6
NMSI_	69	192	6	96	48	4
NMTAP	69	240	3
NMTAP	69	240	6
BRTAP	70	0	0
BRTAP	70	0	3
NMTAP	70	96	1
NMTAP	70	144	1
NMTAP	70	192	3
NMTAP	70	192	4
NMTAP	70	240	3
NMTAP	70	240	4
NMTAP	70	288	6
NMTAP	70	336	6
BRTAP	71	0	4
BRTAP	71	0	7
NMTAP	71	96	6
NMTAP	71	144	6
NMTAP	71	192	3
NMTAP	71	192	4
NMTAP	71	240	3
NMTAP	71	240	4
NMTAP	71	288	1
NMTAP	71	336	1
BRTAP	72	0	0
BRTAP	72	0	3
NMTAP	72	48	1
NMTAP	72	96	2
NMTAP	72	144	3
BRTAP	72	192	4
BRTAP	72	192	5
NMTAP	72	240	6
NMTAP	72	288	7
NMTAP	72	336	0
BXTAP	73	0	1
BXTAP	73	0	3
BXTAP	73	72	4
BXTAP	73	72	6
BXSTR	73	144	1
NMSI_	73	144	1	96	48	4
BXSTR	73	144	6
NMSI_	73	144	6	96	48	3
BXTAP	74	0	1
NMTAP	74	48	2
NMTAP	74	72	3
NMTAP	74	96	2
NMTAP	74	120	3
NMTAP	74	144	2
BXTAP	74	192	6
NMTAP	74	240	5
NMTAP	74	264	4
NMTAP	74	288	5
NMTAP	74	312	4
NMTAP	74	336	5
BXTAP	75	0	0
BXTAP	75	0	2
BXTAP	75	72	5
BXTAP	75	72	7
BXHLD	75	144	1	96
BXHLD	75	144	6	96
EXSTR	75	288	0
NMSI_	75	288	0	96	48	4
EXSTR	75	288	7
NMSI_	75	288	7	96	48	3

T_REC_TAP	302
T_REC_BRK	15
T_REC_XTP	65
T_REC_BXX	16
T_REC_HLD	31
T_REC_XHO	9
T_REC_BHO	0
T_REC_BXH	3
T_REC_STR	25
T_REC_BST	4
T_REC_XST	10
T_REC_XBS	5
T_REC_TTP	11
T_REC_THO	1
T_REC_SLD	42
T_REC_BSL	2
T_REC_ALL	541
T_NUM_TAP	413
T_NUM_BRK	45
T_NUM_HLD	41
T_NUM_SLD	42
T_NUM_ALL	541
T_JUDGE_TAP	453
T_JUDGE_HLD	146
T_JUDGE_SLD	44
T_JUDGE_ALL	643
TTM_EACHPAIRS	109
TTM_SCR_TAP	206500
TTM_SCR_BRK	117000
TTM_SCR_HLD	41000
TTM_SCR_SLD	63000
TTM_SCR_ALL	427500
TTM_SCR_S	410350
TTM_SCR_SS	423000
TTM_RAT_ACV	10106

