VERSION	0.00.00	1.04.00
FES_MODE	0
BPM_DEF	138.000	138.000	138.000	138.000
MET_DEF	4	4
RESOLUTION	384
CLK_DEF	384
COMPATIBLE_CODE	MA2

BPM	0	0	138.000
MET	0	0	4	4

NMHLD	1	0	4	1056
NMTTP	1	96	3	E	0	M1
NMTTP	1	192	4	E	0	M1
NMTTP	1	288	3	D	0	M1
NMTTP	2	0	4	D	0	M1
NMTTP	2	96	3	E	0	M1
NMTTP	2	192	4	E	0	M1
NMTTP	2	288	3	D	0	M1
NMTTP	3	0	4	D	0	M1
NMTTP	3	96	3	E	0	M1
NMTTP	3	192	4	E	0	M1
NMTTP	3	288	3	D	0	M1
NMTTP	4	0	1	E	0	M1
NMTTP	4	24	7	E	0	M1
NMTTP	4	48	2	E	0	M1
NMTTP	4	72	6	E	0	M1
NMTTP	4	96	3	E	0	M1
NMTTP	4	120	5	E	0	M1
NMTTP	4	144	4	E	0	M1
NMTTP	4	168	0	C	0	M1
BRTAP	4	216	0
BRTAP	4	216	7
BRTAP	4	264	3
BRTAP	4	264	4
BRTAP	4	312	1
BRTAP	4	312	6
NMSTR	5	0	0
NMSI_	5	0	0	96	48	3
NMTAP	5	0	7
NMTAP	5	96	4
NMSTR	5	192	1
NMSI_	5	192	1	96	48	4
NMTAP	5	192	5
NMTAP	5	288	7
NMSTR	6	0	2
NMSI_	6	0	2	96	48	5
NMTAP	6	0	6
NMTAP	6	96	0
NMTAP	6	192	0
NMSTR	6	192	7
NMSI_	6	192	7	96	48	4
NMTAP	6	288	3
NMTAP	7	0	2
NMSTR	7	0	6
NMSI_	7	0	6	96	48	3
NMTAP	7	96	0
NMTAP	7	192	1
NMSTR	7	192	5
NMSI_	7	192	5	96	48	2
NMTAP	7	288	7
NMTAP	8	0	1
NMTAP	8	24	3
NMTAP	8	48	2
NMTAP	8	72	4
NMTAP	8	96	3
NMTAP	8	120	5
NMTAP	8	144	4
NMTAP	8	168	6
NMTAP	8	216	0
NMTAP	8	216	1
NMTAP	8	264	3
NMTAP	8	264	4
NMTAP	8	312	6
NMTAP	8	312	7
NMHLD	9	0	0	72
NMTAP	9	72	2
NMTAP	9	144	1
NMHLD	9	192	1	72
NMTAP	9	264	3
NMTAP	9	336	2
NMHLD	10	0	2	72
NMTAP	10	72	4
NMTAP	10	144	3
NMHLD	10	192	3	72
NMTAP	10	264	5
NMTAP	10	336	6
NMSTR	11	0	6
NMSCL	11	0	6	96	48	3
NMHLD	11	0	7	72
NMTAP	11	144	1
NMHLD	11	192	0	72
NMSTR	11	192	1
NMSCR	11	192	1	96	48	4
NMTAP	11	336	6
NMSTR	12	0	6
NMSI_	12	0	6	96	48	2
NMHLD	12	0	7	72
NMTAP	12	144	0
NMTAP	12	192	1
NMTAP	12	192	7
NMTAP	12	240	2
NMTAP	12	264	6
NMTAP	12	288	3
NMTAP	12	312	5
NMTAP	12	336	4
NMHLD	13	0	7	72
NMTAP	13	72	5
NMTAP	13	144	6
NMHLD	13	192	6	72
NMTAP	13	264	4
NMTAP	13	336	5
NMHLD	14	0	5	72
NMTAP	14	72	3
NMTAP	14	144	4
NMHLD	14	192	4	72
NMTAP	14	264	2
NMTAP	14	336	3
NMTAP	15	0	1
NMTAP	15	0	3
NMTAP	15	72	2
NMTAP	15	96	3
NMTAP	15	144	3
NMTAP	15	192	1
NMTAP	15	240	1
NMTAP	15	288	0
NMTAP	15	288	7
NMTAP	16	0	4
NMTAP	16	0	6
NMTAP	16	48	6
NMTAP	16	96	4
NMTAP	16	120	5
NMHLD	16	192	3	72
NMHLD	16	192	4	72
NMTAP	17	0	6
NMTAP	17	0	7
NMTAP	17	48	4
NMTAP	17	96	3
NMSTR	17	144	1
NMSI_	17	144	1	96	32	3
NMSTR	17	240	5
NMSI_	17	240	5	96	32	7
NMTAP	17	336	4
NMTAP	18	48	0
NMTAP	18	48	1
NMSTR	18	96	2
NMSCL	18	96	2	96	96	5
NMTAP	18	144	3
NMHLD	18	192	4	72
NMTAP	18	336	3
NMTAP	19	0	2
NMSTR	19	48	1
NMSI_	19	48	1	96	48	4
NMSTR	19	144	5
NMSI_	19	144	5	96	48	0
NMTAP	19	240	3
NMTAP	19	288	2
NMHLD	19	336	1	96
NMTAP	20	48	0
NMTAP	20	96	2
NMTAP	20	96	3
NMTAP	20	144	4
NMTAP	20	144	5
NMTAP	20	192	6
NMTAP	20	192	7
NMTAP	20	240	0
NMTAP	20	264	7
NMTAP	20	288	1
NMTAP	20	312	6
NMTAP	20	336	2
NMTAP	20	360	5
NMTAP	21	0	3
NMTAP	21	0	4
NMTAP	21	48	2
NMTAP	21	96	3
NMTAP	21	96	4
NMTAP	21	144	5
NMTAP	21	192	2
NMTAP	21	192	3
NMTAP	21	240	1
NMTAP	21	288	4
NMTAP	21	288	5
NMTAP	21	336	6
NMTAP	22	0	2
NMTAP	22	0	3
NMTAP	22	48	0
NMTAP	22	96	1
NMTAP	22	96	7
NMSTR	22	144	2
NMSLR	22	144	2	96	72	0
NMSTR	22	144	6
NMSLL	22	144	6	96	72	0
NMTAP	22	240	2
NMTAP	22	240	6
NMTAP	23	0	1
NMTAP	23	0	7
NMTAP	23	48	5
NMTAP	23	96	2
NMTAP	23	120	3
NMTAP	23	168	3
NMTAP	23	192	1
NMTAP	23	240	0
NMTAP	23	240	1
NMTAP	23	288	7
NMTAP	23	336	0
NMTAP	23	336	1
NMTAP	24	0	2
NMTAP	24	48	3
NMTAP	24	96	5
NMTAP	24	120	4
NMTAP	24	168	4
NMTAP	24	192	6
NMTAP	24	240	6
NMTAP	24	240	7
NMTAP	24	288	0
NMTAP	24	336	6
NMTAP	24	336	7
NMTAP	25	0	5
NMTAP	25	48	4
NMTAP	25	96	3
NMTAP	25	144	2
NMTAP	25	192	0
NMTAP	25	192	1
NMTAP	25	240	2
NMTAP	25	240	3
NMTAP	25	288	4
NMTAP	25	288	5
NMTAP	25	336	6
NMTAP	25	336	7
NMTAP	26	0	0
NMTAP	26	24	7
NMTAP	26	48	2
NMTAP	26	72	3
NMTAP	26	96	0
NMTAP	26	120	7
NMTAP	26	144	4
NMTAP	26	168	5
NMSTR	26	192	2
NMSI_	26	192	2	96	48	7
NMSTR	26	192	6
NMSI_	26	192	6	96	48	3
NMTAP	26	240	3
NMTAP	26	240	7
BXSTR	26	288	2
NMSCL	26	288	2	96	96	4
BXTAP	26	288	6
NMTTP	27	0	0	C	1	M1
NMTAP	27	144	0
NMTAP	27	168	7
NMTAP	27	192	0
NMTAP	27	240	2
NMTAP	27	240	5
NMSTR	27	336	1
NMSI_	27	336	1	96	48	3
NMSTR	28	0	5
NMSI_	28	0	5	96	48	7
NMSTR	28	48	1
NMSI_	28	48	1	96	48	5
NMTAP	28	96	5
NMTAP	28	144	1
NMHLD	28	192	0	72
NMHLD	28	264	2	72
NMTAP	28	336	4
NMTAP	28	360	3
NMTAP	29	0	4
NMTAP	29	48	1
NMTAP	29	48	5
NMTAP	29	96	2
NMTAP	29	96	6
NMSTR	29	144	3
NMSCL	29	144	3	96	48	0
NMSTR	29	144	7
NMSCL	29	144	7	96	48	4
NMTAP	29	240	3
NMTAP	29	240	7
NMTAP	29	336	7
NMTAP	30	0	0
NMTAP	30	0	6
NMTAP	30	48	1
NMSTR	30	48	5
NMSI_	30	48	5	96	32	7
NMSTR	30	144	4
NMSI_	30	144	4	96	48	0
NMTAP	30	144	5
NMTAP	30	240	3
NMTAP	30	240	4
NMTAP	30	288	2
NMTAP	30	336	1
NMTAP	31	0	0
NMTAP	31	0	7
NMTAP	31	48	6
NMTAP	31	72	7
NMTAP	31	96	6
NMTAP	31	144	1
NMTAP	31	168	2
NMTAP	31	192	1
NMTAP	31	240	5
NMTAP	31	264	4
NMTAP	31	288	5
NMSTR	31	336	6
NMSI_	31	336	6	96	48	4
NMSTR	31	336	7
NMSI_	31	336	7	96	48	3
NMTAP	32	0	6
NMTAP	32	0	7
NMTTP	32	48	6	A	0	M1
NMTTP	32	48	7	E	1	M1
NMTTP	32	48	7	A	0	M1
NMSTR	32	144	0
NMSI_	32	144	0	96	48	4
NMSTR	32	144	1
NMSLR	32	144	1	96	72	7
NMTTP	32	240	0	A	0	M1
NMTTP	32	240	1	E	1	M1
NMTTP	32	240	1	A	0	M1
CNSI_	32	288	4	0	24	6
NMTAP	33	48	5
NMTAP	33	96	4
NMTAP	33	144	3
NMSTR	33	144	6
NMSCR	33	144	6	96	48	1
NMTAP	33	240	4
NMTAP	33	240	6
NMTAP	33	336	0
NMTAP	33	336	7
NMTAP	34	0	1
NMTAP	34	0	6
NMSTR	34	48	2
NMSCR	34	48	2	96	48	5
NMTAP	34	48	5
NMTAP	34	144	0
NMTAP	34	144	2
NMSTR	34	240	7
NMSI_	34	240	7	96	48	3
NMTAP	34	288	0
NMTAP	34	288	6
NMTAP	34	336	7
NMTAP	35	48	1
NMTAP	35	48	2
NMTAP	35	96	0
NMTAP	35	96	3
NMTAP	35	192	5
NMTAP	35	192	6
NMTAP	35	240	4
NMTAP	35	240	7
NMTAP	35	336	0
NMSTR	35	336	1
NMSI_	35	336	1	96	48	5
NMTAP	36	0	7
NMTAP	36	48	1
NMSTR	36	48	6
NMSI_	36	48	6	96	48	2
NMTAP	36	144	6
NMTAP	36	144	7
NMSTR	36	240	3
NMSXR	36	240	3	96	288	0
NMSTR	36	240	4
NMSXL	36	240	4	96	288	7
NMTAP	36	288	1
NMTAP	36	288	6
EXTAP	36	336	3
EXTAP	36	336	4
NMTAP	37	336	1
NMTAP	37	360	3
NMTAP	38	0	2
NMTAP	38	48	6
NMTAP	38	72	4
NMTAP	38	96	5
NMTAP	38	144	0
NMTAP	38	168	7
NMTAP	38	216	1
NMTAP	38	216	6
NMTAP	38	312	2
NMTAP	38	336	4
NMTAP	38	360	3
NMTAP	39	0	5
NMTAP	39	48	1
NMTAP	39	72	0
NMTAP	39	96	1
NMTAP	39	144	6
NMTAP	39	168	7
NMTAP	39	192	6
NMTAP	39	240	1
NMTAP	39	264	0
NMTAP	39	288	2
NMTAP	39	312	7
NMTAP	39	336	3
NMTAP	39	360	6
NMTAP	40	0	4
NMTAP	40	24	5
NMTAP	40	48	3
NMTAP	40	72	4
NMTAP	40	96	2
NMTAP	40	120	3
NMTAP	40	144	1
NMTAP	40	168	4
NMTAP	40	192	0
NMTAP	40	216	1
NMTAP	40	240	2
NMTAP	40	264	3
NMTAP	40	288	4
NMTAP	40	312	5
NMTAP	40	336	6
NMTAP	40	360	7
EXTAP	41	48	1
NMTAP	41	72	0
NMTAP	41	96	1
EXTAP	41	120	3
NMTAP	41	144	2
NMTAP	41	168	3
EXTAP	41	192	1
NMTAP	41	216	0
NMTAP	41	240	1
EXTAP	41	264	3
NMTAP	41	288	2
NMTAP	41	312	3
EXTAP	41	336	1
NMTAP	41	360	0
NMTAP	42	0	1
NMTAP	42	48	2
NMTAP	42	48	7
NMTAP	42	96	3
NMTAP	42	144	4
NMTAP	42	144	5
NMTAP	42	192	7
NMTAP	42	216	6
NMTAP	42	240	5
NMTAP	42	264	4
NMTAP	42	288	3
NMTAP	42	312	2
NMTAP	42	336	1
NMTAP	42	360	0
EXTAP	43	48	6
NMTAP	43	72	7
NMTAP	43	96	6
EXTAP	43	120	4
NMTAP	43	144	5
NMTAP	43	168	4
EXTAP	43	192	6
NMTAP	43	216	7
NMTAP	43	240	6
EXTAP	43	264	4
NMTAP	43	288	5
NMTAP	43	312	4
EXTAP	43	336	6
NMTAP	43	360	7
NMTAP	44	0	6
NMTAP	44	48	0
NMTAP	44	48	5
NMTAP	44	96	2
NMTAP	44	96	3
NMTAP	44	168	5
NMTAP	44	192	5
NMTAP	44	216	4
NMTAP	44	264	0
NMTAP	44	264	7
EXTAP	44	288	1
EXTAP	44	288	6
NMHLD	45	0	4	48
NMHLD	45	0	5	48
NMHLD	45	72	2	48
NMHLD	45	72	3	48
NMTAP	45	144	0
NMSTR	45	144	7
NMSCL	45	144	7	96	48	4
NMSTR	45	240	0
NMSCR	45	240	0	96	48	3
NMTAP	45	240	7
NMTAP	45	336	0
NMTAP	45	336	7
NMTAP	46	48	5
NMTAP	46	96	3
NMTAP	46	96	4
NMTAP	46	144	2
NMTAP	46	192	0
NMTAP	46	192	1
NMTAP	46	240	2
NMTAP	46	288	3
NMTAP	46	288	4
NMTAP	46	336	5
NMTAP	47	0	6
NMTAP	47	0	7
NMTAP	47	48	1
NMTAP	47	48	5
NMTAP	47	96	2
NMTAP	47	144	1
NMTAP	47	144	3
NMTAP	47	192	5
NMTAP	47	240	4
NMTAP	47	240	6
NMTAP	47	288	0
NMTAP	47	288	1
NMTAP	47	336	2
NMTAP	47	336	6
NMTAP	48	0	0
NMTAP	48	24	5
NMTAP	48	48	4
NMTAP	48	72	5
NMTAP	48	96	0
NMTAP	48	120	4
NMTAP	48	144	3
NMTAP	48	168	4
NMTAP	48	192	0
NMTAP	48	216	3
NMTAP	48	240	2
NMTAP	48	264	3
NMSTR	48	288	0
NMSI_	48	288	0	96	32	4
BRHLD	49	0	7	1056
NMTTP	49	3	0	C	1	M1
NMTAP	49	192	3
NMTAP	49	288	3
NMTAP	50	0	3
NMTAP	50	96	3
NMTAP	50	192	3
NMTAP	50	288	3
NMTAP	51	0	3
NMTAP	51	96	3
NMTAP	51	192	3
NMTAP	51	288	3
NMTAP	52	0	2
NMTAP	52	0	4
NMTAP	52	48	5
NMTAP	52	72	4
NMTAP	52	96	5
NMTAP	52	144	2
NMTAP	52	144	6
NMTAP	52	192	0
NMTAP	52	216	0
NMTAP	52	240	7
NMTAP	52	264	7
NMTAP	52	288	0
NMTAP	52	300	1
NMTAP	52	312	2
NMTAP	52	324	3
NMTAP	52	336	4
NMTAP	52	348	5
NMTAP	52	360	6
NMTAP	52	372	7
BRTAP	53	0	0
NMTAP	53	48	5
NMTAP	53	72	4
NMTAP	53	96	5
NMTAP	53	144	1
NMTAP	53	168	2
NMTAP	53	192	1
NMTAP	53	240	6
NMTAP	53	264	7
NMTAP	53	288	6
NMSTR	53	336	0
NMSI_	53	336	0	96	48	4
NMSTR	53	336	1
NMSI_	53	336	1	96	48	3
NMTAP	54	0	0
NMTAP	54	0	1
NMTTP	54	48	0	A	0	M1
NMTTP	54	48	1	E	1	M1
NMTTP	54	48	1	A	0	M1
NMSTR	54	144	6
NMSLL	54	144	6	96	72	0
NMSTR	54	144	7
NMSI_	54	144	7	96	48	3
NMTTP	54	240	6	A	0	M1
NMTTP	54	240	7	E	1	M1
NMTTP	54	240	7	A	0	M1
CNSI_	54	288	3	0	24	1
NMTAP	55	48	1
NMSTR	55	48	3
NMSI_	55	48	3	96	48	7
NMTAP	55	96	2
NMTAP	55	96	4
NMTAP	55	144	3
NMSTR	55	144	5
NMSCR	55	144	5	96	48	0
NMTAP	55	240	3
NMTAP	55	240	5
NMSTR	55	336	4
NMSI_	55	336	4	96	48	0
NMTAP	55	336	6
NMTAP	56	0	3
NMTAP	56	0	5
NMSTR	56	48	2
NMSCL	56	48	2	96	48	7
NMTAP	56	48	4
NMTAP	56	144	2
NMTAP	56	144	4
NMSTR	56	240	1
NMSI_	56	240	1	96	48	4
NMSTR	56	240	6
NMSI_	56	240	6	96	48	3
NMTAP	56	288	0
NMTAP	56	288	7
NMTAP	56	336	1
NMTAP	56	336	6
NMTAP	57	48	0
NMTAP	57	72	7
NMTAP	57	96	1
NMTAP	57	120	3
NMTAP	57	144	2
NMTAP	57	168	4
NMTAP	57	192	3
NMTAP	57	216	5
NMTAP	57	240	4
NMTAP	57	264	6
NMTAP	57	288	4
NMTAP	57	312	5
NMTAP	57	336	3
NMTAP	57	360	4
NMTAP	58	0	2
NMTAP	58	24	3
NMTAP	58	48	1
NMTAP	58	72	1
NMTAP	58	96	5
NMTAP	58	120	4
NMTAP	58	144	6
NMTAP	58	168	6
NMTAP	58	192	2
NMTAP	58	216	3
NMTAP	58	240	0
NMTAP	58	264	0
NMTAP	58	288	5
NMTAP	58	312	4
NMTAP	58	336	7
NMTAP	58	360	7
EXSTR	59	0	3
NMSF_	59	0	3	96	48	7
BRTAP	59	96	3
NMTAP	59	192	1
NMTAP	59	192	5
NMTAP	59	240	2
NMTAP	59	288	3
NMTAP	59	288	4
NMTAP	59	336	6
NMTAP	59	360	7
NMTAP	60	0	6
NMTAP	60	48	5
NMTAP	60	96	3
NMTAP	60	96	4
NMTAP	60	144	2
NMTAP	60	168	3
NMTAP	60	192	1
NMTAP	60	240	0
NMTAP	60	288	1
NMTAP	60	288	7
NMTAP	60	336	5
NMTAP	60	360	4
NMTAP	61	0	6
NMTAP	61	48	7
NMTAP	61	96	0
NMTAP	61	96	6
NMTAP	61	144	2
NMTAP	61	168	3
NMTAP	61	192	1
NMTAP	61	216	4
NMTAP	61	240	0
NMTAP	61	264	5
NMTAP	61	288	7
NMTAP	61	336	1
NMTAP	61	336	5
NMHLD	62	0	2	48
NMHLD	62	0	3	48
NMHLD	62	72	5	48
NMHLD	62	72	6	48
NMSTR	62	144	0
NMSLR	62	144	0	96	48	5
NMSTR	62	144	1
NMSCR	62	144	1	96	48	4
EXTAP	62	240	0
EXTAP	62	240	1
NMTAP	62	336	6
NMTAP	62	360	6
NMSTR	63	0	5
NMSI_	63	0	5	96	48	0
NMSTR	63	0	7
NMSI_	63	0	7	96	48	3
BRTAP	63	96	5
BRTAP	63	96	7
NMTAP	63	192	2
NMTAP	63	192	6
NMTAP	63	240	5
NMTAP	63	288	3
NMTAP	63	288	4
NMTAP	63	336	1
NMTAP	63	360	0
NMTAP	64	0	1
NMTAP	64	48	2
NMTAP	64	96	3
NMTAP	64	96	4
NMTAP	64	144	5
NMTAP	64	168	4
NMTAP	64	192	6
NMTAP	64	240	7
NMTAP	64	288	0
NMTAP	64	288	6
NMTAP	64	336	2
NMTAP	64	360	3
NMTAP	65	0	1
NMTAP	65	48	0
NMTAP	65	96	1
NMTAP	65	96	7
NMTAP	65	144	5
NMTAP	65	168	4
NMTAP	65	192	6
NMTAP	65	216	3
NMTAP	65	240	7
NMTAP	65	264	2
NMTAP	65	288	0
NMTAP	65	336	2
NMTAP	65	336	6
NMHLD	66	0	5	72
NMHLD	66	72	4	72
NMSTR	66	144	3
NMSI_	66	144	3	96	48	7
NMTAP	67	0	0
NMTAP	67	24	1
NMTAP	67	48	7
NMTAP	67	72	6
NMTAP	67	96	1
NMTAP	67	120	2
NMTAP	67	144	6
NMTAP	67	168	5
NMTAP	67	192	2
NMTAP	67	216	3
NMTAP	67	240	5
NMTAP	67	264	4
NMTAP	67	288	2
NMTAP	67	312	3
NMTAP	67	336	6
NMTAP	67	360	5
NMTAP	68	0	1
NMTAP	68	24	2
NMTAP	68	48	7
NMTAP	68	72	6
NMTAP	68	96	0
NMTAP	68	120	1
NMTAP	68	144	4
NMTAP	68	168	3
NMTTP	68	192	0	C	1	M1
NMTAP	68	192	5
NMTAP	68	256	1
NMTTP	68	256	7	A	1	M1
NMTTP	68	320	3	A	1	M1
NMTAP	68	320	6
NMTAP	69	0	2
NMTTP	69	0	4	A	1	M1
NMTTP	69	64	0	A	1	M1
NMTAP	69	64	5
NMTTP	69	128	0	C	1	M1
NMTTP	69	128	2	B	0	M1
NMTTP	69	128	2	E	0	M1
NMTTP	69	128	6	B	0	M1
NMTTP	69	128	6	E	0	M1
NMTAP	69	288	0
NMTAP	69	312	7
NMTAP	69	336	0
NMTAP	69	360	7
NMTAP	70	0	1
NMTAP	70	24	3
NMTAP	70	48	2
NMTAP	70	72	4
NMTAP	70	96	3
NMTAP	70	120	5
NMTAP	70	144	4
NMTAP	70	168	6
NMTAP	70	192	0
NMTAP	70	208	1
NMTAP	70	224	2
NMTAP	70	240	6
NMTAP	70	256	5
NMTAP	70	272	4
NMTAP	70	288	1
NMTAP	70	304	2
NMTAP	70	320	3
NMTAP	70	336	7
NMTAP	70	352	6
NMTAP	70	368	5
NMTAP	71	0	2
NMTAP	71	16	3
NMTAP	71	32	4
NMTAP	71	48	0
NMTAP	71	64	7
NMTAP	71	80	6
NMSTR	71	96	1
NMSI_	71	96	1	96	32	6
NMSTR	71	96	5
NMSI_	71	96	5	96	32	2
BRTAP	71	168	1
BRTAP	71	168	5

T_REC_TAP	559
T_REC_BRK	12
T_REC_XTP	16
T_REC_HLD	29
T_REC_XHO	0
T_REC_STR	56
T_REC_BST	1
T_REC_XST	1
T_REC_TTP	43
T_REC_THO	0
T_REC_SLD	58
T_REC_ALL	775
T_NUM_TAP	675
T_NUM_BRK	13
T_NUM_HLD	29
T_NUM_SLD	58
T_NUM_ALL	775
T_JUDGE_TAP	688
T_JUDGE_HLD	90
T_JUDGE_SLD	58
T_JUDGE_ALL	836
TTM_EACHPAIRS	132
TTM_SCR_TAP	337500
TTM_SCR_BRK	33800
TTM_SCR_HLD	29000
TTM_SCR_SLD	87000
TTM_SCR_ALL	487300
TTM_SCR_S	471450
TTM_SCR_SS	486000
TTM_RAT_ACV	10026

