VERSION	0.00.00	1.04.00
FES_MODE	0
BPM_DEF	138.000	138.000	138.000	138.000
MET_DEF	4	4
RESOLUTION	384
CLK_DEF	384
COMPATIBLE_CODE	MA2

BPM	0	0	138.000
MET	0	0	4	4

NMHLD	1	0	4	384
NMTAP	1	96	3
NMTAP	1	192	3
NMTAP	1	288	3
NMHLD	2	0	3	384
NMTAP	2	96	4
NMTAP	2	192	4
NMTAP	2	288	4
NMHLD	3	0	4	288
NMTAP	3	96	3
NMTAP	3	192	3
NMSTR	3	288	3
NMSI_	3	288	3	96	96	0
EXTAP	4	216	0
EXTAP	4	216	7
EXTAP	4	264	0
EXTAP	4	264	7
EXTAP	4	312	1
EXTAP	4	312	6
EXHLD	5	0	5	96
NMTAP	5	96	4
NMHLD	5	192	1	96
NMTAP	5	288	3
NMHLD	6	0	6	96
NMTAP	6	96	4
NMHLD	6	192	2	96
NMTAP	6	288	3
NMHLD	7	0	5	96
NMTAP	7	96	7
NMHLD	7	192	2	96
NMTAP	7	288	0
NMTAP	8	0	7
NMTAP	8	96	1
NMTAP	8	96	6
EXTAP	8	216	3
EXTAP	8	216	4
EXTAP	8	264	3
EXTAP	8	264	4
EXTAP	8	312	2
EXTAP	8	312	5
NMTAP	9	0	6
NMTAP	9	96	3
NMTAP	9	96	5
NMTAP	9	192	2
NMTAP	9	288	3
NMTAP	9	288	4
NMTAP	10	0	6
NMTAP	10	96	4
NMTAP	10	96	5
NMTAP	10	192	2
NMTAP	10	288	3
NMTAP	10	288	4
NMSTR	11	0	5
NMSCL	11	0	5	96	96	2
NMSTR	11	192	1
NMSI_	11	192	1	96	96	5
NMTAP	12	0	6
NMSTR	12	96	7
NMSXR	12	96	7	96	144	7
NMTAP	13	0	2
NMTAP	13	96	1
NMTAP	13	96	7
NMTAP	13	192	5
NMTAP	13	288	0
NMTAP	13	288	6
NMSTR	14	0	7
NMSI_	14	0	7	96	96	2
NMSI_	14	0	7	96	96	4
NMTAP	14	288	1
NMTAP	14	288	5
NMSTR	15	0	0
NMSI_	15	0	0	96	96	3
NMSTR	15	192	4
NMSI_	15	192	4	96	96	7
NMSTR	16	0	3
NMSUR	16	0	3	96	192	4
NMTAP	17	0	4
NMHLD	17	0	5	96
NMTAP	17	96	4
NMTAP	17	192	3
NMHLD	17	192	4	96
NMTAP	17	288	3
NMHLD	18	0	2	96
NMTAP	18	0	3
NMTAP	18	96	3
NMHLD	18	192	3	96
NMTAP	18	192	4
NMTAP	18	288	4
NMSTR	19	0	5
NMSI_	19	0	5	96	96	2
NMTAP	19	192	1
NMTAP	19	288	1
NMSTR	20	0	2
NMSCR	20	0	2	96	96	5
NMTAP	20	192	6
NMTAP	20	288	7
NMHLD	21	0	7	384
NMTTP	21	96	4	B	0	M1
NMTTP	21	192	3	E	0	M1
NMTTP	21	288	1	B	0	M1
NMHLD	22	0	0	384
NMTTP	22	96	2	B	0	M1
NMTTP	22	192	4	E	0	M1
NMTTP	22	288	5	B	0	M1
NMHLD	23	0	6	384
NMTTP	23	96	7	E	0	M1
NMTTP	23	192	6	E	0	M1
NMTTP	23	288	5	E	0	M1
NMHLD	24	0	1	384
NMTTP	24	96	1	E	0	M1
NMTTP	24	192	2	E	0	M1
NMTTP	24	288	3	E	0	M1
NMSTR	25	0	7
NMSI_	25	0	7	96	96	3
NMTAP	25	192	2
BXSTR	25	288	0
NMSCR	25	288	0	96	96	3
BXSTR	25	288	4
NMSCR	25	288	4	96	96	7
EXTAP	26	192	2
EXTAP	26	192	6
NMSTR	26	288	5
NMSCR	26	288	5	96	96	1
NMTTP	27	0	0	C	1	M1
NMTAP	27	192	7
NMTAP	27	240	7
NMTAP	27	336	0
NMTAP	27	336	6
NMTAP	28	0	0
NMTAP	28	0	6
NMTAP	28	96	1
NMTAP	28	144	1
NMTAP	28	192	3
NMTAP	28	288	6
NMTAP	28	336	6
NMTAP	29	0	4
NMTAP	29	96	6
NMTAP	29	96	7
NMTAP	29	144	6
NMTAP	29	144	7
NMTAP	29	240	0
NMTAP	29	240	5
NMTAP	29	336	1
NMTAP	30	0	1
NMTAP	30	48	0
NMTAP	30	144	2
NMTAP	30	144	7
NMTAP	30	240	1
NMTAP	30	240	3
NMTAP	30	288	1
NMSTR	30	288	3
NMSCR	30	288	3	96	192	2
NMTTP	31	0	0	C	1	M1
EXTAP	31	336	0
EXTAP	31	336	7
EXTAP	32	0	0
EXTAP	32	0	7
EXTAP	32	48	1
EXTAP	32	48	6
BXSTR	32	144	3
BRSCL	32	144	3	96	96	0
BXSTR	32	144	4
BRSCR	32	144	4	96	96	7
NMTAP	33	48	6
NMTAP	33	48	7
NMTAP	33	96	0
NMTAP	33	96	5
NMHLD	33	144	1	96
NMTAP	33	144	4
NMTAP	33	240	3
NMTAP	33	336	0
NMTAP	33	336	1
NMTAP	34	0	2
NMTAP	34	0	7
NMTAP	34	48	3
NMHLD	34	48	6	96
NMTAP	34	144	4
NMTAP	34	240	0
NMTAP	34	240	7
NMTAP	34	288	0
NMTAP	34	288	7
NMTAP	34	336	1
NMTAP	34	336	6
NMTAP	35	48	2
NMTAP	35	96	1
NMTAP	35	96	3
NMTAP	35	192	5
NMSTR	35	240	4
NMSXR	35	240	4	96	240	0
NMTAP	35	240	6
EXTAP	36	144	6
NMSTR	36	240	7
NMSCL	36	240	7	96	144	3
NMTAP	36	288	7
BRTAP	36	336	0
NMTAP	37	192	1
NMTAP	37	288	0
NMTAP	37	288	7
NMHLD	38	0	6	96
NMTAP	38	96	4
NMHLD	38	192	1	96
NMTAP	38	288	3
NMSTR	39	0	5
NMSCL	39	0	5	96	96	2
NMSTR	39	192	1
NMSCL	39	192	1	96	96	6
NMHLD	40	0	5	96
NMHLD	40	96	7	96
NMHLD	40	192	0	96
NMHLD	40	288	2	96
NMTAP	41	0	5
NMTAP	41	96	4
NMTAP	41	96	6
NMTAP	41	192	2
NMTAP	41	288	1
NMTAP	41	288	3
NMHLD	42	0	5	96
NMTAP	42	96	7
NMHLD	42	192	2	96
NMTAP	42	288	0
NMSTR	43	0	6
NMSI_	43	0	6	96	96	3
NMSTR	43	192	2
NMSI_	43	192	2	96	96	7
NMTAP	44	0	4
NMTAP	44	96	3
NMTAP	44	96	5
BXTAP	44	192	2
BXTAP	44	192	6
NMHLD	45	0	1	96
NMTAP	45	96	0
NMTAP	45	144	0
NMSTR	45	240	2
NMSI_	45	240	2	96	96	7
NMSTR	45	240	3
NMSI_	45	240	3	96	96	6
NMTAP	46	192	6
NMTAP	46	192	7
NMSTR	46	288	4
NMSUR	46	288	4	96	192	6
NMTAP	46	288	5
CNSCR	47	192	6	0	192	3
NMTAP	48	288	3
NMTAP	48	288	5
NMHLD	49	0	7	1152
NMTAP	49	96	0
NMTAP	49	192	0
NMTAP	49	288	0
NMTAP	50	0	1
NMTAP	50	96	1
NMTAP	50	192	1
NMTAP	50	288	1
NMTAP	51	0	2
NMTAP	51	96	2
NMTAP	51	192	2
NMTAP	51	288	2
NMTAP	52	0	3
NMTAP	52	96	3
BXSTR	52	192	7
NMSI_	52	192	7	96	96	3
BRHLD	53	0	0	96
NMTAP	53	96	3
NMTAP	53	144	3
NMTAP	53	192	1
NMTAP	53	192	4
NMTAP	53	240	1
NMTAP	53	240	4
NMTAP	53	336	4
NMTAP	53	336	5
NMTAP	54	0	4
NMTAP	54	0	5
NMTAP	54	48	3
NMHLD	54	48	6	96
NMSTR	54	144	7
BRSF_	54	144	7	96	96	3
NMTAP	55	48	2
NMTAP	55	48	3
NMTAP	55	96	1
NMTAP	55	96	4
NMTAP	55	144	0
NMHLD	55	144	5	96
NMTAP	55	240	4
NMTAP	55	336	4
NMTAP	55	336	5
NMTAP	56	0	3
NMTAP	56	0	6
NMHLD	56	48	2	96
NMTAP	56	48	7
NMTAP	56	144	3
NMTAP	56	240	2
NMTAP	56	240	3
NMTAP	56	288	2
NMTAP	56	288	3
NMTAP	56	336	1
NMTAP	56	336	4
NMTAP	57	48	5
NMTAP	57	96	4
NMTAP	57	96	6
NMTAP	57	192	2
NMSTR	57	240	1
NMSXR	57	240	1	96	240	4
NMTAP	57	240	3
EXTAP	58	144	7
NMSTR	58	240	6
NMSCR	58	240	6	96	240	4
NMTAP	58	288	6
BRTAP	58	336	0
EXTAP	59	288	0
EXTAP	59	288	6
NMTAP	60	0	1
NMTAP	60	0	7
NMTAP	60	96	4
NMTAP	60	96	5
NMTAP	60	192	0
NMTAP	60	192	6
NMTAP	60	288	2
NMTAP	60	288	3
NMSTR	61	0	7
NMSCL	61	0	7	96	96	4
NMSCR	61	0	7	96	96	2
EXTAP	61	288	2
EXTAP	61	288	4
NMSTR	62	0	0
BRSCL	62	0	0	96	96	5
BRSCR	62	0	0	96	96	3
EXTAP	62	288	3
EXHLD	62	288	5	96
NMTAP	63	0	4
BRTAP	63	96	0
NMTAP	63	192	1
NMTAP	63	192	3
NMTAP	63	288	6
NMTAP	64	0	4
NMTAP	64	0	5
NMTAP	64	96	1
NMTAP	64	192	2
NMTAP	64	192	3
NMTAP	64	288	7
NMTAP	65	0	4
NMHLD	65	0	6	96
NMTAP	65	96	0
NMHLD	65	192	1	96
NMTAP	65	192	3
NMSTR	65	288	7
NMSUR	65	288	7	96	192	0
EXTAP	66	288	2
EXTAP	66	288	5
EXTAP	67	0	6
NMTAP	67	48	5
NMTAP	67	96	4
EXTAP	67	144	1
NMTAP	67	192	2
NMTAP	67	240	3
EXTAP	67	288	6
NMTAP	67	336	5
NMTAP	68	0	4
EXTAP	68	48	1
NMTAP	68	96	2
NMTAP	68	144	3
BXHLD	68	192	6	64
NMHLD	68	256	5	64
NMHLD	68	320	4	64
BXHLD	69	0	3	64
NMHLD	69	64	2	64
NMHLD	69	128	1	64
NMSTR	69	192	0
NMSXL	69	192	0	96	192	3
NMSXR	69	192	0	96	192	5
NMSTR	70	192	6
NMSCL	70	192	6	96	96	3
NMTAP	71	0	1
NMTAP	71	96	0
NMTAP	71	96	7
BXTAP	71	168	2
BXTAP	71	168	5

T_REC_TAP	204
T_REC_BRK	3
T_REC_XTP	33
T_REC_BXX	4
T_REC_HLD	37
T_REC_XHO	2
T_REC_BHO	1
T_REC_BXH	2
T_REC_STR	30
T_REC_BST	0
T_REC_XST	0
T_REC_XBS	5
T_REC_TTP	14
T_REC_THO	0
T_REC_SLD	34
T_REC_BSL	5
T_REC_ALL	374
T_NUM_TAP	281
T_NUM_BRK	20
T_NUM_HLD	39
T_NUM_SLD	34
T_NUM_ALL	374
T_JUDGE_TAP	293
T_JUDGE_HLD	146
T_JUDGE_SLD	39
T_JUDGE_ALL	478
TTM_EACHPAIRS	83
TTM_SCR_TAP	140500
TTM_SCR_BRK	52000
TTM_SCR_HLD	39000
TTM_SCR_SLD	51000
TTM_SCR_ALL	282500
TTM_SCR_S	272100
TTM_SCR_SS	280500
TTM_RAT_ACV	10071

