VERSION	0.00.00	1.04.00
FES_MODE	0
BPM_DEF	160.000	160.000	160.000	160.000
MET_DEF	4	4
RESOLUTION	384
CLK_DEF	384
COMPATIBLE_CODE	MA2

BPM	0	0	160.000
MET	0	0	4	4

NMHLD	1	0	2	144
NMHLD	1	144	3	144
NMTAP	1	288	4
NMHLD	2	0	6	144
NMHLD	2	144	5	144
NMTAP	2	288	4
NMHLD	3	0	0	144
NMHLD	3	144	1	144
NMSTR	3	288	2
NMSCR	3	288	2	96	288	0
NMTAP	5	0	5
NMTAP	5	96	4
NMTAP	5	96	6
NMTAP	5	192	3
NMTAP	5	240	3
NMTAP	5	288	4
NMTAP	6	0	1
NMTAP	6	48	1
NMTAP	6	96	3
NMTAP	6	144	3
NMTAP	6	192	2
NMTAP	6	288	1
NMTAP	6	288	3
NMTAP	7	0	0
NMTAP	7	48	0
NMTAP	7	96	7
NMTAP	7	144	7
NMTAP	7	192	1
NMTAP	7	240	1
NMTAP	7	288	6
NMTAP	7	336	6
NMTAP	8	0	2
NMTAP	8	48	3
NMTAP	8	96	4
NMTAP	8	144	5
NMTAP	8	192	6
NMTAP	8	240	7
NMTAP	8	288	0
EXTAP	8	336	1
EXTAP	8	336	7
BRTAP	9	0	2
BRTAP	9	0	6
NMSTR	9	96	5
NMSI_	9	96	5	96	48	3
NMTAP	9	144	3
NMTAP	9	192	5
NMSTR	9	288	1
NMSI_	9	288	1	96	48	3
NMTAP	9	336	3
NMTAP	10	0	1
NMTAP	10	96	5
NMHLD	10	144	4	48
NMHLD	10	144	6	48
NMHLD	10	240	3	48
NMHLD	10	240	5	48
NMTAP	10	336	2
NMTAP	10	336	4
NMTAP	11	0	1
NMSTR	11	96	2
NMSI_	11	96	2	96	48	4
NMTAP	11	144	4
NMTAP	11	192	2
NMSTR	11	288	6
NMSI_	11	288	6	96	48	4
NMTAP	11	336	4
NMTAP	12	0	6
NMTAP	12	96	1
NMHLD	12	144	1	48
NMTAP	12	192	3
NMHLD	12	240	3	48
NMTAP	12	288	5
NMTAP	12	336	5
NMTAP	13	0	4
NMTAP	13	0	6
NMTAP	13	96	2
NMTAP	13	144	2
NMSTR	13	192	1
NMSCR	13	192	1	96	48	3
NMSTR	13	192	3
NMSCR	13	192	3	96	48	5
NMTAP	14	96	5
NMTAP	14	144	5
NMSTR	14	192	4
NMSI_	14	192	4	96	48	0
NMSTR	14	192	6
NMSI_	14	192	6	96	48	4
NMTAP	15	96	0
NMTAP	15	144	0
NMTAP	15	192	1
NMTAP	15	192	7
NMTAP	15	288	6
NMHLD	15	336	6	48
NMTAP	16	0	4
NMHLD	16	48	4	48
NMTAP	16	96	2
NMTAP	16	144	2
NMSTR	16	192	0
NMSI_	16	192	0	96	48	3
NMSTR	16	192	4
NMSI_	16	192	4	96	48	7
BRTAP	17	0	1
BRTAP	17	0	5
NMSTR	17	96	6
NMSI_	17	96	6	96	48	3
NMTAP	17	144	7
NMTAP	17	192	6
NMSTR	17	288	1
NMSCR	17	288	1	96	48	4
NMTAP	17	336	0
NMTAP	18	0	1
NMTAP	18	96	5
NMHLD	18	144	4	48
NMHLD	18	144	6	48
NMHLD	18	240	2	48
NMHLD	18	240	4	48
NMTAP	18	336	4
NMTAP	18	336	6
NMTAP	19	0	3
NMTAP	19	0	7
NMSTR	19	96	1
NMSI_	19	96	1	96	48	4
NMTAP	19	144	0
NMTAP	19	192	1
NMSTR	19	288	6
NMSCL	19	288	6	96	48	3
NMTAP	19	336	7
NMTAP	20	0	6
NMTAP	20	96	2
NMTAP	20	144	1
NMTAP	20	144	3
NMTAP	20	192	4
NMTAP	20	240	3
NMTAP	20	240	5
NMTAP	20	288	2
NMTAP	20	336	1
NMTAP	20	336	3
NMTAP	21	0	0
NMTAP	21	0	4
NMSTR	21	96	6
NMSI_	21	96	6	96	48	0
NMTAP	21	144	1
NMSTR	21	192	6
NMSI_	21	192	6	96	48	2
NMSTR	21	240	2
NMSI_	21	240	2	96	48	4
NMTAP	21	288	6
NMSTR	22	96	1
NMSI_	22	96	1	96	48	7
NMTAP	22	144	6
NMSTR	22	192	1
NMSI_	22	192	1	96	48	5
NMSTR	22	240	5
NMSI_	22	240	5	96	48	3
NMTAP	22	288	1
NMTAP	23	96	0
NMTAP	23	96	7
NMTAP	23	144	1
NMTAP	23	144	6
NMTAP	23	192	2
NMTAP	23	192	5
NMSTR	23	288	1
NMSI_	23	288	1	96	48	5
NMTAP	23	336	0
NMTAP	24	0	1
NMSTR	24	48	6
NMSI_	24	48	6	96	48	2
NMTAP	24	96	7
NMTAP	24	144	6
NMSTR	24	192	0
NMSF_	24	192	0	96	48	4
NMTAP	24	288	0
BRTAP	25	0	2
BRTAP	25	0	6
NMTTP	25	96	2	E	0	M1
NMHLD	25	96	7	1344
NMTTP	25	192	3	E	0	M1
NMTTP	25	288	4	E	0	M1
NMTTP	26	0	1	A	0	M1
NMTTP	26	96	2	A	0	M1
NMTTP	26	192	3	A	0	M1
NMTTP	26	288	4	A	0	M1
NMTTP	27	0	1	D	0	M1
NMTTP	27	96	2	D	0	M1
NMTTP	27	192	3	D	0	M1
NMTTP	27	288	4	D	0	M1
NMTTP	28	0	0	A	0	M1
NMTTP	28	96	1	A	0	M1
NMTTP	28	192	2	A	0	M1
NMTTP	28	288	3	A	0	M1
EXTAP	29	0	3
EXTAP	29	0	4
NMTAP	29	96	0
NMTTP	29	96	6	E	0	M1
NMTAP	29	192	0
NMTTP	29	192	5	E	0	M1
NMTAP	29	288	0
NMTTP	29	288	4	E	0	M1
NMTAP	30	0	0
NMTTP	30	0	6	A	0	M1
NMTAP	30	96	0
NMTTP	30	96	5	A	0	M1
NMTAP	30	192	0
NMTTP	30	192	4	A	0	M1
NMTAP	30	288	0
NMTTP	30	288	3	A	0	M1
NMTAP	31	0	1
NMTTP	31	0	7	D	0	M1
NMTAP	31	48	1
NMTAP	31	96	1
NMTTP	31	96	6	D	0	M1
NMTAP	31	144	1
NMTAP	31	192	1
NMTTP	31	192	5	D	0	M1
NMTAP	31	240	1
NMTAP	31	288	1
NMTTP	31	288	4	D	0	M1
NMTAP	31	336	1
EXTAP	32	0	0
EXTAP	32	0	7
NMSTR	32	96	5
NMSCR	32	96	5	96	48	0
NMTAP	32	144	5
NMSTR	32	192	1
NMSV_	32	192	1	96	48	4
NMTAP	32	240	1
NMSTR	32	288	4
NMSXR	32	288	4	96	192	1
NMTTP	33	0	6	B	0	M1
NMTTP	33	0	7	B	0	M1
NMTTP	33	0	7	E	1	M1
CNSCR	33	192	1	0	192	0
NMTTP	34	0	2	B	0	M1
NMTTP	34	0	3	B	0	M1
NMTTP	34	0	3	E	1	M1
NMTAP	34	192	6
NMSTR	34	192	7
NMSI_	34	192	7	96	48	4
NMSTR	34	288	0
NMSI_	34	288	0	96	48	3
NMTAP	34	288	7
NMTAP	35	0	0
NMTAP	35	0	1
NMTAP	35	96	2
NMTAP	35	96	4
NMTAP	35	144	2
NMTAP	35	144	4
NMSTR	35	240	7
NMSCL	35	240	7	96	48	4
NMTAP	35	288	4
NMTAP	35	336	7
NMTAP	36	48	1
NMTAP	36	48	3
NMSTR	36	96	2
NMSCL	36	96	2	96	48	7
NMTAP	36	144	2
NMSTR	36	192	6
NMSV_	36	192	6	96	48	3
NMTAP	36	240	6
NMSTR	36	288	3
NMSXL	36	288	3	96	192	6
NMTTP	37	0	0	B	0	M1
NMTTP	37	0	1	B	0	M1
NMTTP	37	0	1	E	1	M1
CNSCL	37	192	6	0	192	7
NMTTP	38	0	4	B	0	M1
NMTTP	38	0	5	B	0	M1
NMTTP	38	0	5	E	1	M1
NMSTR	38	96	1
NMSI_	38	96	1	96	48	3
NMTAP	38	144	1
NMSTR	38	192	7
NMSI_	38	192	7	96	48	5
NMTAP	38	240	7
NMSTR	38	288	0
NMSI_	38	288	0	96	48	4
NMTAP	38	336	0
NMSTR	39	0	4
NMSF_	39	0	4	96	48	0
NMTAP	39	192	2
NMTAP	39	192	6
NMTAP	39	240	2
NMTAP	39	240	6
NMTAP	39	288	5
NMTAP	39	336	4
NMTAP	40	0	2
EXTAP	40	0	3
NMTAP	40	48	1
EXTAP	40	96	0
NMTAP	40	96	7
NMTAP	40	144	6
EXTAP	40	192	4
NMTAP	40	192	5
NMTAP	40	240	6
NMTAP	40	288	0
EXTAP	40	288	7
NMTAP	40	336	1
NMTAP	41	0	2
EXHLD	41	0	3	384
NMTTP	41	96	3	E	0	M1
NMTTP	41	192	2	E	0	M1
NMTTP	41	288	1	E	0	M1
EXHLD	42	0	0	96
NMSTR	42	96	7
NMSCL	42	96	7	96	48	4
NMSTR	42	192	0
NMSCR	42	192	0	96	48	3
EXTAP	42	192	7
EXTAP	42	288	0
NMTAP	42	288	7
EXHLD	43	0	4	384
NMTAP	43	0	5
NMTTP	43	96	5	E	0	M1
NMTTP	43	192	6	E	0	M1
NMTTP	43	288	7	E	0	M1
EXHLD	44	0	7	96
NMTTP	44	96	0	C	0	M1
EXTAP	44	192	0
NMTTP	44	192	5	B	0	M1
NMTTP	44	192	6	E	0	M1
NMTTP	44	288	1	B	0	M1
NMTTP	44	288	2	E	0	M1
EXSTR	44	288	7
NMSCL	44	288	7	96	288	0
EXTAP	45	0	0
EXTAP	45	0	7
NMTTP	45	96	0	E	0	M1
NMTTP	45	192	0	C	0	M1
NMTTP	45	288	4	E	0	M1
EXTAP	46	0	0
EXTAP	46	0	7
NMTAP	46	96	1
NMTAP	46	144	2
NMTAP	46	192	6
NMTAP	46	240	5
NMTAP	46	288	3
NMTAP	46	336	4
NMSTR	47	0	1
NMSCR	47	0	1	96	48	3
NMSTR	47	0	6
NMSCL	47	0	6	96	48	4
NMTAP	47	192	0
NMTAP	47	192	7
NMTAP	47	240	1
NMTAP	47	240	6
NMTAP	47	288	2
NMTAP	47	288	5
NMSTR	47	336	3
NMSI_	47	336	3	96	48	0
NMSTR	47	336	4
NMSI_	47	336	4	96	48	7
NMHLD	48	144	1	96
NMHLD	48	144	6	96
NMSTR	48	288	3
NMSCL	48	288	3	96	96	1
NMTAP	48	288	4
NMSTR	49	0	1
NMSCL	49	0	1	96	96	7
NMSTR	49	96	7
NMSCL	49	96	7	96	96	5
NMSTR	49	192	5
NMSCL	49	192	5	96	96	2
NMSTR	49	288	2
NMSCL	49	288	2	96	96	7
NMSTR	50	0	7
NMSCL	50	0	7	96	96	4
NMSTR	50	96	4
NMSCL	50	96	4	96	96	0
NMSTR	50	192	0
NMSI_	50	192	0	96	48	4
NMTAP	50	288	4
NMHLD	51	0	6	72
NMHLD	51	72	5	72
NMTAP	51	144	4
NMTAP	51	240	3
NMTAP	51	240	5
NMTAP	51	288	2
NMTAP	51	288	4
NMTAP	51	336	1
NMTAP	51	336	3
NMHLD	52	0	0	72
NMHLD	52	72	1	72
NMTAP	52	144	2
NMTAP	52	240	3
NMTAP	52	240	4
NMTAP	52	288	3
NMSTR	52	288	4
NMSCR	52	288	4	96	96	6
NMSTR	53	0	6
NMSCR	53	0	6	96	96	0
NMSTR	53	96	0
NMSCR	53	96	0	96	96	2
NMSTR	53	192	2
NMSCR	53	192	2	96	96	5
NMSTR	53	288	5
NMSCR	53	288	5	96	96	0
NMSTR	54	0	0
NMSCR	54	0	0	96	96	3
NMSTR	54	96	3
NMSCR	54	96	3	96	96	7
NMSTR	54	192	7
NMSI_	54	192	7	96	48	3
NMTAP	54	288	3
NMTAP	55	0	1
NMTAP	55	48	1
NMTAP	55	96	3
NMTAP	55	144	3
NMTAP	55	192	4
NMTAP	55	240	4
NMTAP	55	288	6
NMTAP	55	336	6
NMTAP	56	0	0
NMTAP	56	24	7
NMTAP	56	48	0
NMTAP	56	72	7
NMTAP	56	96	1
NMTAP	56	120	6
NMTAP	56	144	1
NMTAP	56	168	6
NMTAP	56	192	2
NMTAP	56	216	5
NMTAP	56	240	2
NMTAP	56	264	5
BRTAP	56	288	3
BRTAP	56	288	4
NMSTR	57	0	0
NMSI_	57	0	0	96	48	3
EXTAP	57	0	1
NMTAP	57	96	0
NMHLD	57	192	0	72
NMHLD	57	264	1	72
NMTAP	57	336	2
NMSTR	58	0	0
NMSCR	58	0	0	96	48	3
EXTAP	58	0	3
NMTAP	58	96	0
NMTAP	58	192	5
NMTAP	58	200	4
NMTAP	58	240	6
NMTAP	58	240	7
NMTAP	58	288	0
NMTAP	58	288	5
NMSTR	59	0	0
NMSI_	59	0	0	96	48	3
EXTAP	59	0	1
NMTAP	59	96	0
NMHLD	59	192	0	72
NMHLD	59	264	1	72
NMTAP	59	336	2
NMSTR	60	0	0
NMSCR	60	0	0	96	48	3
EXTAP	60	0	3
NMTAP	60	96	0
NMTAP	60	192	4
NMTAP	60	192	5
NMTAP	60	240	7
NMTAP	60	288	2
NMTAP	60	288	3
NMTAP	60	336	0
NMSTR	61	0	4
NMSI_	61	0	4	96	48	7
EXTAP	61	0	5
NMTAP	61	96	4
NMHLD	61	192	4	72
NMHLD	61	264	5	72
NMTAP	61	336	6
EXTAP	62	0	4
NMSTR	62	0	7
NMSCL	62	0	7	96	48	4
NMTAP	62	96	7
NMTAP	62	192	2
NMTAP	62	200	3
NMTAP	62	240	1
NMTAP	62	240	4
NMTAP	62	288	0
NMTAP	62	336	5
EXTAP	63	0	6
NMSTR	63	0	7
NMSI_	63	0	7	96	48	4
NMTAP	63	96	7
NMHLD	63	192	7	72
NMHLD	63	264	5	72
NMSTR	63	336	3
NMSI_	63	336	3	96	48	7
NMTAP	64	48	0
NMTAP	64	96	1
NMTAP	64	144	2
NMTAP	64	192	7
NMTAP	64	208	6
NMTAP	64	224	5
NMTAP	64	240	4
NMTAP	64	264	2
NMTAP	64	288	3
NMTAP	64	336	0
NMTAP	64	336	5
NMSTR	65	0	6
NMSI_	65	0	6	96	48	2
NMTAP	65	48	7
NMTAP	65	96	6
NMTAP	65	144	0
NMTAP	65	192	1
NMTAP	65	192	7
NMTAP	65	240	2
NMTAP	65	264	2
NMTAP	65	288	3
NMTAP	65	336	4
NMTAP	65	336	5
NMTAP	66	0	3
NMTAP	66	0	6
NMSTR	66	48	7
NMSCL	66	48	7	96	48	4
NMTAP	66	96	4
NMTAP	66	144	7
NMTAP	66	192	2
NMTAP	66	200	3
NMTAP	66	240	0
NMTAP	66	240	1
NMTAP	66	288	2
NMTAP	66	288	7
NMSTR	67	0	0
NMSI_	67	0	0	96	48	3
NMTAP	67	48	7
NMTAP	67	96	0
NMTAP	67	144	5
NMTAP	67	192	4
NMTAP	67	192	6
NMTAP	67	240	2
NMTAP	67	264	3
NMTAP	67	288	1
NMTAP	67	336	0
NMTAP	67	336	5
NMSTR	68	0	7
NMSI_	68	0	7	96	48	4
NMTAP	68	48	0
NMTAP	68	96	7
NMTAP	68	144	2
NMTAP	68	192	1
NMTAP	68	192	3
NMTAP	68	240	5
NMTAP	68	264	4
NMTAP	68	288	6
NMTAP	68	336	2
NMTAP	68	336	7
NMSTR	69	0	1
NMSI_	69	0	1	96	48	5
NMTAP	69	48	0
NMTAP	69	96	1
NMTAP	69	144	7
NMTAP	69	192	0
NMTAP	69	192	6
NMTAP	69	240	5
NMTAP	69	264	5
NMTAP	69	288	4
NMTAP	69	336	2
NMTAP	69	336	3
NMTAP	70	0	1
NMTAP	70	0	4
NMSTR	70	48	0
NMSCR	70	48	0	96	48	3
NMTAP	70	96	3
NMTAP	70	144	0
NMTAP	70	192	5
NMTAP	70	200	4
NMTAP	70	240	7
NMTAP	70	288	0
NMTAP	70	288	6
NMTAP	70	336	1
NMTAP	70	336	5
NMTAP	71	0	2
NMTAP	71	0	4
NMTAP	71	48	1
NMTAP	71	96	0
NMTAP	71	96	7
NMTAP	71	144	6
NMTAP	71	192	3
NMTAP	71	192	5
NMTAP	71	240	4
NMTAP	71	288	3
NMTAP	71	312	5
NMTAP	71	336	3
NMTAP	71	360	5
NMTAP	72	0	2
NMTAP	72	24	6
NMTAP	72	48	2
NMTAP	72	72	6
NMTAP	72	96	1
NMTAP	72	120	7
NMTAP	72	144	1
NMTAP	72	168	7
NMTAP	72	192	0
NMTAP	72	208	1
NMTAP	72	224	2
NMTAP	72	240	3
NMTAP	72	264	5
NMTAP	72	288	4
NMTAP	72	336	2
NMTAP	72	336	7
BRSTR	73	0	0
NMSI_	73	0	0	96	48	5
BRSTR	73	0	1
NMSI_	73	0	1	96	48	4
NMSTR	73	192	7
NMSCL	73	192	7	96	48	4
NMTAP	73	264	0
NMTAP	73	288	7
NMTAP	73	336	0
NMSTR	74	0	3
NMSI_	74	0	3	96	48	6
NMTAP	74	72	0
NMTAP	74	96	3
NMTAP	74	144	0
NMSTR	74	192	7
NMSI_	74	192	7	96	48	4
NMTAP	74	264	0
NMTAP	74	288	7
NMTAP	74	336	0
NMSTR	75	0	3
NMSI_	75	0	3	96	48	6
NMTAP	75	72	0
NMTAP	75	96	3
NMTAP	75	144	0
NMSTR	75	192	7
NMSCL	75	192	7	96	48	4
NMTAP	75	264	0
NMTAP	75	288	7
NMTAP	75	336	0
NMSTR	76	0	3
NMSI_	76	0	3	96	48	6
NMTAP	76	72	0
NMTAP	76	96	3
NMTAP	76	144	0
NMSTR	76	192	7
NMSI_	76	192	7	96	48	3
NMSTR	76	288	3
NMSCL	76	288	3	96	120	5
EXTAP	76	288	7
EXTAP	77	0	3
NMTAP	77	0	4
NMTAP	77	96	4
NMTAP	77	192	4
NMSTR	77	192	5
NMSI_	77	192	5	96	48	2
NMTAP	77	288	4
NMSTR	78	0	2
NMSI_	78	0	2	96	48	7
NMTAP	78	0	4
NMTAP	78	96	4
NMTAP	78	192	4
NMSTR	78	192	7
NMSI_	78	192	7	96	48	3
NMTAP	78	288	4
EXSTR	79	0	3
NMSCL	79	0	3	96	48	0
NMTAP	79	48	4
NMTAP	79	96	5
EXSTR	79	144	6
NMSCL	79	144	6	96	48	3
NMTAP	79	192	7
NMTAP	79	240	0
EXSTR	79	288	1
NMSCL	79	288	1	96	48	6
NMTAP	79	336	2
NMTAP	80	0	3
EXSTR	80	48	4
NMSCL	80	48	4	96	48	1
NMTAP	80	96	5
NMTAP	80	144	6
EXSTR	80	192	7
NMSI_	80	192	7	96	48	3
NMSTR	80	288	3
NMSF_	80	288	3	96	48	7
EXTAP	81	96	1
EXTAP	81	96	5
NMSTR	81	192	0
NMSCR	81	192	0	96	48	3
NMTAP	81	264	7
NMTAP	81	288	0
NMTAP	81	336	7
NMSTR	82	0	4
NMSI_	82	0	4	96	48	1
NMTAP	82	72	7
NMTAP	82	96	4
NMTAP	82	144	7
NMSTR	82	192	0
NMSI_	82	192	0	96	48	3
NMTAP	82	264	7
NMTAP	82	288	0
NMTAP	82	336	7
NMSTR	83	0	4
NMSI_	83	0	4	96	48	1
NMTAP	83	72	7
NMTAP	83	96	4
NMTAP	83	144	7
NMSTR	83	192	0
NMSCR	83	192	0	96	48	3
NMTAP	83	264	7
NMTAP	83	288	0
NMTAP	83	336	7
NMSTR	84	0	4
NMSI_	84	0	4	96	48	1
NMTAP	84	72	7
NMTAP	84	96	4
NMTAP	84	144	7
NMSTR	84	192	0
NMSF_	84	192	0	96	48	4
EXSTR	85	0	2
NMSI_	85	0	2	96	48	7
EXSTR	85	0	6
NMSI_	85	0	6	96	48	3
BRTAP	85	96	2
BRTAP	85	96	6
NMSTR	85	192	1
NMSCR	85	192	1	96	48	4
NMTAP	85	264	0
NMTAP	85	288	1
NMTAP	85	336	5
NMSTR	86	0	6
NMSCL	86	0	6	96	48	3
NMTAP	86	72	7
NMTAP	86	96	6
NMTAP	86	144	2
NMSTR	86	192	0
NMSI_	86	192	0	96	48	4
NMTAP	86	264	7
NMTAP	86	288	0
NMTAP	86	336	6
EXSTR	87	0	5
NMSCR	87	0	5	96	48	0
NMTAP	87	48	4
NMTAP	87	96	3
EXSTR	87	144	2
NMSCR	87	144	2	96	48	5
NMTAP	87	192	1
NMTAP	87	240	0
EXSTR	87	288	7
NMSCR	87	288	7	96	48	2
NMTAP	87	336	6
NMTAP	88	0	5
EXSTR	88	48	4
NMSCR	88	48	4	96	48	7
NMTAP	88	96	3
NMTAP	88	144	2
EXSTR	88	192	1
NMSI_	88	192	1	96	48	5
BRTAP	88	288	1
BRTAP	88	288	5

T_REC_TAP	394
T_REC_BRK	12
T_REC_XTP	28
T_REC_HLD	33
T_REC_XHO	4
T_REC_STR	95
T_REC_BST	2
T_REC_XST	13
T_REC_TTP	52
T_REC_THO	0
T_REC_SLD	110
T_REC_ALL	743
T_NUM_TAP	582
T_NUM_BRK	14
T_NUM_HLD	37
T_NUM_SLD	110
T_NUM_ALL	743
T_JUDGE_TAP	596
T_JUDGE_HLD	106
T_JUDGE_SLD	110
T_JUDGE_ALL	812
TTM_EACHPAIRS	99
TTM_SCR_TAP	291000
TTM_SCR_BRK	36400
TTM_SCR_HLD	37000
TTM_SCR_SLD	165000
TTM_SCR_ALL	529400
TTM_SCR_S	512200
TTM_SCR_SS	528000
TTM_RAT_ACV	10026

