VERSION	0.00.00	1.04.00
FES_MODE	0
BPM_DEF	160.000	160.000	160.000	160.000
MET_DEF	4	4
RESOLUTION	384
CLK_DEF	384
COMPATIBLE_CODE	MA2

BPM	0	0	160.000
MET	0	0	4	4

EXSTR	1	0	0
NMSCL	1	0	0	96	480	1
EXTAP	1	0	7
EXTAP	3	0	0
EXSTR	3	0	7
NMSCR	3	0	7	96	480	6
NMTAP	5	0	4
NMTAP	5	96	4
NMTAP	5	192	2
NMTAP	5	192	3
NMTAP	5	288	2
NMTAP	5	288	3
NMTAP	6	0	1
NMTAP	6	96	1
NMTAP	6	192	0
NMTAP	6	192	7
NMTAP	6	288	0
NMTAP	6	288	7
NMTAP	7	0	6
NMTAP	7	96	5
NMTAP	7	192	2
NMTAP	7	192	4
NMTAP	7	288	2
NMTAP	7	288	4
BXHLD	8	0	1	192
BXHLD	8	0	5	192
NMHLD	9	0	2	192
NMTAP	9	0	3
NMTTP	9	192	3	E	0	M1
NMTAP	10	0	4
NMHLD	10	0	5	192
NMTTP	10	192	5	E	0	M1
NMHLD	11	0	2	192
NMTAP	11	0	3
NMTTP	11	192	3	E	0	M1
NMTAP	12	0	4
NMHLD	12	0	5	192
NMTTP	12	192	4	E	0	M1
NMHLD	13	0	2	192
NMTAP	13	0	4
NMTAP	13	96	3
NMTAP	13	192	3
EXTAP	13	288	2
EXTAP	13	288	3
NMTAP	14	96	3
NMTAP	14	96	5
NMTAP	14	192	4
NMTAP	14	192	5
EXTAP	14	288	4
EXTAP	14	288	5
NMTAP	15	96	6
NMTAP	15	192	5
NMTAP	15	288	4
NMTAP	16	0	3
NMTAP	16	96	2
NMTAP	16	96	4
BRTAP	16	192	0
BRTAP	16	192	6
NMTAP	17	0	3
NMTAP	17	0	4
NMSTR	17	96	3
NMSCL	17	96	3	96	96	0
NMSTR	17	288	4
NMSCR	17	288	4	96	96	7
NMSTR	18	96	3
NMSCL	18	96	3	96	96	0
NMTAP	18	288	5
NMTAP	19	0	6
NMTAP	19	0	7
NMTAP	19	96	0
NMTAP	19	192	6
NMTAP	19	192	7
NMTAP	19	288	5
NMTAP	20	0	6
NMTAP	20	0	7
NMTAP	20	96	0
NMTAP	20	192	1
NMTAP	20	288	2
NMTAP	21	0	3
NMTAP	21	0	4
NMSTR	21	96	4
NMSCR	21	96	4	96	96	7
NMSTR	21	288	3
NMSCL	21	288	3	96	96	0
NMSTR	22	96	4
NMSCR	22	96	4	96	96	7
NMTAP	22	288	2
NMTAP	23	0	1
NMTAP	23	96	0
NMTAP	23	192	6
NMTAP	23	192	7
NMTAP	23	288	5
NMTAP	24	0	4
NMTAP	24	96	2
NMTAP	24	96	3
NMSTR	24	192	1
BRSCR	24	192	1	96	48	3
NMSTR	24	192	4
BRSCR	24	192	4	96	48	6
NMHLD	25	96	6	576
NMTAP	25	192	4
NMTAP	25	288	4
NMTAP	26	0	3
NMTAP	26	96	3
NMTAP	26	192	4
NMTAP	26	288	4
NMTAP	27	0	7
NMHLD	27	96	7	288
NMTAP	27	192	4
NMTAP	27	288	4
NMSTR	28	0	4
NMSCL	28	0	4	96	96	1
NMTAP	29	0	1
NMHLD	29	96	1	576
NMTAP	29	192	3
NMTAP	29	288	3
NMTAP	30	0	4
NMTAP	30	96	4
NMTAP	30	192	5
NMTAP	30	288	5
NMHLD	31	0	0	576
NMTAP	31	0	4
NMTAP	31	96	4
NMTAP	31	192	3
NMSTR	31	288	3
NMSCR	31	288	3	96	192	2
BRHLD	33	0	0	288
BRHLD	33	0	6	288
NMHLD	34	0	1	96
NMHLD	34	0	7	96
NMTAP	34	192	0
NMTAP	34	192	6
NMTAP	34	288	2
NMTAP	34	288	4
NMHLD	35	0	0	288
NMHLD	35	0	5	288
NMHLD	36	0	2	96
NMHLD	36	0	7	96
NMTAP	36	192	0
NMTAP	36	192	5
NMTAP	36	288	2
NMTAP	36	288	3
NMSTR	37	0	0
BRSI_	37	0	0	96	96	3
BRHLD	37	0	5	288
CNSI_	37	192	3	0	96	6
NMTAP	38	0	6
NMTAP	38	96	6
NMHLD	38	96	7	96
NMTAP	38	192	5
NMTAP	38	288	0
NMTAP	38	288	5
NMHLD	39	0	0	96
NMTAP	39	0	4
NMTAP	39	96	6
NMHLD	39	192	7	96
NMTAP	39	288	0
NMSTR	39	336	0
NMSF_	39	336	0	96	144	4
NMHLD	41	0	3	480
NMTAP	41	0	4
NMTAP	41	96	2
NMTAP	41	192	1
NMHLD	41	288	0	192
NMTAP	42	192	3
NMTAP	42	288	2
NMTAP	42	288	4
NMTAP	43	0	3
NMHLD	43	0	4	480
NMTAP	43	96	5
NMTAP	43	192	6
NMTAP	43	288	7
NMHLD	43	336	7	144
NMTAP	44	192	4
NMTAP	44	288	3
NMTAP	44	288	6
NMSTR	45	0	0
NMSI_	45	0	0	96	96	4
NMHLD	45	0	5	288
CNSI_	45	192	4	0	96	2
NMTAP	46	0	6
NMTAP	46	96	6
NMHLD	46	96	7	96
NMTAP	46	192	5
NMTAP	46	288	0
NMTAP	46	288	5
NMHLD	47	0	1	192
NMTAP	47	0	4
NMTAP	47	96	6
NMHLD	47	192	7	144
NMTAP	47	288	0
NMTAP	47	336	0
EXSTR	48	144	0
NMSCR	48	144	0	96	336	7
EXSTR	48	144	7
NMSCL	48	144	7	96	336	0
NMTAP	50	0	0
NMTAP	50	0	1
NMTAP	50	96	2
NMTAP	50	144	2
NMTAP	50	192	3
NMTAP	50	288	4
NMTAP	50	288	5
NMSTR	51	0	6
NMSCL	51	0	6	96	96	3
NMSTR	51	192	1
NMSCR	51	192	1	96	96	4
NMSTR	52	0	6
NMSCL	52	0	6	96	96	3
NMTAP	52	192	1
NMTAP	52	288	2
NMTAP	52	288	3
NMTAP	53	0	3
NMHLD	53	0	4	96
NMTAP	53	96	5
NMHLD	53	192	3	96
NMTAP	53	192	4
NMTAP	53	288	2
NMTAP	54	0	3
NMTAP	54	0	4
NMTAP	54	96	5
NMTAP	54	144	5
NMTAP	54	192	4
NMTAP	54	288	4
NMTAP	54	288	5
NMTAP	55	0	3
NMTAP	55	0	6
NMTAP	55	96	2
NMTAP	55	96	5
NMTAP	55	192	1
NMTAP	55	192	4
NMSTR	55	288	2
BRSLL	55	288	2	96	192	4
NMSTR	55	288	5
BRSLR	55	288	5	96	192	3
EXSTR	57	0	7
NMSI_	57	0	7	96	48	3
NMHLD	57	192	2	72
NMHLD	57	264	1	72
NMTAP	57	336	0
EXSTR	58	0	0
NMSI_	58	0	0	96	48	4
NMHLD	58	192	5	72
NMHLD	58	264	6	72
NMTAP	58	336	7
EXSTR	59	0	7
NMSI_	59	0	7	96	48	3
NMHLD	59	192	2	72
NMHLD	59	264	1	72
NMTAP	59	336	0
EXSTR	60	0	0
NMSI_	60	0	0	96	48	3
NMTAP	60	192	4
NMTAP	60	264	1
NMTAP	60	264	3
NMTAP	60	336	0
EXSTR	61	0	0
NMSI_	61	0	0	96	48	4
NMHLD	61	192	5	72
NMHLD	61	264	6	72
NMTAP	61	336	7
EXSTR	62	0	7
NMSI_	62	0	7	96	48	3
NMHLD	62	192	2	72
NMHLD	62	264	1	72
NMTAP	62	336	0
EXSTR	63	0	0
NMSI_	63	0	0	96	48	4
NMHLD	63	192	5	72
NMHLD	63	264	6	72
NMTAP	63	336	7
NMTAP	64	0	7
NMTAP	64	96	6
NMTAP	64	96	7
NMTAP	64	192	4
NMTAP	64	192	5
NMTAP	64	288	2
NMTAP	64	288	3
NMSTR	65	0	0
NMSI_	65	0	0	96	48	4
NMTAP	65	0	1
NMHLD	65	192	2	72
NMHLD	65	264	0	72
NMTAP	65	336	7
NMTAP	66	0	6
NMSTR	66	0	7
NMSI_	66	0	7	96	48	3
NMHLD	66	192	5	72
NMHLD	66	264	7	72
NMTAP	66	336	0
NMSTR	67	0	0
NMSI_	67	0	0	96	48	4
NMTAP	67	0	1
NMHLD	67	192	2	72
NMHLD	67	264	0	72
NMTAP	67	336	7
NMTAP	68	0	6
NMSTR	68	0	7
NMSI_	68	0	7	96	48	4
NMTAP	68	192	5
NMTAP	68	264	4
NMTAP	68	264	6
NMTAP	68	336	6
NMTAP	68	336	7
NMTAP	69	0	6
NMSTR	69	0	7
NMSI_	69	0	7	96	48	3
NMHLD	69	192	5	72
NMHLD	69	264	7	72
NMTAP	69	336	0
EXSTR	70	0	0
NMSI_	70	0	0	96	48	4
EXTAP	70	0	1
NMHLD	70	192	2	72
NMHLD	70	264	0	72
NMTAP	70	336	7
EXTAP	71	0	6
EXSTR	71	0	7
NMSI_	71	0	7	96	48	3
NMTAP	71	192	5
NMTAP	71	240	5
NMTAP	71	288	0
NMSTR	71	336	0
NMSCR	71	336	0	96	144	6
NMTTP	72	192	0	C	1	M1
BRTAP	73	0	6
BRTAP	73	0	7
NMTAP	73	192	2
NMTAP	73	192	3
NMTAP	73	240	4
NMTAP	73	288	1
NMTAP	74	0	2
NMTAP	74	0	3
NMTAP	74	48	4
NMTAP	74	96	0
NMTAP	74	192	2
NMTAP	74	192	3
NMTAP	74	240	4
NMSTR	74	288	0
NMSI_	74	288	0	96	48	4
NMTAP	75	0	7
NMTAP	75	96	7
NMTAP	75	192	4
NMTAP	75	192	5
NMTAP	75	240	3
NMTAP	75	288	6
NMTAP	76	0	4
NMTAP	76	0	5
NMTAP	76	48	3
NMTAP	76	96	7
NMTAP	76	192	4
NMTAP	76	192	5
BRSTR	76	288	1
BRSI_	76	288	1	96	48	3
BRSTR	76	288	7
BRSI_	76	288	7	96	48	5
NMTAP	77	192	2
NMTAP	77	192	3
NMTAP	77	240	4
NMTAP	77	288	1
NMTAP	78	0	2
NMTAP	78	0	3
NMTAP	78	48	4
NMTAP	78	96	0
NMTAP	78	192	2
NMTAP	78	192	3
NMTAP	78	240	4
NMHLD	78	288	0	96
NMSTR	79	0	1
NMSUL	79	0	1	96	192	6
NMTAP	80	0	7
NMTAP	80	96	0
NMTAP	80	96	6
NMTAP	80	192	1
NMTAP	80	192	3
NMTAP	80	288	5
NMTAP	80	288	7
BRTAP	81	0	0
BRTAP	81	0	1
NMTAP	81	192	4
NMTAP	81	192	5
NMTAP	81	240	3
NMTAP	81	288	6
NMTAP	82	0	4
NMTAP	82	0	5
NMTAP	82	48	3
NMTAP	82	96	7
NMTAP	82	192	4
NMTAP	82	192	5
NMTAP	82	240	3
NMSTR	82	288	7
NMSI_	82	288	7	96	48	3
NMTAP	83	0	0
NMTAP	83	96	0
NMTAP	83	192	2
NMTAP	83	192	3
NMTAP	83	240	4
NMTAP	83	288	1
NMTAP	84	0	2
NMTAP	84	0	3
NMTAP	84	48	4
NMTAP	84	96	0
NMSTR	84	192	6
BRSI_	84	192	6	96	48	4
NMSTR	84	192	7
BRSI_	84	192	7	96	48	3
BRTAP	85	96	1
BRTAP	85	96	5
NMTAP	85	192	4
NMTAP	85	192	5
NMTAP	85	240	3
NMTAP	85	288	6
NMTAP	86	0	4
NMTAP	86	0	5
NMTAP	86	48	3
NMTAP	86	96	7
NMTAP	86	192	4
NMTAP	86	192	5
NMTAP	86	240	3
NMHLD	86	288	7	96
NMSTR	87	0	6
NMSUR	87	0	6	96	192	1
NMTAP	88	0	0
NMTAP	88	96	1
NMTAP	88	96	3
NMTAP	88	192	5
NMTAP	88	240	5
NMSTR	88	288	4
NMSI_	88	288	4	96	48	0
NMSTR	88	288	6
NMSI_	88	288	6	96	48	2

T_REC_TAP	257
T_REC_BRK	8
T_REC_XTP	8
T_REC_BXX	0
T_REC_HLD	52
T_REC_XHO	0
T_REC_BHO	3
T_REC_BXH	2
T_REC_STR	32
T_REC_BST	2
T_REC_XST	13
T_REC_XBS	0
T_REC_TTP	5
T_REC_THO	0
T_REC_SLD	38
T_REC_BSL	9
T_REC_ALL	429
T_NUM_TAP	315
T_NUM_BRK	24
T_NUM_HLD	52
T_NUM_SLD	38
T_NUM_ALL	429
T_JUDGE_TAP	325
T_JUDGE_HLD	208
T_JUDGE_SLD	47
T_JUDGE_ALL	580
TTM_EACHPAIRS	101
TTM_SCR_TAP	157500
TTM_SCR_BRK	62400
TTM_SCR_HLD	52000
TTM_SCR_SLD	57000
TTM_SCR_ALL	328900
TTM_SCR_S	316750
TTM_SCR_SS	326500
TTM_RAT_ACV	10073

